
//----- mcode: soni -----
#TITLE:Supersonic;
#ARTIST:Jamiroquai;
#BANNER:Supersonic.png;
#BACKGROUND:Supersonic-bg.png;
#CDTITLE:./CDTitles/DS SuperNOVA PS2 EU.png;
#MUSIC:Supersonic.ogg;
#SAMPLESTART:57.688;
#SAMPLELENGTH:15;
#BPMS:0=120;

//---------------dance-single - ----------------
#NOTES:
     dance-single:
     :
     Beginner:
     1:
     :
0000
0000
0000
0000
,
0000
0000
0000
0000
,
0000
0000
0000
0000
,
1000
0000
0000
0000
,
0001
0000
0000
0000
,
1000
0000
0100
0000
,
0001
0000
0100
0000
,
1000
0000
0100
0000
,
0001
0000
0100
0000
,
0010
0000
1000
0000
,
0200
0000
0000
0300
,
0100
0000
0001
0000
,
0200
0000
0000
0300
,
0100
0000
0001
0000
,
2000
0000
0000
3000
,
1000
0000
0010
0000
,
0020
0000
0000
0030
,
0010
0000
0010
0000
,
1000
0000
0001
0000
,
0100
0000
0010
0000
,
0001
0000
1000
0000
,
0001
0001
0001
0000
,
1000
0000
0100
0000
,
1000
1000
1000
0000
,
0001
0000
0100
0000
,
0010
0000
1000
0000
,
0010
0000
0010
0010
,
0010
0000
0100
0000
,
0001
0000
1000
0000
,
0100
0000
0000
0000
,
0010
0010
0010
0000
,
1000
1000
1000
0000
,
0010
0010
0010
0000
,
0001
0000
0000
0000
,
0100
0100
0100
0000
,
0010
0010
0010
0000
,
1000
1000
1000
0000
,
0001
0000
1000
0000
,
0100
0100
0100
0000
,
0010
0000
0000
0000
;

//---------------dance-single - ----------------
#NOTES:
     dance-single:
     :
     Easy:
     3:
     :
0000
0000
0000
0000
,
0000
0000
0000
0000
,
0000
0000
0000
0000
,
1000
0001
1000
0000
,
0010
0100
0010
0000
,
1000
0100
0001
0100
,
1000
0010
0100
0000
,
0010
1000
0100
0010
,
0001
0100
0010
0000
,
1000
1000
0001
0001
,
0010
0010
0100
0000
,
0010
0010
0100
0100
,
0001
0001
1000
0000
,
1000
1000
0100
0100
,
0010
0010
0001
0000
,
0001
0001
1000
1000
,
0010
0010
0100
0000
,
0001
1000
0001
1000
,
0100
1000
0010
0000
,
1000
0001
1000
0010
,
1000
0100
0010
0000
,
0010
0100
0010
0001
,
0010
1000
0100
0000
,
0001
0100
1000
0100
,
0001
0010
0100
0000
,
1000
0001
1000
0010
,
1000
1000
0100
0100
,
1000
0010
0100
0001
,
1000
0001
1000
0000
,
0200
0000
0310
0000
,
0100
0100
0100
0010
,
1000
0000
0001
0000
,
0010
0010
0010
0100
,
0020
0000
1030
0000
,
0100
0100
0100
0001
,
1000
0000
0010
0000
,
0100
0100
0100
0000
,
0001
0010
0100
1000
,
0010
0010
0100
0100
,
0110
0000
0000
0000
;

//---------------dance-single - ----------------
#NOTES:
     dance-single:
     :
     Medium:
     4:
     :
0000
0000
0000
0000
,
0000
0000
0000
0000
,
0000
0000
0000
0000
,
1000
0000
0000
0001
0100
0000
0000
0000
,
0001
0000
0000
1000
0100
0000
0010
0000
,
0100
0100
0010
0010
,
0001
0001
1000
1000
,
0010
0010
0100
0100
,
0010
0010
1000
0000
,
0001
0000
1000
0000
0100
0000
0010
0001
,
0000
1000
0001
0100
,
0010
0000
0001
0000
0100
0000
0010
1000
,
0000
0001
1000
0001
,
0100
0000
0010
0000
1000
0000
0001
1000
,
0000
0001
0100
0010
,
1000
0000
0100
0000
0010
0000
0001
0010
,
0000
0001
0100
0010
,
1000
0000
0001
0000
1000
0000
0100
0010
,
0000
0010
0000
0010
0000
0010
0000
0010
,
1000
0000
0001
0000
0100
0000
0010
1000
,
0000
1000
0000
1000
0000
1000
0000
1000
,
0100
0000
0010
0000
0001
0000
0100
0001
,
0000
0001
0000
0001
0000
0001
0000
0001
,
1000
0000
0010
0000
0100
0000
0001
1000
,
0000
0001
0000
0100
0000
0010
0000
1000
,
0100
0010
0001
1000
,
0001
0100
0001
0000
1000
0000
0010
0000
,
0100
0100
0010
0010
,
1000
0100
0001
0000
,
1000
0000
0010
0100
0000
0010
0000
0000
,
1000
0001
1000
0001
,
0100
0010
0100
0010
,
1000
0100
0001
1000
,
0010
0000
1000
0100
0000
0001
0000
0000
,
1000
0001
0100
0001
,
1000
0100
1000
0010
,
0100
0100
0010
0010
,
1000
1000
0001
0001
,
1000
0001
1000
0010
,
1010
0000
0000
0000
;

//---------------dance-single - ----------------
#NOTES:
     dance-single:
     :
     Hard:
     6:
     :
0000
0000
0000
0000
,
0000
0000
0000
0000
,
0000
0000
0000
0000
,
1000
0000
0001
0000
0010
0001
0100
0000
,
0010
0000
1000
0000
0010
1000
0100
0010
,
0001
0000
0100
0000
0001
0010
0100
1000
,
0010
0000
0100
0000
0010
0001
0100
0000
,
0010
0000
1000
0000
0001
0100
1000
0100
,
0010
0001
1000
0001
,
0010
0000
0000
0000
0100
0000
0000
0000
0010
0000
0000
0001
0000
0000
0100
0000
,
0000
1000
0010
0000
0100
0000
0010
0000
,
1000
0000
0000
0000
0001
0000
0000
0000
0010
0000
0000
0100
0000
0000
0010
0000
,
0000
1000
0100
0000
0010
0000
1000
0000
,
0001
0000
0000
0000
0010
0000
0000
0000
1000
0000
0000
0001
0000
0000
0010
0000
,
0000
0001
0010
0000
0001
0100
0010
0000
,
1000
0000
0000
0000
0100
0000
0000
0000
0001
0000
0000
1000
0000
0000
0100
0000
,
0000
0010
0001
1000
0100
0010
0100
0000
,
0110
0000
0000
0000
1001
0000
0000
0000
0001
0000
0000
0010
0000
0000
0001
0000
,
0000
0100
0010
0000
1000
0010
0100
0001
,
0101
0000
0000
0000
1100
0000
0000
0000
0001
0000
0000
0010
0000
0000
0100
0000
,
0000
0010
1000
0000
0001
0100
0010
1000
,
1001
0000
0000
0000
1010
0000
0000
0000
0010
0000
0000
0100
0000
0000
0001
0000
,
0000
0010
1000
0000
0100
0010
0001
0100
,
0101
0000
0000
0000
1001
0000
0000
0000
1000
0000
0000
0010
0000
0000
0100
0000
,
0000
0001
0010
0000
0100
0001
0010
0100
,
1000
0000
1000
0001
0100
0000
0100
0001
,
0010
0100
1000
0010
0100
0000
0010
0010
,
0001
0000
0010
0010
1000
0000
0001
0100
,
0010
1000
0100
1000
0010
0000
0000
0100
,
0010
0000
1000
0001
0000
0200
0000
0000
,
0000
0001
1000
0301
,
1000
0000
0000
0000
0001
0000
0000
0000
0010
0000
0000
0001
0000
0000
0100
0000
,
0000
0001
0010
0000
1000
0100
0001
0100
,
1000
0000
0001
0010
0000
0200
0000
0000
,
0000
1000
0010
1300
,
0010
0000
0000
0000
0001
0000
0000
0000
0010
0000
0000
1000
0000
0000
0001
0000
,
0000
0100
0010
0000
1000
0100
0010
0001
,
1000
0000
0000
0000
0001
0000
0000
0000
0010
0000
0000
0001
0000
0000
0100
0000
,
0000
0010
0001
0000
1000
0100
0010
0100
,
0110
0000
0000
0000
;

//---------------dance-double - ----------------
#NOTES:
     dance-double:
     :
     Easy:
     3:
     :
00000000
00000000
00000000
00000000
,
00000000
00000000
00000000
00000000
,
00000000
00000000
00000000
00000000
,
00010000
00001000
00010000
00000000
,
00000100
00000010
00000100
00000000
,
00001000
00000010
00000001
00000010
,
00001000
00000100
00000010
00000000
,
00000001
00001000
00000100
00010000
,
00001000
00100000
00010000
00000000
,
01000000
01000000
00100000
00100000
,
10000000
10000000
00010000
00000000
,
01000000
01000000
00001000
00001000
,
00010000
00010000
00000010
00000000
,
00000100
00000100
00000001
00000001
,
00001000
00001000
00000100
00000000
,
00000001
00000001
00000010
00000010
,
00001000
00001000
00000100
00000000
,
00010000
00001000
00010000
00001000
,
00100000
00010000
01000000
00000000
,
00100000
01000000
00100000
10000000
,
00100000
00010000
00100000
00000000
,
01000000
10000000
01000000
00010000
,
00001000
00000010
00000001
00000000
,
00000001
00000010
00001000
00000010
,
00000001
00000100
00001000
00000000
,
00000010
00001000
00000100
00010000
,
00001000
00001000
01000000
01000000
,
00100000
10000000
00010000
00100000
,
01000000
10000000
01000000
00000000
,
00200000
00000000
00310000
00000000
,
01000000
01000000
01000000
00010000
,
00100000
00000000
00001000
00000000
,
00010000
00010000
00010000
00000100
,
00002000
00000000
00003010
00000000
,
00000100
00000100
00000100
00000001
,
00000010
00000000
00000100
00000000
,
00001000
00001000
00001000
00000000
,
00000010
00010000
00001000
01000000
,
00010000
00010000
10000000
10000000
,
10010000
00000000
00000000
00000000
;

//---------------dance-double - ----------------
#NOTES:
     dance-double:
     :
     Medium:
     4:
     :
00000000
00000000
00000000
00000000
,
00000000
00000000
00000000
00000000
,
00000000
00000000
00000000
00000000
,
00000001
00000000
00000000
00001000
00000100
00000000
00000000
00000000
,
00010000
00000000
00000000
00001000
00010000
00000000
00100000
00000000
,
01000000
01000000
00100000
00100000
,
10000000
10000000
01000000
01000000
,
00010000
00010000
00001000
00001000
,
00000100
00000100
00000010
00000000
,
00002000
00000000
00003002
00000000
00001003
00000000
00000010
00000100
,
00000000
00001000
00010000
01000000
,
00200000
00000000
02300000
00000000
03100000
00000000
00010000
10000000
,
00000000
01000000
00010000
00001000
,
00000200
00000000
00000320
00000000
00000130
00000000
00001000
00000001
,
00000000
00001000
00000100
00010000
,
00002000
00000000
00023000
00000000
00031000
00000000
00100000
00010000
,
00000000
10000000
01000000
00010000
,
00002000
00000000
00023000
00000000
00031000
00000000
00010000
00000100
,
00000000
00000100
00000000
00000100
00000000
00000100
00000000
00000100
,
00000010
00000000
00000001
00000000
00000100
00000000
00001000
00010000
,
00000000
00010000
00000000
00010000
00000000
00010000
00000000
00010000
,
00001000
00000000
00100000
00000000
00010000
00000000
01000000
00100000
,
00000000
00100000
00000000
00100000
00000000
00100000
00000000
00100000
,
10000000
00000000
00010000
00000000
01000000
00000000
00100000
10000000
,
00000000
01000000
00000000
00010000
00000000
00001000
00000000
00010000
,
00001000
00000100
00000010
00000100
,
00000001
00000100
00000001
00000000
00001000
00000000
00000100
00000000
,
00010000
00010000
00001000
00001000
,
00100000
01000000
00100000
00000000
,
10000000
00000000
00010000
10000000
00000000
00010000
00000000
00000000
,
01000000
00100000
10000000
00100000
,
10000000
01000000
00010000
00001000
,
00000100
00000001
00001000
00000001
,
00000100
00000000
00000010
00000100
00000000
00000010
00000000
00000000
,
00001000
00000001
00001000
00000001
,
00000010
00001000
00010000
00100000
,
10000000
00010000
10000000
00010000
,
01000000
01000000
00001000
00001000
,
00010000
00001000
00010000
00001000
,
00011000
00000000
00000000
00000000
;

//---------------dance-double - ----------------
#NOTES:
     dance-double:
     :
     Hard:
     6:
     :
00000000
00000000
00000000
00000000
,
00000000
00000000
00000000
00000000
,
00000000
00000000
00000000
00000000
,
00010000
00000000
10000000
00000000
00100000
10000000
01000000
00000000
,
00010000
00000000
00001000
00000000
00010000
00000010
00001000
00000100
,
00000010
00000000
00000001
00000000
00001000
00000001
00000100
00001000
,
00010000
00000000
00001000
00000000
00100000
00010000
01000000
00000000
,
00100000
00000000
01000000
00000000
00010000
10000000
01000000
00010000
,
00001000
00000000
00000000
00000000
00010000
00000000
00000100
00000000
00001000
00000100
00000000
00000010
00000001
00000010
00000000
00000001
,
00000200
00000000
00000000
00000000
00000320
00000000
00000000
00000000
00002030
00000000
00000000
00003200
00000000
00000000
00020300
00000000
,
00000000
00001000
00000000
00001000
00000000
00031000
00000000
00100000
,
00020000
00000000
00000000
00000000
20030000
00000000
00000000
00000000
30200000
00000000
00000000
02300000
00000000
00000000
03020000
00000000
,
00000000
10000000
00000000
10000000
00000000
10030000
00000000
01000000
,
00020000
00000000
00000000
00000000
00032000
00000000
00000000
00000000
00003200
00000000
00000000
00000310
00000000
00000000
00002000
00000000
,
00000000
00000001
00000000
00000001
00000000
00003001
00000000
00000100
,
00002000
00000000
00000000
00000000
00023000
00000000
00000000
00000000
02030000
00000000
00000000
03200000
00000000
00000000
00320000
00000000
,
00000000
00230000
00310000
20000000
30010000
02000000
03010000
00100000
,
00110000
00000000
00000000
00000000
11000000
00000000
00000000
00000000
01010000
00000000
00000000
00100000
00000000
00000000
10100000
00000000
,
00000000
01000000
00010000
00001000
00010000
00000010
00001000
00000100
,
00001100
00000000
00000000
00000000
00000011
00000000
00000000
00000000
00001010
00000000
00000000
00000100
00000000
00000000
00000101
00000000
,
00000000
00000010
00001000
00010000
00001000
01000000
00010000
00100000
,
00110000
00000000
00000000
00000000
10100000
00000000
00000000
00000000
00200000
00000000
00000000
02300000
00000000
00000000
03100000
00000000
,
00000000
00100000
10000000
01000000
01000000
00100000
00010000
01000000
,
01010000
00000000
00000000
00000000
00011000
00000000
00000000
00000000
00000200
00000000
00000000
00000320
00000000
00000000
00000130
00000000
,
00000000
00000100
00001000
00000010
00000010
00000100
00000001
00000010
,
00000100
00000000
00001000
00000001
00000100
00000000
00001000
00010000
,
00100000
00010000
00001000
00010000
01000000
00000000
10000000
00010000
,
00100000
00000000
00010000
10000000
01000000
00000000
00100000
00001000
,
00010000
00000100
00001000
00000001
00000100
00000000
00000000
00001000
,
00001001
00000000
00000100
00002000
00000000
00020000
00000000
00000000
,
00003000
00001000
00000000
00001000
00000000
00031000
00000000
00100000
,
00010000
00000000
00000000
00000000
10000000
00000000
00000000
00000000
10100000
00000000
00000000
00100000
00000000
00000000
01100000
00000000
,
00000000
00020000
00130000
00020000
10030000
00020000
01030000
00010000
,
10010000
00000000
01000000
00020000
00000000
00002000
00000000
00000000
,
00030000
00010000
00000000
00010000
00000000
00013000
00000000
00000010
,
00001000
00000000
00000000
00000000
00000001
00000000
00000000
00000000
00000011
00000000
00000000
00000010
00000000
00000000
00000110
00000000
,
00000000
00001000
00000010
00001000
00000001
00001000
00000100
00001000
,
00000002
00000000
00000000
00000000
00000023
00000000
00000000
00000000
00000230
00000000
00000000
00020300
00000000
00000000
00032000
00000000
,
00000000
00103000
00010000
10000000
01000000
00100000
01000000
00100000
,
01100000
00000000
00000000
00000000
;
