
//----- mcode: rome -----
#TITLE:Romeo;
#ARTIST:Basement Jaxx;
#BANNER:Romeo.png;
#BACKGROUND:Romeo-bg.png;
#CDTITLE:./CDTitles/DS SuperNOVA PS2 EU.png;
#MUSIC:Romeo.ogg;
#SAMPLESTART:32.605;
#SAMPLELENGTH:15;
#DISPLAYBPM:127;
#BPMS:0=127,4=126.86;

//---------------dance-single - ----------------
#NOTES:
     dance-single:
     :
     Beginner:
     1:
     :
0000
0000
0000
0000
,
0000
0000
0000
0000
,
0000
0000
0000
0000
,
1000
0000
0001
0000
,
0100
0000
0000
0000
,
0010
0000
0100
0000
,
0001
0000
0000
0000
,
1000
0000
0010
0000
,
1000
0000
0000
0000
,
0100
0000
0010
0000
,
0001
0001
0000
0000
,
1000
0000
0010
0000
,
0100
0100
0000
0000
,
0010
0000
0001
0000
,
1000
1000
0000
0000
,
0001
0000
0010
0000
,
0100
0100
0000
0000
,
1000
0000
0001
0000
,
0020
0000
0000
0030
,
0010
0000
0000
0000
,
0200
0000
0000
0300
,
0100
0000
0000
0000
,
0002
0000
0000
0003
,
0001
0000
0000
0000
,
1001
0000
0000
0000
,
0220
0000
0000
0330
,
0000
0000
0000
0000
,
1000
0000
0010
0000
,
0001
0001
0000
0000
,
0100
0000
0010
0000
,
1000
1000
0000
0000
,
0001
0000
1000
0000
,
0010
0010
0000
0000
,
0010
0000
0010
0000
,
0010
0000
1000
0000
,
0100
0100
0100
0100
,
0100
0000
0010
0000
,
0001
0000
1000
0000
,
0100
0000
1000
0000
,
0010
0000
0001
0000
,
0100
0000
0000
0000
,
0100
0100
0100
0000
,
0010
0000
1000
0000
,
0001
0000
0000
0000
,
0010
0000
0100
0000
,
0001
0000
0000
0000
,
1000
1000
0000
0000
,
0010
0000
0100
0000
,
0001
0001
0000
0000
,
1000
0000
0100
0000
,
1000
1000
0000
0000
,
0010
0000
0010
0000
,
0100
0100
0100
0100
,
0100
0000
0010
0000
;

//---------------dance-single - ----------------
#NOTES:
     dance-single:
     :
     Easy:
     4:
     :
0000
0000
0000
0000
,
0000
0000
0000
0000
,
0000
0000
0000
0000
,
1000
0000
0001
0000
,
0010
0010
0100
0100
,
0001
0000
1000
0000
,
0001
0001
0010
0010
,
1000
0000
0010
0000
,
0100
0100
0001
0001
,
1000
0000
0010
0000
,
0100
0100
0001
0001
,
0010
0000
0100
0000
,
1000
1000
0001
0001
,
0100
0000
0010
0000
,
0100
0100
0001
0001
,
1000
0000
0010
0000
,
0100
0100
0010
0010
,
0100
0000
0010
0000
,
1000
0000
0001
0001
,
1000
0000
0010
0000
,
0100
0000
0001
0001
,
0010
0000
0100
0000
,
1000
1000
0010
0010
,
1000
0000
0100
0000
,
1000
0000
0010
0010
,
0100
0100
0100
0010
,
0100
0000
0001
0001
,
1000
0000
0010
0000
,
0100
0100
0010
0010
,
0001
0000
1000
0000
,
0100
0100
0010
0010
,
0100
0000
0010
0000
,
1000
1000
0001
0001
,
1000
0001
1000
0001
,
0100
0000
0000
0000
,
0010
0100
0010
0010
,
0100
0000
0000
0000
,
0001
0000
1000
0000
,
0010
0000
0100
0000
,
1000
0000
0010
0000
,
0100
0100
0010
0010
,
0100
0001
1000
0100
,
0010
0010
0001
0001
,
0100
0000
0010
0000
,
1000
1000
0001
0001
,
0100
0000
0010
0100
,
0001
0001
0010
0010
,
1000
0100
1000
0000
,
0100
0100
0001
0001
,
0010
0100
1000
0000
,
0100
0100
0001
0001
,
1000
0001
0100
0010
,
0100
0100
0010
0010
,
0100
1000
0100
0001
;

//---------------dance-single - ----------------
#NOTES:
     dance-single:
     :
     Medium:
     5:
     :
0000
0000
0000
0000
,
0000
0000
0000
0000
,
0000
0000
0000
0000
,
0001
0010
0100
0001
,
0100
0010
0100
0000
0001
0000
1000
0000
,
0000
0010
1000
0100
,
1000
0001
1000
0000
0010
0000
0100
0000
,
0000
0010
0001
1000
,
0100
0001
0100
0000
0010
0000
1000
0000
,
0100
0000
0000
0010
,
0001
0010
0001
0000
1000
0000
0010
0000
,
0001
0000
0100
0010
,
0001
0100
0001
0000
0010
0000
0100
0000
,
1000
0000
0010
1000
,
0001
1000
0001
0000
0010
0000
0001
0000
,
1000
0000
0000
0000
0001
0010
0001
0000
,
1000
0010
1000
0000
0100
0000
0001
0000
,
0100
0000
0010
1000
0100
0000
0010
0000
,
0110
0100
0001
0100
,
0010
0000
0100
0001
0010
0000
0100
0000
,
0110
0010
1000
0010
,
0100
0000
1000
0001
0100
0000
1000
0000
,
1100
1000
0001
1000
,
0010
0000
0100
0001
1000
0000
0010
0000
,
1010
0010
0100
0010
,
1000
0000
0100
0010
0001
0000
1000
0000
,
0010
0100
0001
0010
,
1001
0000
1000
0001
,
0100
0010
0001
1000
,
1001
0000
0001
1000
,
0010
0100
1000
0001
,
0110
0000
0010
1000
,
0100
0010
0001
0100
,
0020
0100
0100
0130
,
0001
0010
0100
0000
1000
0000
0010
0000
,
0100
0000
0001
0100
0010
0000
1000
0000
,
0002
0000
0003
0000
,
0010
0100
1000
0010
,
0100
0001
0010
0000
0100
0001
0010
0000
,
0100
1000
0001
0100
,
0010
1000
0001
0000
0100
0000
1000
0000
,
0001
1000
0001
1000
,
0010
0100
0010
0000
0001
0000
0010
0000
,
1000
0010
0100
0001
,
0100
0010
0100
0000
0001
0000
1000
0000
,
0001
0010
0001
0010
0100
0010
0100
0000
,
1000
0010
0100
0100
,
0001
0000
0010
0100
1000
0000
0010
0000
,
0100
0001
1000
1000
,
0001
0000
0100
0001
0010
0000
0100
0000
,
0001
1000
0010
0010
,
0001
0000
1000
0100
0010
0000
1000
0000
,
0010
0100
0010
0010
,
0001
0000
1000
0001
0100
0000
0010
0000
;

//---------------dance-single - ----------------
#NOTES:
     dance-single:
     :
     Hard:
     6:
     :
0000
0000
0000
0000
,
0000
0000
0000
0000
,
0000
0000
0000
0000
,
0001
0000
1000
0010
0100
0010
0100
0001
,
0010
0100
0101
1100
,
0010
0000
0100
0001
1000
0001
1000
0010
,
0100
0001
1010
0011
,
0100
0000
0010
0000
1000
0100
0010
0001
,
1000
0100
0010
0000
1000
0000
0010
0000
,
0100
0000
0001
0100
0010
0100
0010
1000
,
0100
1000
1001
0110
,
0100
0000
0001
0100
0010
1000
0010
1000
,
0001
0010
0011
1100
,
0010
0000
0100
0001
0010
0001
0010
0100
,
0010
1000
1100
0101
,
0010
0000
0100
0000
0010
1000
0100
0010
,
0001
0100
0010
0000
0110
0000
1001
0000
,
0001
0000
1000
0010
0100
0000
0010
0000
,
0100
0001
1001
1001
,
1000
0000
0001
0010
0100
0000
0010
0000
,
0100
0001
1010
1010
,
0100
0000
0001
1000
0100
0000
1000
0000
,
0010
0100
0101
0101
,
0010
0000
1000
0001
0010
0000
0110
0000
,
0001
0100
0110
0110
,
0010
0000
0001
1000
0010
0000
0101
0000
,
0010
0100
1100
0011
,
0100
0000
0010
1000
0001
0010
0001
1000
,
0010
0100
0110
0011
,
1000
0001
0010
0100
1000
0010
0100
0001
,
1000
0010
0110
1001
,
0010
0000
0001
0010
0100
0010
0001
0100
,
0010
0100
0001
1000
,
0110
1100
0101
1001
,
0001
1000
0001
0000
1000
0000
0010
0000
,
1100
0000
0001
0100
0010
0000
0100
0000
,
0010
0100
0010
0000
1000
0000
0001
0000
,
0011
1010
1100
0101
,
1000
0001
1000
0000
0001
0000
0010
0000
,
0100
0001
0100
0010
,
1002
0103
2001
3100
,
1001
1100
0101
0110
,
0010
1000
0100
0000
1000
0000
1001
0000
,
0010
1000
0100
0010
0001
0100
0010
0000
,
0100
0101
0001
1001
,
1000
0001
0010
0100
0100
0010
0100
1000
,
0001
0100
0110
1100
,
0001
0000
1000
0001
0100
0000
0110
0000
,
0010
1000
1001
1100
,
0010
0000
0001
0100
0010
0000
1001
0000
,
0100
0010
1100
0101
,
0010
0000
0100
1000
0001
0000
1001
0000
,
0010
0100
0101
1100
,
0010
0000
0001
0010
0100
0000
1001
0000
;

//---------------dance-double - ----------------
#NOTES:
     dance-double:
     :
     Easy:
     4:
     :
00000000
00000000
00000000
00000000
,
00000000
00000000
00000000
00000000
,
00000000
00000000
00000000
00000000
,
00000100
00000000
00000010
00000000
,
00000001
00000001
00001000
00001000
,
00000010
00000000
00000100
00000000
,
00000010
00000010
00010000
00010000
,
00001000
00000000
01000000
00000000
,
00010000
00010000
00100000
00100000
,
01000000
00000000
00010000
00000000
,
10000000
10000000
00100000
00100000
,
01000000
00000000
00010000
00000000
,
00100000
00100000
10000000
10000000
,
00010000
00000000
01000000
00000000
,
00001000
00001000
00010000
00010000
,
00000010
00000000
00000100
00000000
,
00000001
00000001
00000100
00000100
,
00000010
00000000
00001000
00000000
,
00000001
00000000
00001000
00001000
,
00000010
00000000
00000100
00000000
,
00000001
00000000
00001000
00001000
,
00000100
00000000
00010000
00000000
,
00001000
00001000
00010000
00010000
,
00001000
00000000
00100000
00000000
,
00010000
00000000
01000000
01000000
,
00100000
00100000
00100000
10000000
,
00010000
00000000
01000000
01000000
,
00100000
00000000
10000000
00000000
,
00010000
00010000
00100000
00100000
,
00001000
00000000
00010000
00000000
,
00000100
00000100
00000010
00000010
,
00001000
00000000
00000001
00000000
,
00000100
00000100
00000010
00000010
,
00001000
00000010
00001000
00000010
,
00000001
00000000
00000000
00000000
,
00001000
00000100
00010000
00010000
,
00001000
00000000
00000000
00000000
,
00010000
00000000
01000000
00000000
,
00100000
00000000
00010000
00000000
,
01000000
00000000
10000000
00000000
,
00100000
00100000
10000000
10000000
,
00010000
00100000
01000000
00010000
,
00100000
00100000
00001000
00001000
,
00010000
00000000
00000100
00000000
,
00000010
00000010
00001000
00001000
,
00000001
00000000
00000100
00000010
,
00001000
00001000
00000001
00000001
,
00000100
00001000
00000100
00000000
,
00000010
00000010
00000100
00000100
,
00010000
00001000
00100000
00000000
,
00010000
00010000
01000000
01000000
,
00100000
00010000
10000000
00100000
,
10000000
10000000
01000000
01000000
,
00100000
01000000
00010000
10000000
;

//---------------dance-double - ----------------
#NOTES:
     dance-double:
     :
     Medium:
     5:
     :
00000000
00000000
00000000
00000000
,
00000000
00000000
00000000
00000000
,
00000000
00000000
00000000
00000000
,
00000010
00000100
00000001
00000010
,
00000100
00001000
00000100
00000000
00010000
00000000
00001000
00000000
,
00000000
01000000
00100000
00010000
,
10000000
00100000
10000000
00000000
00010000
00000000
00100000
00000000
,
00000000
01000000
00100000
00001000
,
00010000
00001000
00010000
00000000
00000100
00000000
00000010
00000000
,
00001000
00000000
00000000
00000001
,
00001000
00000100
00001000
00000000
00000010
00000000
00000100
00000000
,
00000001
00000000
00001000
00000100
,
00010000
00001000
00010000
00000000
01000000
00000000
00100000
00000000
,
00010000
00000000
01000000
00100000
,
10000000
00010000
10000000
00000000
00100000
00000000
01000000
00000000
,
00010000
00000000
00000000
00000000
00100000
00001000
00100000
00000000
,
00001000
00010000
00001000
00000000
00000100
00000000
00000010
00000000
,
00000100
00000000
00000001
00000010
00000100
00000000
00000010
00000000
,
00000011
00001000
00000010
00001000
,
00000100
00000000
00001000
00000010
00010000
00000000
00001000
00000000
,
00011000
00001000
01000000
00100000
,
01000000
00000000
00010000
10000000
01000000
00000000
00100000
00000000
,
01100000
10000000
00010000
00100000
,
00001000
00000000
00010000
00001000
00100000
00000000
00010000
00000000
,
00011000
00001000
00000100
00000010
,
00001000
00000000
00000001
00000010
00000100
00000000
00000010
00000000
,
00001000
00000001
00000100
00000010
,
00001001
00000000
00000010
00001000
,
00000100
00010000
00001000
00010000
,
00011000
00000000
00001000
01000000
,
00100000
10000000
00010000
00100000
,
10010000
00000000
01000000
00100000
,
10000000
00010000
00100000
00001000
,
00020000
00001000
00001000
00031000
,
00001000
00000100
00001000
00000000
00000010
00000000
00000100
00000000
,
00000001
00000000
00000010
00000001
00000100
00000000
00000010
00000000
,
00002000
00000000
00003000
00000000
,
00000100
00001000
00000010
00010000
,
00001000
00010000
00001000
00000000
00010000
00001000
00010000
00000000
,
00001000
01000000
00100000
00010000
,
10000000
01000000
00100000
00000000
00010000
00000000
00100000
00000000
,
00010000
01000000
00010000
01000000
,
10000000
00010000
10000000
00000000
00010000
00000000
00100000
00000000
,
00001000
00010000
00000100
00000010
,
00000001
00000010
00000001
00000000
00001000
00000000
00000100
00000000
,
00001000
00000010
00001000
00000010
00000100
00000010
00000100
00000000
,
00000001
00001000
00000100
00000100
,
00010000
00000000
00001000
00100000
00010000
00000000
10000000
00000000
,
00100000
01000000
00010000
00010000
,
00100000
00000000
01000000
00100000
00010000
00000000
10000000
00000000
,
00100000
01000000
10000000
10000000
,
00010000
00000000
00100000
00001000
00100000
00000000
00001000
00000000
,
00010000
00000010
00000100
00000100
,
00000001
00000000
00001000
00000010
00000100
00000000
00000001
00000000
;

//---------------dance-double - ----------------
#NOTES:
     dance-double:
     :
     Hard:
     6:
     :
00000000
00000000
00000000
00000000
,
00000000
00000000
00000000
00000000
,
00000000
00000000
00000000
00000000
,
00001000
00000000
00010000
00001000
00000100
00000010
00000100
00000001
,
00001000
00000010
00001010
00000011
,
00000100
00000000
00010000
00001000
00010000
00001000
00100000
00010000
,
10000000
00100000
01010000
11000000
,
10000000
00000000
00010000
00000000
00100000
00010000
01000000
00100000
,
01000000
00001000
00010000
00001000
00010000
00000000
00000100
00000000
,
00000010
00000000
00000100
00001000
00000100
00001000
00000010
00000100
,
00000001
00001000
00001010
00000101
,
00000010
00000000
00001000
00000100
00010000
00001000
00010000
00001000
,
01000000
00100000
01100000
10010000
,
00100000
00000000
10000000
01000000
10000000
00100000
01000000
00010000
,
10000000
00100000
10100000
00110000
,
10000000
00000000
00010000
00000000
00100000
00001000
00010000
00001000
,
00000100
00000010
00000100
00000000
00000110
00000000
00001001
00000000
,
00000010
00000000
00001000
00000001
00001000
00000000
00000010
00000000
,
00000100
00000001
00001001
00001001
,
00000100
00000000
00000010
00010000
00001000
00000000
00100000
00000000
,
00010000
01000000
01100000
01100000
,
10000000
00000000
01000000
00100000
00010000
00000000
01000000
00000000
,
00100000
10000000
10100000
10100000
,
00010000
00000000
00100000
00001000
00010000
00000000
00011000
00000000
,
00000010
00001000
00001001
00001001
,
00000100
00000000
00000010
00001000
00000100
00000000
00000110
00000000
,
00000001
00001000
00000011
00001010
,
00010000
00000000
00001000
00010000
01000000
00100000
00010000
01000000
,
00100000
10000000
11000000
01010000
,
10000000
00100000
01000000
00010000
00100000
00010000
01000000
00100000
,
10000000
00010000
00110000
00011000
,
00010000
00000000
00000010
00001000
00000010
00000100
00000001
00000010
,
00000100
00000010
00000001
00001000
,
00001001
00000011
00001010
00000110
,
00000010
00010000
00000010
00000000
00010000
00000000
00001000
00000000
,
00011000
00000000
00100000
00010000
01000000
00000000
00100000
00000000
,
10000000
00010000
10000000
00000000
00100000
00000000
01000000
00000000
,
01010000
11000000
10010000
00110000
,
01000000
00010000
01000000
00000000
00010000
00000000
00100000
00000000
,
00001000
00010000
00000100
00000010
,
00002001
00003100
00001002
00000103
,
00001001
00001100
00011000
00001010
,
00000100
00000001
00000010
00000000
00000100
00000000
00000110
00000000
,
00001000
00000100
00010000
00001000
00100000
00010000
10000000
00000000
,
00100000
10100000
10000000
10010000
,
00010000
01000000
00100000
10000000
10000000
00010000
00100000
00001000
,
00010000
00000100
00001100
00001010
,
00000100
00000000
00000001
00000100
00000010
00000000
00001010
00000000
,
00000100
00000001
00001001
00000011
,
00001000
00000000
00000100
00000010
00000001
00000000
00001100
00000000
,
00000010
00010000
00011000
00101000
,
00010000
00000000
10000000
01000000
00100000
00000000
01100000
00000000
,
01000000
00010000
10010000
01100000
,
01000000
00000000
00010000
00100000
00001000
00000000
00011000
00000000
;
