
//----- mcode: rhrn -----
#TITLE:Right Here, Right Now;
#ARTIST:Fatboy Slim;
#BANNER:Right Here, Right Now.png;
#BACKGROUND:Right Here, Right Now-bg.png;
#CDTITLE:./CDTitles/DS SuperNOVA PS2 EU.png;
#MUSIC:Right Here, Right Now.ogg;
#SAMPLESTART:1.907;
#SAMPLELENGTH:15;
#BPMS:0=124.567,4=126.761,5=124.424,8=124.752,22=125,24=124.711,36=125,38=124.138,40=124.567,44=125,47=123.288,48=125,51.5=121.622,52=126.761,53=124.624,76=125.436,80=124.783,96=125,97=124.309,99.5=121.622,100=125,104=124.783,112=123.711,116=126.761,117=132.353,117.5=121.622,118=123.288,120=125,121=124.424,124=124.699,147=121.622,148=125,151=126.761,152=124.855,164=125,168=124.567,172=125,173=124.424,176=125;

//---------------dance-single - ----------------
#NOTES:
     dance-single:
     :
     Beginner:
     1:
     :
0000
0000
0000
0000
,
0000
0000
0000
0000
,
0000
0000
0000
0000
,
0000
0000
0000
0000
,
0000
0000
0000
0000
,
1000
0000
0000
0000
,
1000
0000
0000
0000
,
0001
0000
0000
0000
,
0001
0000
0000
0000
,
2000
0000
0000
3000
,
1000
0000
0000
0000
,
0002
0000
0000
0003
,
0001
0000
0000
0000
,
0100
0000
0100
0000
,
0100
0000
0000
0000
,
0010
0000
0010
0000
,
0010
0000
0000
0000
,
1001
0000
0000
0000
,
1001
0000
0000
0000
,
0110
0000
0000
0000
,
0110
0000
0000
0000
,
1000
0000
1000
0000
,
1000
0000
1000
0000
,
0001
0000
0001
0000
,
0001
0000
0001
0000
,
0100
0000
0100
0000
,
0100
0000
0100
0000
,
0010
0000
0010
0000
,
0010
0000
0010
0000
,
1000
1000
1000
0000
,
0001
0000
0001
0000
,
0100
0100
0100
0000
,
0010
0000
0010
0000
,
1000
1000
1000
0000
,
0001
0000
1000
0000
,
0001
0001
0001
0000
,
0100
0000
0010
0000
,
0110
0000
0000
0000
,
0110
0000
0000
0000
,
1001
0000
0000
0000
,
1001
0000
0000
0000
,
0001
0000
0001
0000
,
1000
0000
1000
0000
,
0001
0000
0001
0000
,
1000
0000
1001
0000
;

//---------------dance-single - ----------------
#NOTES:
     dance-single:
     :
     Easy:
     3:
     :
0000
0000
0000
0000
,
0000
0000
0000
0000
,
0000
0000
0000
0000
,
0000
0000
0000
0000
,
0000
0000
0000
0000
,
0010
0000
0010
0000
,
0001
1000
0001
0000
,
0100
0000
0100
0000
,
1000
0001
1000
0000
,
0001
0000
0001
0000
,
0010
0100
0010
0000
,
1000
0000
1000
0000
,
0100
0010
0100
0000
,
1001
0000
0110
0000
,
0001
0010
0100
0000
,
1001
0000
0110
0000
,
1000
0010
0100
0000
,
1000
1000
0001
0001
,
1000
1000
0002
0003
,
0100
0100
0010
0100
,
1000
1000
0001
1000
,
1001
0001
0000
0100
,
0010
1000
0010
0100
,
0001
0000
0000
0001
,
0010
0100
1000
0100
,
0010
0000
0000
1000
,
0100
0010
0001
0010
,
0100
0000
0000
1000
,
0100
0010
0001
0010
,
1000
1000
0001
0001
,
1000
0100
1000
0000
,
0001
0001
1000
1000
,
0001
0100
0001
0000
,
1000
1000
0100
1000
,
0001
0001
0100
0000
,
0100
0010
0100
0100
,
0001
0001
1000
0000
,
1001
0000
0010
0000
,
1001
0000
0100
0000
,
1001
0000
0010
0000
,
1001
0000
0100
0000
,
0010
0100
0010
0100
,
0001
1000
0001
1000
,
0100
0010
0100
0010
,
0001
1000
0001
0000
;

//---------------dance-single - ----------------
#NOTES:
     dance-single:
     :
     Medium:
     5:
     :
0000
0000
0000
0000
,
0000
0000
0000
0000
,
0000
0000
0000
0000
,
1000
1000
0001
0001
,
1000
0100
0010
0001
,
0100
0100
0010
0010
,
1000
0001
0100
0010
,
1000
1000
0001
0001
,
0010
0100
1000
1001
,
0001
0000
1000
0000
0010
1000
0100
0000
,
0020
0031
2000
3100
,
0010
0000
0100
0000
0001
0010
0100
0000
,
2000
3010
0002
0103
,
1000
0000
0001
0000
0010
0001
0100
0000
,
0020
0130
0002
1003
,
0100
0000
1000
0000
0010
0100
0001
0000
,
0001
1000
0001
1000
0001
1000
0001
0000
,
1000
1001
0001
1001
,
0010
0110
0100
0110
,
0001
0011
1000
1010
,
0001
0100
0001
0100
0001
1000
0100
0000
,
1000
1100
0001
0101
,
2000
3200
0320
0031
,
1000
0110
0001
0110
,
2000
3020
0230
0301
,
0100
1001
0010
1001
,
0200
0310
0002
0103
,
0010
1100
0010
0101
,
0020
0130
2000
3001
,
0002
0000
0103
0000
0001
0100
0001
0000
,
2000
0000
3100
0000
1000
0100
1000
0000
,
0002
0000
0013
0000
0001
0010
0001
0000
,
2000
0000
3010
0000
1000
0010
1000
0000
,
1000
0100
0010
0110
,
0001
0100
0010
0110
,
0001
0000
1000
0000
0100
1000
0100
0000
,
0001
0100
0220
0330
,
0001
1000
1001
0000
,
0100
0010
0110
0000
,
0001
0100
0110
0000
,
1000
0100
0110
0000
,
0001
0100
0010
1010
,
1000
0100
0010
0011
,
0001
0010
0100
1100
,
1000
0000
0010
0000
1000
0001
1000
1000
;

//---------------dance-single - ----------------
#NOTES:
     dance-single:
     :
     Hard:
     7:
     :
0000
0000
0000
0000
,
0000
0000
0000
0000
,
0000
0000
0000
0000
,
1000
0000
0100
0000
1000
0100
1000
0000
,
0001
0000
0100
0000
0001
0100
0001
0000
,
0002
0000
1003
0000
0100
1000
0100
0000
,
2000
0000
3001
0000
0100
0001
0100
0000
,
0010
0000
0110
0000
0010
1000
0100
0000
,
0010
0000
0110
0000
0010
0001
0100
0000
,
1001
0000
1100
0000
0100
0001
1000
0000
,
1001
0000
1100
0000
0100
1000
0100
0010
,
0100
0000
1001
0000
0100
0001
1000
0000
,
0010
0000
1001
0000
0010
0001
0010
0001
,
0100
0100
0010
0000
1000
0010
1000
0000
,
0010
0010
1000
1000
0010
0100
0001
0000
,
1000
1000
0100
0000
0010
0001
0010
0000
,
0001
1000
0001
0100
0010
0100
0120
0000
,
0001
0000
0130
0000
0010
0001
0200
0000
,
1000
0000
0301
1000
0100
1000
0020
0000
,
0001
0000
1030
0000
0001
0100
0010
0000
,
0010
1000
0001
0001
1000
0001
2000
0000
,
3002
0000
0023
0000
0130
1000
0020
0000
,
0230
0000
0001
0000
1000
0000
0310
0100
,
0020
0000
2030
0000
3001
0010
0200
0000
,
1000
0001
0320
0130
,
1000
1000
0002
1003
0001
0001
2000
0000
,
3200
0000
0320
0000
0032
0000
0103
0010
,
1000
0001
0200
0010
0301
0100
0010
0000
,
0010
1000
0200
0010
1300
0100
0010
0000
,
0001
0010
0001
0100
0001
0010
0100
0000
,
1000
0100
0001
0100
1000
0010
0100
0000
,
0001
0100
1000
0100
0001
0010
0100
0000
,
1000
0010
1000
0100
1000
0010
0100
0000
,
0001
1000
0100
1000
0001
0010
0100
0000
,
1000
0010
1000
0001
1000
0010
0100
0000
,
0001
0010
0100
1000
0100
0010
0001
0000
,
0100
0010
1000
0010
0200
0001
0010
0001
,
0310
1000
0001
0100
,
1000
0001
0100
0010
,
0001
0000
1000
0100
0000
1000
0001
0100
,
0010
0000
1000
0010
0000
0100
0010
1000
,
0001
0001
1000
0100
0100
0010
0001
0000
,
0100
0100
0010
1000
0100
0100
0010
0000
,
0001
1000
0010
0010
0100
0001
0010
0000
,
0001
0010
0001
1000
0001
0100
0001
0000
;

//---------------dance-double - ----------------
#NOTES:
     dance-double:
     :
     Easy:
     4:
     :
00000000
00000000
00000000
00000000
,
00000000
00000000
00000000
00000000
,
00000000
00000000
00000000
00000000
,
10000000
00010000
10000000
01000000
,
00010000
00001000
00010000
00000100
,
00000010
00000001
00001000
00000001
,
00000100
00001000
00010000
00001000
,
00100000
00010000
10000000
01000000
,
00010000
00001000
00010000
00001000
,
00000100
00000010
00001000
00000001
,
00000100
00001000
00010000
00001000
,
00100000
00100000
00010000
00010000
,
10000000
10000000
02000000
03000000
,
00010000
00010000
00001000
00001000
,
00000100
00000100
00000020
00000030
,
00000001
00000100
00001000
00010000
,
00001000
00010000
01000000
00100000
,
00020000
00030000
20000000
30000000
,
02000000
03000000
00020000
00030000
,
00002000
00003000
00020000
00030000
,
00000200
00000300
00000020
00000030
,
00001000
00001000
00000001
00000001
,
00000100
00001000
00020000
00030000
,
00001000
00001000
00010000
00010000
,
00100000
10000000
02000000
03000000
,
00100000
00100000
01000000
01000000
,
00010000
00001000
00000200
00000300
,
00000010
00000010
00001000
00001000
,
00000001
00000100
00001000
00010000
,
00001000
00100000
00010000
00100000
,
01000000
10000000
00100000
10000000
,
00010000
01000000
00100000
01000000
,
00001000
00010000
00001000
00010000
,
00000100
00000010
00000001
00000010
,
00000100
00001000
00000010
00001000
,
00000001
00001000
00000100
00001000
,
00000010
00010000
00022000
00033000
,
00010000
00000000
00010000
00000000
,
00001000
00000000
00001000
00000000
,
00100000
00000000
00100000
00000000
,
00010000
00000000
00010000
00000000
,
10000000
00010000
10000000
10010000
,
01000000
00100000
01000000
01100000
,
00010000
00001000
00010000
00011000
,
00000100
00000010
00000100
00000000
;

//---------------dance-double - ----------------
#NOTES:
     dance-double:
     :
     Medium:
     6:
     :
00000000
00000000
00000000
00000000
,
00000000
00000000
00000000
00000000
,
00000000
00000000
00000000
00000000
,
00010000
00010000
10000000
10000000
,
01000000
00010000
00001000
00000100
,
00000001
00000001
00001000
00001000
,
00000100
00010000
00001000
00100000
,
00010000
00010000
10000000
10000000
,
00100000
00010000
00001000
00011000
,
00010000
00000000
00000100
00000000
00001000
00000100
00000010
00000000
,
00000002
00000103
00002000
00013000
,
00001000
00000000
00100000
00000000
00010000
00100000
01000000
00000000
,
20000000
30100000
00020000
00031000
,
00010000
00000000
00000100
00000000
00001000
00000100
00000010
00000000
,
00000200
00001300
00000002
00000103
,
00001000
00000000
00010000
00000000
01000000
00100000
00010000
00000000
,
01000000
00010000
10000000
00010000
10000000
00010000
00100000
00000000
,
10000000
10010000
00010000
10010000
,
01000000
01010000
00010000
01010000
,
00010000
00011000
00001000
00011000
,
00001000
00000010
00000100
00000010
00000100
00000010
00000001
00000000
,
00001000
00001100
00000001
00000101
,
00000200
00002300
00023000
00031000
,
00010000
00011000
00001000
00011000
,
00020000
02030000
03200000
00300000
,
01000000
10010000
00100000
10010000
,
02000000
03010000
00002000
00013000
,
00000100
00001100
00000010
00000011
,
00000002
00000103
00000020
00001030
,
00000002
00000000
00001003
00000000
00000001
00001000
00000100
00000000
,
00020000
00000000
00031000
00000000
00010000
00001000
01000000
00000000
,
00200000
00000000
01300000
00000000
00100000
10000000
00010000
00000000
,
20000000
00000000
30010000
00000000
10000000
01000000
00010000
00000000
,
00001000
00010000
00001000
00011000
,
00001000
00000100
00000010
00000110
,
00000001
00000000
00001000
00000000
00000001
00001000
00000001
00000000
,
00000100
00001000
00022000
00033000
,
00010000
00001000
00011000
00000000
,
01000000
00100000
01100000
00000000
,
00010000
10000000
10010000
00000000
,
00001000
00010000
00011000
00000000
,
00000010
00000100
00000010
00000011
,
00000001
00000100
00001000
00011000
,
00010000
00001000
00010000
00011000
,
00100000
00000000
01000000
00000000
10000000
00010000
10000000
10000000
;

//---------------dance-double - ----------------
#NOTES:
     dance-double:
     :
     Hard:
     7:
     :
00000000
00000000
00000000
00000000
,
00000000
00000000
00000000
00000000
,
00000000
00000000
00000000
00000000
,
00002000
00000000
00013000
00000000
00000010
00001000
00000010
00000000
,
00002000
00000000
00003001
00000000
00001000
00000100
00001000
00000000
,
00020000
00000000
00031000
00000000
00100000
00010000
01000000
00000000
,
00200000
00000000
10300000
00000000
00010000
10000000
01000000
00000000
,
00010000
00000000
01010000
00000000
00001000
00010000
00000010
00000000
,
00001000
00000000
00000011
00000000
00001000
00000001
00000100
00000000
,
00001100
00000000
00010100
00000000
00010000
00001000
00100000
00000000
,
00110000
00000000
10010000
00000000
01000000
10000000
01000000
00100000
,
00010000
00000000
01010000
00000000
10000000
01000000
00010000
00000000
,
00001000
00000000
00011000
00000000
00001000
00000100
00000001
00000100
,
00000010
00000010
00001000
00000000
00000001
00000100
00001000
00000000
,
00010000
00010000
00001000
00001000
00100000
01000000
10000000
00000000
,
10000000
10000000
01000000
00000000
00100000
00100000
00010000
00000000
,
10000000
00010000
10000000
01000000
00010000
00001000
00010000
00000000
,
00002000
00000000
00013000
00000000
00000010
00001000
00000200
00000000
,
00000010
00000000
00001300
00000000
00000001
00000100
00002000
00000000
,
00023000
00000000
00031000
00000000
00010000
00100000
01000000
00000000
,
00100000
10000000
00010000
00010000
10000000
00010000
20000000
00000000
,
32000000
00000000
03020000
00000000
00031000
00010000
00002000
00000000
,
00003200
00000000
00000301
00000100
00002000
00000000
00013000
00000000
,
00002000
00000000
00023000
00000000
00130000
10000000
00020000
00000000
,
20030000
00000000
31000000
00010000
00002000
00000000
00013000
00000000
,
00000010
00001000
00000010
00000100
00000001
00000001
00002000
00000000
,
00003200
00020300
00032000
00103000
,
00010000
00100000
00010000
10000000
00100000
10000000
00020000
00000000
,
02030000
03002000
00023000
00030010
,
00001000
00000001
00001000
00000010
00000100
00000001
00000100
00000000
,
00001000
00010000
00001000
00100000
01000000
10000000
01000000
00000000
,
00010000
00001000
00100000
00001000
00010000
00001000
00000100
00000000
,
00000010
00001000
00000001
00000100
00000010
00001000
00000100
00000000
,
00010000
00001000
01000000
00010000
00100000
00010000
01000000
00000000
,
00100000
10000000
01000000
10000000
00010000
01000000
00001000
00000000
,
00010000
00000100
00001000
00000100
00000010
00000001
00001000
00000000
,
00000001
00000100
00001000
00010000
00002000
00000000
00000000
00003000
,
00010000
00001000
00100000
00010000
,
10000000
00010000
01000000
00001000
,
00010000
00000010
00001000
00000001
,
00000100
00001000
00010000
01000000
,
00100000
00010000
10000000
01000000
00010000
00001000
00010000
00000000
,
00001000
00000100
00000010
00001000
00000001
00000100
00001000
00000000
,
00010000
00001000
00100000
00010000
01000000
00010000
10000000
00000000
,
01000000
00010000
00001000
00010000
01000000
10000000
00010000
00000000
;
