
//----- mcode: jacq -----
#TITLE:Jacques Your Body (Make Me Sweat);
#ARTIST:Les Rythmes Digitales;
#BANNER:Jacques Your Body (Make Me Sweat).png;
#BACKGROUND:Jacques Your Body (Make Me Sweat)-bg.png;
#CDTITLE:./CDTitles/DS SuperNOVA PS2 EU.png;
#MUSIC:Jacques Your Body (Make Me Sweat).ogg;
#SAMPLESTART:31.598;
#SAMPLELENGTH:15;
#DISPLAYBPM:129;
#BPMS:0=129,4=129.13;

//---------------dance-single - ----------------
#NOTES:
     dance-single:
     :
     Beginner:
     1:
     :
0000
0000
0000
0000
,
0000
0000
0000
0000
,
0000
0000
0000
0000
,
0000
1000
0000
0001
,
0000
1000
0000
0001
,
0000
0010
0000
0100
,
0000
0010
0000
0100
,
0000
1000
0000
0010
,
0000
0001
0000
0100
,
0100
0000
0000
0000
,
0001
0000
0000
0000
,
0100
0000
0000
0000
,
1000
0000
0000
0000
,
0100
0000
0000
0000
,
0010
0000
0000
0000
,
0001
0000
0000
0000
,
1000
1000
1000
0000
,
0001
0000
0100
0000
,
0001
0000
0000
0000
,
1000
0000
0100
0000
,
1000
0000
0000
0000
,
0001
0000
0100
0000
,
0010
0000
0000
0000
,
1000
0000
0100
0000
,
0010
0000
0000
0000
,
0001
0000
0001
0000
,
1000
0000
1000
1000
,
1000
0000
1000
0000
,
0010
0000
0010
0010
,
0010
0000
0010
0000
,
0100
0000
0100
0100
,
0100
0000
0100
0000
,
0001
0000
0001
0001
,
0002
0000
0000
0003
,
0001
0000
0010
0000
,
0200
0000
0000
0300
,
0100
0000
1000
0000
,
0020
0000
0000
0030
,
0010
0000
0100
0000
,
0002
0000
0000
0003
,
0001
0000
1000
0000
,
1001
0000
1000
0000
,
0010
0000
0000
0100
,
0100
0000
0001
0000
,
1000
0000
0000
0100
,
0100
0000
0010
0000
,
0001
0000
0000
1000
,
1000
0000
0001
0000
,
0100
0000
0010
0000
,
0110
0000
0000
0000
;

//---------------dance-single - ----------------
#NOTES:
     dance-single:
     :
     Easy:
     4:
     :
0000
0000
0000
0000
,
0000
0000
0000
0000
,
0000
0000
0000
0000
,
2000
3000
1000
0000
,
0002
0003
0001
0000
,
1000
1000
0001
0001
,
1000
1000
0001
0001
,
0200
0300
0100
0000
,
0020
0030
0010
0000
,
0110
0000
0000
0000
,
0110
0000
1000
0000
,
1001
0000
0000
0001
,
0000
1000
0000
0001
,
0000
0100
0000
0010
,
0000
0100
0000
0010
,
0000
1000
0000
0001
,
2000
0000
0000
3000
,
1000
0001
1000
0010
,
1000
0001
0200
0300
,
0001
1000
0001
0010
,
0001
1000
0200
0300
,
0010
0001
0010
0001
,
1000
0010
2000
3000
,
0100
1000
0100
1000
,
0001
0100
0002
0003
,
0200
0310
0200
0310
,
0020
0130
0020
0130
,
0002
1003
0002
1003
,
2000
3001
2000
3001
,
0010
0100
0100
0010
,
0001
1000
1000
0001
,
0100
0010
0010
0100
,
0001
1000
1000
0001
,
2000
0000
3000
1000
,
0000
0010
0000
1000
,
0020
0000
0030
0010
,
0000
0100
0000
0010
,
0200
0000
0300
0100
,
0000
0001
0000
0100
,
0002
0000
0003
0001
,
0000
0010
0000
0001
,
0010
1000
1000
0010
,
1000
0100
0100
1000
,
0001
0100
0100
0001
,
0010
0001
0001
0010
,
0200
0310
0020
0130
,
0002
1003
2000
3001
,
2000
3010
2000
3100
,
0002
0013
0002
0103
;

//---------------dance-single - ----------------
#NOTES:
     dance-single:
     :
     Medium:
     5:
     :
0000
0000
0000
0000
,
0000
0000
0000
0000
,
0000
0000
0000
0000
,
1000
0010
0100
1000
,
0001
0000
1001
0000
0010
1000
0100
0000
,
0001
0100
1000
0010
,
0100
0001
0010
0000
,
0001
0010
1000
0010
,
0100
0000
1001
0000
0010
0001
1000
0000
,
0100
0010
0000
0100
,
0001
0000
1000
0000
0010
0100
0001
0000
,
1000
0001
0000
0100
,
0010
0000
0100
0000
0010
1000
0001
0000
,
1000
0000
0100
0000
0001
1000
0001
0000
,
0100
0000
0010
0000
1000
0010
0100
0000
,
0001
1000
0000
0010
,
0100
0001
0010
1000
,
0001
0000
1001
0000
0010
0001
0100
0000
,
1100
0000
0101
0000
1000
0001
0100
0000
,
0010
0000
0110
0000
0100
0001
0010
0000
,
1001
0110
1001
0000
,
0001
0000
1100
0000
0010
0001
0100
0000
,
0001
0000
1010
0000
0100
0001
1000
0000
,
0110
0000
1001
0000
0010
1000
0010
0000
,
1100
1010
0011
0101
,
0001
0100
1000
0000
1000
0100
0001
0000
,
0001
0010
0100
0000
1000
0000
0001
0000
,
1000
0100
0010
0000
0010
0100
1000
0000
,
1000
0001
0100
0000
0010
0000
0110
0000
,
0001
0100
1000
0100
,
0010
0001
0010
0000
1000
0000
0010
0000
,
0001
0100
1000
0100
,
0010
0001
0100
0000
0010
1000
0010
0000
,
1000
0000
0001
0000
0010
0000
0000
0110
,
0000
2000
0000
3001
,
0100
0000
1000
0000
0010
0000
0000
0101
,
0000
2000
0000
3001
,
1000
0000
0010
0000
1000
0000
0000
0110
,
0000
0002
0000
0013
,
1000
0100
0010
0001
,
0010
0100
1000
0000
0100
0000
1001
0000
,
0100
1000
0100
0000
0001
0100
0001
0000
,
0010
0100
1000
0001
,
0010
0001
0010
0000
0100
1000
0100
0000
,
1000
0010
0100
0001
,
0010
0100
0010
0000
1000
0100
0010
0000
,
0100
1000
0010
0100
,
0001
0100
0010
0000
0001
1000
0100
0000
,
1000
0010
0100
0000
0001
0000
1000
0000
;

//---------------dance-single - ----------------
#NOTES:
     dance-single:
     :
     Hard:
     8:
     :
0000
0000
0000
0000
,
0000
0000
0000
0000
,
0000
0000
0000
0000
,
1000
0000
0001
0000
0100
0010
1001
0000
,
0001
0000
1000
0000
0100
0010
1001
0000
,
1001
0100
1000
0010
1000
0001
0100
0000
,
0001
0010
0001
0100
0001
1000
0010
0000
,
0100
1000
0100
0001
0010
0001
0100
0000
,
0010
0001
0010
1000
0100
0010
1001
0000
,
1001
0000
0000
0000
0100
0000
0000
0010
0000
1000
0000
0001
1000
0000
0000
0000
,
0010
0000
0100
0000
0001
1000
0000
0000
0010
0000
0000
0001
0000
0000
0010
0000
,
1000
0000
0100
0000
0100
0000
0000
0010
0000
0010
0000
0001
1000
0000
0000
1000
,
0010
0000
0010
0000
1000
0001
0000
0000
0010
0000
0000
0100
0000
0000
0000
0000
,
1001
0000
0000
0000
0010
0000
0000
0100
0000
0001
0000
1000
0001
0000
0000
0000
,
0100
0000
0010
0000
1000
0001
0000
0000
0100
0000
0000
1000
0000
0000
0100
0000
,
0001
0000
0010
0000
0010
0000
0000
0100
0000
0100
0000
1000
0001
0000
0000
1000
,
0200
0000
2300
0000
3010
0000
1001
0100
,
0010
1000
0100
1000
0010
1000
0100
0000
,
0010
0001
0100
0001
0010
0001
0100
0000
,
1000
0100
0010
1000
0010
0100
1000
0100
,
0001
0010
0100
0001
0100
0010
0001
0000
,
1000
0100
0001
0100
1000
0100
0001
0000
,
1000
0010
0001
0010
1000
0010
0001
0000
,
0100
0001
0010
0100
0010
0001
0100
0010
,
1000
0100
0010
0100
1000
0001
0100
0000
,
0010
0000
1000
0001
0000
0000
0100
0000
0010
0000
1000
0001
0000
0000
0100
0000
,
0010
0000
1000
0001
0000
0000
0100
0000
1000
0000
0100
0000
0001
0000
0010
0000
,
0100
0000
1000
0001
0000
0000
0010
0000
0100
0000
1000
0001
0000
0000
0010
0000
,
0100
0000
1000
0001
0000
0000
0010
0000
1000
0000
0010
0000
0001
0000
1000
0000
,
0001
0000
0100
0020
0000
0000
1030
0000
0001
0000
0100
0020
0000
0000
1030
0000
,
0001
0000
0100
0020
0000
0000
1030
0000
0100
0000
1000
0000
0010
0000
0100
0000
,
0001
0000
0010
0200
0000
0000
1300
0000
0001
0000
0010
0200
0000
0000
1300
0000
,
0001
0000
0010
0200
0000
0000
1300
0000
0001
0000
1000
0000
0100
0000
0010
0000
,
0002
0000
0000
0000
0003
0000
0001
0000
1000
0000
0000
0010
0000
0000
0200
0000
,
0000
0000
0000
0000
0000
0000
0310
0000
1000
0000
0001
0100
0000
0001
0100
0000
,
0020
0000
0000
0000
0030
0000
0010
0000
1000
0000
0000
0001
0000
0000
0020
0000
,
0000
0000
0000
0000
0030
0000
0010
0000
0100
0000
1000
0001
0000
1000
0001
0000
,
0100
0000
0110
0100
0001
0000
0110
0010
,
0001
0000
0000
0000
0110
0000
0010
0000
1000
0000
0001
1000
0000
0001
1000
0000
,
0100
0000
0110
0100
1000
0000
0110
0010
,
1000
0000
0000
0000
0110
0000
0010
0000
0001
0000
1000
0001
0000
1000
0001
0000
,
0100
0010
1000
0000
0001
0100
0010
0000
,
1000
0001
0100
1000
0100
0001
0010
0001
,
1000
0100
0010
0000
0001
1000
0100
0000
,
0010
0001
1000
0100
0001
0100
1000
0010
,
0200
0000
0301
0100
0010
1000
0100
0010
,
0002
0000
0013
0001
1000
0001
0100
0010
,
2000
0000
3100
1000
0010
0100
0001
0010
,
0002
0000
0013
0001
1000
0100
0010
0100
,
2002
0000
0000
0000
,
3003
0000
0000
0000
;

//---------------dance-double - ----------------
#NOTES:
     dance-double:
     :
     Easy:
     4:
     :
00000000
00000000
00000000
00000000
,
00000000
00000000
00000000
00000000
,
00000000
00000000
00000000
00000000
,
20000000
30000000
10000000
00000000
,
00020000
00030000
00010000
00000000
,
01000000
01000000
00001000
00001000
,
00010000
00010000
00001000
00001000
,
00000200
00000300
00000100
00000000
,
00000020
00000030
00000010
00000000
,
00000110
00000000
00000000
00000000
,
00001001
00000000
00001000
00000000
,
00001001
00000000
00000000
00000100
,
00000000
00001000
00000000
00010000
,
00000000
00001000
00000000
00100000
,
00000000
01000000
00000000
00100000
,
00000000
00010000
00000000
10000000
,
02000000
00000000
00000000
03000000
,
00100000
00010000
00100000
00010000
,
01000000
00001000
00020000
00030000
,
00001000
00010000
00001000
00010000
,
00000010
00000100
00000020
00000030
,
00001000
00000100
00001000
00000100
,
00000001
00000100
00000002
00000003
,
00001000
00000100
00001000
00000100
,
00010000
00001000
00020000
00030000
,
02000000
03100000
02000000
03100000
,
00020000
10030000
00020000
10030000
,
20000000
31000000
20000000
31000000
,
00020000
00031000
00020000
00031000
,
00010000
00001000
00001000
00010000
,
00000100
00000010
00000010
00000100
,
00001000
00000010
00000010
00001000
,
00000100
00010000
00010000
00001000
,
00200000
00000000
00300000
01000000
,
00000000
00100000
00000000
01000000
,
00020000
00000000
00030000
10000000
,
00000000
00010000
00000000
10000000
,
02000000
00000000
03000000
01000000
,
00000000
00010000
00000000
00001000
,
00020000
00000000
00030000
00001000
,
00000000
00010000
00000000
00000010
,
00000100
00000010
00000010
00000100
,
00000001
00001000
00001000
00000001
,
00000100
00001000
00001000
00010000
,
00001000
00100000
00100000
00010000
,
02000000
03100000
00200000
01300000
,
00020000
10030000
20000000
31000000
,
00020000
00031000
00002000
00013000
,
00000020
00000130
00000200
00000310
;

//---------------dance-double - ----------------
#NOTES:
     dance-double:
     :
     Medium:
     6:
     :
00000000
00000000
00000000
00000000
,
00000000
00000000
00000000
00000000
,
00000000
00000000
00000000
00000000
,
00000001
00000010
00000100
00000001
,
00001000
00000000
00001001
00000000
00000010
00000001
00001000
00000000
,
00000010
00000100
00010000
01000000
,
00100000
10000000
00010000
00000000
,
00100000
10000000
00010000
01000000
,
00100000
00000000
01100000
00000000
10000000
01000000
00100000
00000000
,
01000000
00100000
00000000
00001000
,
00010000
00000000
00000100
00000000
00001000
00000010
00000100
00000000
,
00000001
00001000
00000000
00000100
,
00000001
00000000
00000010
00000000
00001000
00000010
00010000
00000000
,
00001000
00000000
00100000
00000000
00010000
00100000
00010000
00000000
,
01000000
00000000
00010000
00000000
00100000
01000000
00100000
00000000
,
10000000
00100000
00000000
01000000
,
00010000
00100000
00001000
00010000
,
00001000
00000000
00011000
00000000
00010000
00001000
00000100
00000000
,
00000110
00000000
00001010
00000000
00000100
00000001
00000010
00000000
,
00000100
00000000
00000110
00000000
00001000
00000100
00000010
00000000
,
00000110
00011000
00110000
00000000
,
10000000
00000000
01010000
00000000
00100000
10000000
00010000
00000000
,
00100000
11000000
00100000
00010000
,
00110000
00000000
00011000
00000000
00010000
00001000
00010000
00000000
,
00000200
00002300
00003020
00000130
,
00000001
00000100
00001000
00000000
00001000
00000100
00000001
00000000
,
00000001
00001000
00000010
00000000
00001000
00000000
00000100
00000000
,
00010000
00001000
00000100
00000000
00001000
00010000
01000000
00000000
,
00100000
00010000
10000000
00000000
00010000
00000000
10010000
00000000
,
10000000
00100000
00010000
00100000
,
00001000
00010000
00001000
00000000
00010000
00000000
00000100
00000000
,
00000010
00000100
00001000
00000010
,
00000100
00000001
00001000
00000000
00000010
00001000
00000010
00000000
,
00000100
00000000
00000001
00000000
00001000
00000000
00000000
00001100
,
00000000
00000020
00000000
00010030
,
00001000
00000000
00100000
00000000
00010000
00000000
00000000
01100000
,
00000000
20000000
00000000
30100000
,
01000000
00000000
00010000
00000000
10000000
00000000
00000000
01100000
,
00000000
00020000
00000000
00130000
,
00001000
00010000
00000100
00000010
,
00000100
00001000
00000001
00000000
00000010
00000000
00001001
00000000
,
00000100
00000001
00000100
00000000
00000010
00001000
00000010
00000000
,
00001000
00000100
00010000
00001000
,
00100000
00010000
00100000
00000000
00010000
01000000
00010000
00000000
,
01000000
00100000
10000000
00100000
,
01000000
00010000
01000000
00000000
00010000
00100000
00001000
00000000
,
00010000
00001000
00010000
00000010
,
00001000
00000010
00000100
00000000
00000010
00000100
00000001
00000000
,
00000100
00000001
00001000
00000000
00000010
00000000
00000100
00000000
;

//---------------dance-double - ----------------
#NOTES:
     dance-double:
     :
     Hard:
     8:
     :
00000000
00000000
00000000
00000000
,
00000000
00000000
00000000
00000000
,
00000000
00000000
00000000
00000000
,
00100000
00010000
01000000
00000000
00010000
00000000
01100000
00000000
,
01000000
00001000
00010000
00000000
00000100
00000000
00000110
00000100
,
00001001
00000100
00000010
00000000
00000010
00000100
00001001
00000000
,
00000010
00000001
00001000
00000100
00010000
00001000
01000000
00000000
,
10010000
01000000
00100000
00000000
00100000
01000000
10010000
00000000
,
00100000
10000000
00010000
01000000
00001000
00010000
00000100
00000000
,
00001002
00000000
00000000
00000000
00000203
00000000
00000000
00000000
00000310
00000000
00001000
00000000
00000001
00001000
00000000
00000000
,
00000100
00000000
00000010
00000000
00000001
00001000
00000000
00000000
00000100
00000000
00010000
00001000
00000000
00000000
00010000
00000000
,
00010000
00000000
00001000
00000000
00001000
00000000
00000000
00000000
01000000
00000000
00010000
00000000
00100000
00010000
00000000
00000000
,
10000000
00000000
00010000
00000000
10000000
00100000
00000000
00000000
01000000
00000000
00010000
00000000
10000000
00000000
00000000
00000000
,
10020000
00000000
00000000
00000000
20030000
00000000
00000000
00000000
31000000
00000000
00010000
00000000
00001000
00010000
00000000
00000000
,
00001000
00000000
00000100
00000000
00000001
00001000
00000000
00000000
00000001
00000000
00000100
00000010
00000000
00000000
00001000
00000000
,
00001000
00000000
00000001
00000000
00000001
00000000
00000000
00000000
00000010
00000000
00000100
00000000
00001000
00000001
00000000
00000001
,
00000200
00000000
00002300
00000000
00023000
00000000
00130000
00010000
,
00001000
00010000
00000100
00010000
00001000
00010000
00000010
00010000
,
00001000
00000000
01000000
00000000
00010000
00000000
00100000
00000000
00001000
00000000
00010000
00001000
00000000
00000000
00000000
00000000
,
00010000
00001000
01000000
00001000
00010000
00001000
00100000
00001000
,
00010000
00000000
00000010
00000000
00001000
00000000
00000100
00000000
00010000
00000000
00001000
00010000
00000000
00000000
00000000
00000000
,
00001000
01000000
00010000
01000000
00001000
00100000
00010000
00100000
,
00001000
00000000
00010000
00000000
00000100
00000000
00001000
00000000
00000010
00000000
00010000
00001000
00000000
00000000
00000000
00000000
,
00010000
00000100
00001000
00000100
00010000
00001000
01000000
00010000
,
01000000
00000000
00001000
00000000
00100000
00000000
00010000
00000000
01000000
00000000
00001000
00010000
00000000
00000000
00000000
00010000
,
00002000
00000000
00000000
00003200
00000000
00000000
00001300
00000000
00020000
00000000
00000000
02030000
00000000
00000000
03010000
00000000
,
00002000
00000000
00000000
00003020
00000000
00000000
00000130
00000000
00001000
00000000
00000010
00000000
00000100
00000000
00000000
00000000
,
00002000
00000000
00000000
00023000
00000000
00000000
00130000
00000000
00020000
00000000
00000000
00032000
00000000
00000000
00003100
00000000
,
00002000
00000000
00000000
00023000
00000000
00000000
01030000
00000000
00100000
00000000
00010000
00000000
01000000
00000000
00000000
00000000
,
00200000
00000000
00000000
10300000
00000000
00000000
01000000
00000000
00020000
00000000
00000000
00031000
00000000
00000000
00000100
00000000
,
00000002
00000000
00000000
00000013
00000000
00000000
00000100
00000000
00001000
00000000
00000010
00000000
00000100
00000000
00001000
00000000
,
00020000
00000000
00000000
01030000
00000000
00000000
10000000
00000000
00200000
00000000
00000000
00310000
00000000
00000000
00001000
00000000
,
00000020
00000000
00000000
00000031
00000000
00000000
00000100
00000000
00000001
00000000
00000100
00000000
00000010
00000000
00001000
00000000
,
00001002
00000100
00000000
00000010
,
00000000
00000000
00000000
00000000
00000103
00000000
00000001
00000000
00000010
00000000
00000100
00010000
00000000
00000100
00010000
00000000
,
00002000
00010000
00000000
00100000
,
00000000
00000000
00000000
00000000
00013000
00000000
00001000
00000000
00100000
00000000
00010000
01000000
00000000
00010000
01000000
00000000
,
00200000
01000000
10000000
01000000
,
00010000
00000000
00000000
00000000
01300000
00000000
00001000
00000000
00010000
00000000
00000010
00001000
00000000
00000010
00001000
00000000
,
00000200
00000010
00000001
00000010
,
00000300
00002000
00000002
00000000
00003003
00000000
00001001
00000100
,
00000010
00001000
00000001
00000000
00000100
00000001
00001000
00000000
,
00000010
00000000
00000100
00000000
00000001
00000000
00000100
00000000
00001000
00000000
00010000
00001000
00000000
00010000
00001000
00000000
,
00100000
00010000
10000000
00000000
01000000
10000000
00010000
00000000
,
00100000
00000000
01000000
00000000
10000000
00000000
01000000
00000000
00010000
00000000
00001000
00010000
00000000
00001000
00010000
00000000
,
00001000
00000100
00000002
00000000
00000013
00000001
00000200
00000000
,
00001300
00000000
00000100
00000000
00000020
00000000
00000000
00000000
00010030
00000000
00001000
00100000
00000000
00001000
00100000
00000000
,
00010000
01000000
20000000
00000000
31000000
00010000
00200000
00000000
,
10300000
00000000
00100000
00000000
02000000
00000000
00000000
00000000
03010000
00000000
01000000
00100000
00000000
01000000
00100000
00000000
,
20020000
00000000
00000000
00000000
,
30030000
00000000
00000000
00000000
;
