
//----- mcode: hood -----
#TITLE:Hoodie;
#ARTIST:Lady Sovereign;
#BANNER:Hoodie.png;
#BACKGROUND:Hoodie-bg.png;
#CDTITLE:./CDTitles/DS SuperNOVA PS2 EU.png;
#MUSIC:Hoodie.ogg;
#SAMPLESTART:26.487;
#SAMPLELENGTH:15;
#BPMS:0=154;

//---------------dance-single - ----------------
#NOTES:
     dance-single:
     :
     Beginner:
     1:
     :
0000
0000
0000
0000
,
0000
0000
0000
0000
,
0000
0000
0000
0000
,
0000
0000
0000
0000
,
0000
0000
0000
0000
,
1000
0000
1000
0000
,
0001
0000
0001
0000
,
0010
0000
0010
0000
,
0100
0000
0100
0000
,
1000
0000
0000
0000
,
0001
0000
0000
0000
,
1000
0000
0000
0000
,
0001
0000
0001
0000
,
0100
0000
0000
0000
,
0010
0000
0000
0000
,
0100
0000
0100
0000
,
0110
0000
0000
0000
,
1000
0000
1000
0000
,
0001
0000
0001
0000
,
1000
0000
0000
0000
,
0100
0000
0000
0000
,
0010
0000
0000
0000
,
0100
0000
0000
0000
,
0010
0000
0010
0000
,
0100
0000
0100
0000
,
1000
0000
0000
0000
,
0001
0000
0000
0000
,
0100
0000
0000
0000
,
0010
0000
0000
0000
,
0100
0000
0000
0000
,
0010
0000
0000
0000
,
0100
0000
0100
0000
,
0010
0000
0010
0000
,
1000
0000
0000
0000
,
1001
0000
0000
0000
,
0001
0000
0000
0000
,
1000
0000
0000
0000
,
0100
0000
0100
0000
,
1000
0000
1000
0000
,
0010
0000
0000
0000
,
0100
0000
0000
0000
,
0001
0000
0001
0000
,
1000
0000
1000
0000
,
0200
0000
0000
0300
,
0200
0000
0000
0300
,
0100
0000
0010
0000
,
0100
0000
0010
0000
,
0001
0000
0000
0000
,
1000
0000
0000
0000
,
0001
0000
1000
0000
,
1001
0000
0000
0000
,
0001
0000
0001
0000
,
1000
0000
1000
0000
,
0001
0000
0000
0000
,
0010
0000
0000
0000
,
0100
0000
0000
0000
,
0010
0000
0000
0000
,
0100
0000
0100
0000
,
0010
0000
0010
0000
,
0001
0000
0000
0000
,
1000
0000
0000
0000
,
0010
0000
0000
0000
,
0100
0000
0000
0000
,
0010
0000
0010
0000
,
0100
0000
0100
0000
,
0010
0000
0010
0000
,
0100
0000
0100
0000
;

//---------------dance-single - ----------------
#NOTES:
     dance-single:
     :
     Easy:
     4:
     :
0000
0000
0000
0000
,
0000
0000
0000
0000
,
0000
0000
0000
0000
,
0000
0000
0000
0000
,
0000
0000
0000
0000
,
1000
0000
0100
0000
,
0001
1000
0001
0000
,
0010
0000
0100
0000
,
1000
0001
1000
0001
,
1001
0000
0100
0000
,
0001
0001
0100
0000
,
1000
0000
0100
0000
,
1000
1000
0100
0000
,
0010
0000
0001
0000
,
0100
0100
0010
0000
,
1000
0000
0110
0000
,
2002
0000
3003
0000
,
1000
0000
0001
0000
,
1000
0010
0100
0010
,
1000
0000
1000
0000
,
0001
0000
0001
0000
,
0010
0010
0010
0000
,
0100
0100
0100
0000
,
1000
0010
1000
0000
,
0001
0100
0001
0000
,
1000
0000
0001
0000
,
0010
0100
1000
0100
,
0010
0000
0010
0000
,
0001
0000
0001
0000
,
1000
1000
1000
0000
,
0001
0001
0001
0000
,
1000
0100
1000
0000
,
0001
0010
0001
0000
,
0200
0000
0300
0000
,
0110
0000
1001
0000
,
0010
0000
0100
0000
,
1000
0010
1000
0000
,
0100
0000
0010
0000
,
0001
0000
0100
0000
,
0010
0000
1000
0000
,
0001
0100
0100
0000
,
0010
0000
1000
0000
,
0100
0010
0100
0000
,
2000
3000
0010
0100
,
0002
0003
0010
0100
,
1000
0000
1000
0000
,
0001
0000
0001
1000
,
0002
0003
0020
0030
,
0200
0300
2000
3000
,
1001
0000
0110
0000
,
1001
0000
0000
0000
,
0001
0000
1000
0000
,
0001
0100
0010
0100
,
0001
0000
0001
0000
,
1000
0000
1000
0000
,
0100
0100
0100
0000
,
0010
0010
0010
0000
,
0001
0100
0001
0000
,
1000
0010
1000
0000
,
0001
0000
1000
0000
,
0100
0010
0001
0010
,
0100
0000
0100
0000
,
1000
0000
1000
0000
,
0001
0001
0001
0000
,
1000
1000
1000
0000
,
0001
0010
0001
0000
,
1000
0100
1000
0000
;

//---------------dance-single - ----------------
#NOTES:
     dance-single:
     :
     Medium:
     6:
     :
0000
0000
0000
0000
,
0000
0000
0000
0000
,
0000
0000
0000
0000
,
0000
0000
0000
0000
,
0000
0000
0000
0000
,
0100
0110
0010
0110
,
0100
0000
1000
0000
0010
0200
0000
0300
,
0010
0110
0100
0110
,
0010
0000
1000
0000
0100
0010
0000
0001
,
1000
0100
1000
0000
0100
1000
0100
0000
,
0010
0000
0001
1000
0000
1000
0000
1000
,
0001
0100
0001
0000
0100
0001
0100
0000
,
1001
0000
0101
0000
0010
1000
0100
0000
,
0010
0001
0010
0000
0001
0010
0001
0000
,
1000
0100
0000
0010
0001
0000
1000
0000
,
0010
0000
0100
0002
0000
1000
0000
2000
,
0000
0000
3003
0000
0100
0010
0000
0000
,
1000
0000
1100
0000
0001
0100
1000
0000
,
0001
0000
0101
0000
1000
0100
0001
0000
,
0010
0000
0001
0200
0000
0000
0310
0000
,
1000
0000
0100
0020
0000
0000
0031
0000
,
1000
1100
0001
0101
,
1000
1100
0001
0101
,
1000
0100
0010
0000
0001
0010
0100
0000
,
2000
3002
2003
3000
,
0001
0000
0011
0000
1000
0010
0001
0000
,
1000
0000
1010
0000
0001
0010
1000
0000
,
0100
0000
0010
0002
0000
0000
0103
0000
,
0010
0000
1000
0200
0000
0000
0300
0000
,
0010
0011
1000
1100
,
0001
0101
0010
1010
,
0100
0000
0001
0010
0000
0010
0001
0000
,
1000
0000
0010
0100
0000
0100
0010
0000
,
1001
0000
0100
0200
0000
0000
0310
0000
,
1001
0100
0010
1001
,
0100
1100
1000
1100
,
0001
0100
0010
0000
1000
0010
0100
0000
,
0001
0011
0010
0011
,
1000
0100
0010
0000
0001
0010
0100
0000
,
1000
0000
0001
0000
0100
0010
0100
0000
,
0001
0000
1000
0000
0100
0010
0100
0000
,
1000
0000
0010
0000
0100
0001
0100
0000
,
0010
0000
1000
0000
0100
1000
0100
0000
,
0020
0000
0030
0000
1000
0100
0001
0000
,
0020
0000
0030
0000
0001
0100
1000
0000
,
0010
1000
0100
0010
,
0001
0100
0001
0000
1000
0100
1000
0000
,
0020
0130
0200
0310
,
2000
3001
0002
1003
,
0100
0000
0010
0002
0000
1000
0000
2000
,
0000
3003
0110
0000
,
0001
0000
0011
0000
1000
0010
0001
0000
,
1000
0000
1010
0000
0001
0010
1000
0000
,
0100
0000
1000
0020
0000
0000
0130
0000
,
0001
0000
0010
0200
0000
0000
1300
0000
,
0001
0011
1000
1010
,
0001
0011
1000
1010
,
0001
0010
0100
0000
1000
0100
0010
0000
,
0002
2003
3002
0003
,
1000
0000
1100
0000
0001
0100
1000
0000
,
0001
0000
0101
0000
1000
0100
0001
0000
,
0010
0000
0100
2000
0000
0000
3010
0000
,
0100
0000
0001
0020
0000
0000
0030
0000
,
0100
1100
0001
0011
,
1000
1010
0100
0101
,
0010
0000
1000
0100
0000
0100
1000
0000
,
0001
0010
2000
3000
;

//---------------dance-single - ----------------
#NOTES:
     dance-single:
     :
     Hard:
     7:
     :
0000
0000
0000
0000
,
0000
0000
0000
0000
,
0000
0000
0000
0000
,
0000
0000
0000
0000
,
0000
0000
0000
0000
,
1000
0001
0100
0000
0010
0100
0001
0000
,
1000
0000
0001
0100
0010
0002
0000
1003
,
0100
0010
2000
0000
3001
0010
0200
0000
,
0301
0100
0010
0001
1000
0010
0000
0001
,
0010
1000
0001
1000
0100
1000
0001
1000
,
0100
0010
0001
2000
0000
3002
0000
0103
,
0010
1000
0001
1000
0010
1000
0001
1000
,
0010
0100
0001
1000
0001
0100
0020
0000
,
1030
0001
0010
0001
1000
0001
0010
0001
,
1000
0100
0010
0001
2000
0000
3002
0000
,
1003
0000
0010
0002
0000
0023
0000
2030
,
0000
3100
0001
0100
1000
0000
1001
0000
,
0100
0001
0010
0001
0100
0001
0010
0100
,
1000
0001
0100
0100
0010
0010
1000
0001
,
0100
0000
1000
0100
0000
0001
0100
0000
,
0010
0000
0001
0010
0000
1000
0010
0000
,
1000
0100
0010
0000
1000
0010
0001
0000
,
1000
0010
0100
0000
1000
0100
0001
0000
,
1020
0000
0001
0001
0000
1000
1030
0000
,
1010
0011
1100
0101
,
0010
1000
0100
1000
0010
1000
0100
0010
,
0001
1000
0010
0010
0100
0100
0001
1000
,
0010
0000
0001
0010
0000
1000
0010
0100
,
0001
1000
0100
0010
0001
0100
0010
0000
,
1000
0010
0100
0001
0000
0001
0010
0000
,
0001
0100
0010
1000
0000
1000
0100
0000
,
0021
0000
1000
1000
0000
0001
0031
0000
,
0101
1100
0011
1010
,
0001
0000
0100
0010
0000
0010
0100
0000
,
0001
1000
0001
0110
,
0100
0001
1000
0100
1000
0010
0100
0001
,
1000
0010
1000
0001
0010
0001
0100
0000
,
1000
0100
0010
0000
0100
0010
0001
0000
,
0010
0100
0001
0010
0100
1000
0002
0000
,
0103
1000
0100
0001
0010
0100
0001
0100
,
0010
0001
0100
0020
0000
2030
0000
3000
,
0001
0100
0010
0100
0001
1000
0100
0010
,
0001
1000
0010
0100
0010
1000
0000
0000
,
2200
0000
3300
0001
0010
1000
0010
0001
,
0202
0000
0303
1000
0010
0001
0010
1000
,
0001
0100
0010
1000
0100
1000
0010
0000
,
1000
0100
0010
0001
0100
0001
0010
0000
,
1000
0010
0001
0000
1000
0100
0001
0000
,
0100
1001
0010
1001
,
0100
0000
0001
0010
0000
0100
0000
1000
,
2002
0000
3003
0110
,
0100
0001
1000
0001
0100
0001
0010
0100
,
1000
0001
0100
1000
0100
0001
1000
0001
,
0010
0000
0100
1000
0000
0100
0001
0000
,
0100
0000
0010
0001
0000
0010
1000
0000
,
0001
0100
1000
0000
0010
0100
0001
0000
,
1000
0010
0001
0000
0100
0010
1000
0000
,
0210
0000
0001
0001
0000
1000
1300
0000
,
0011
1010
1100
0101
,
0010
1000
0001
1000
0010
1000
0100
0010
,
0001
1000
0010
0001
0010
1000
0001
1000
,
0100
0000
0010
0001
0000
0010
1000
0000
,
0100
1000
0001
0100
0010
1000
0100
0000
,
1000
0010
0001
0000
0100
0010
1000
0000
,
0001
0100
1000
0000
0010
0100
0001
0000
,
0120
0000
1000
1000
0000
0001
0031
0000
,
1100
0101
0011
1010
;

//---------------dance-double - ----------------
#NOTES:
     dance-double:
     :
     Easy:
     4:
     :
00000000
00000000
00000000
00000000
,
00000000
00000000
00000000
00000000
,
00000000
00000000
00000000
00000000
,
00000000
00000000
00000000
00000000
,
00000000
00000000
00000000
00000000
,
00100000
00000000
10000000
00000000
,
01000000
00100000
01000000
00000000
,
10000000
00000000
00010000
00000000
,
01000000
00010000
00100000
00001000
,
00011000
00000000
00000100
00000000
,
00001000
00001000
00000100
00000000
,
00000001
00000000
00000010
00000000
,
00000001
00000001
00000100
00000000
,
00000010
00000000
00001000
00000000
,
00000100
00000100
00010000
00000000
,
00001000
00000000
00011000
00000000
,
00022000
00000000
00033000
00000000
,
00100000
00000000
00010000
00000000
,
01000000
00100000
01000000
00100000
,
10000000
00000000
00010000
00000000
,
10000000
00000000
00010000
00000000
,
00100000
00000000
01000000
00000000
,
10000000
01000000
00100000
00000000
,
00010000
00000000
01000000
00000000
,
00001000
00010000
00001000
00000000
,
00000010
00000000
00000001
00000000
,
00000100
00000010
00000100
00000010
,
00001000
00000000
00000001
00000000
,
00001000
00000000
00000001
00000000
,
00000100
00000000
00000010
00000000
,
00001000
00000010
00000100
00000000
,
00000001
00000000
00000100
00000000
,
00001000
00010000
00001000
00000000
,
00020000
00000000
00030000
00000000
,
01100000
00000000
10010000
00000000
,
00010000
00000000
10000000
00000000
,
01000000
00100000
00010000
00000000
,
00100000
00000000
01000000
00000000
,
00010000
00000000
00001000
00000000
,
00000100
00000000
00000010
00000000
,
00001000
00000001
00001000
00000000
,
00000100
00000000
00000010
00000000
,
00000001
00001000
00000001
00000000
,
00000200
00000300
00001000
00010000
,
02000000
03000000
00010000
00001000
,
00010000
00000000
00000100
00000000
,
00010000
00000000
00001000
00000000
,
02000000
03000000
00020000
00030000
,
20000000
30000000
02000000
03000000
,
01100000
00000000
10010000
00000000
,
01100000
00000000
00000000
00000000
,
00010000
00000000
00001000
00000000
,
00000100
00000010
00000100
00000010
,
00000001
00000000
00001000
00000000
,
00000010
00000000
00001000
00000000
,
00000100
00000000
00000010
00000000
,
00000001
00000010
00000100
00000000
,
00001000
00000000
00000010
00000000
,
00010000
00001000
00010000
00000000
,
01000000
00000000
00010000
00000000
,
00100000
01000000
00100000
01000000
,
10000000
00000000
00100000
00000000
,
10000000
00000000
01000000
00000000
,
00100000
00000000
00010000
00000000
,
01000000
00001000
00010000
00000000
,
00000100
00000000
00000010
00000000
,
00000001
00001000
00000001
00000000
;

//---------------dance-double - ----------------
#NOTES:
     dance-double:
     :
     Medium:
     7:
     :
00000000
00000000
00000000
00000000
,
00000000
00000000
00000000
00000000
,
00000000
00000000
00000000
00000000
,
00000000
00000000
00000000
00000000
,
00000000
00000000
00000000
00000000
,
01000000
00000000
10000000
00010000
00000000
00010000
10000000
00000000
,
01000000
00000000
00100000
00010000
00000000
00010000
00100000
00000000
,
00001000
00000000
00010000
00000010
00000000
00000010
00010000
00000000
,
00000100
00001001
00000100
00000110
,
00000001
00000100
00000001
00000000
00000100
00001000
00000100
00000000
,
00001000
00000000
00010000
00100000
00000000
00100000
00000000
00100000
,
10000000
01000000
10000000
00000000
01000000
00010000
01000000
00000000
,
01010000
00000000
11000000
00000000
00100000
00010000
01000000
00000000
,
00100000
00010000
00100000
00000000
00010000
00001000
00010000
00000000
,
00000100
00000000
00001000
00000000
00000010
00000100
00000010
00000000
,
00000200
00000000
00000301
00000002
00000000
00000023
00000000
00002030
,
00000000
00000000
00003000
00000000
00010000
00001000
00000000
00000000
,
00010000
00000000
00110000
00000000
00010000
01000000
00100000
00000000
,
10000000
00000000
10100000
00000000
10000000
01000000
00100000
00000000
,
00010000
00000000
01000000
00002000
00000000
00000000
00013000
00000000
,
00001000
00000000
00100000
00002000
00000000
00000000
00013000
00000000
,
00000100
00001100
00001000
00001001
,
00000001
00000101
00000100
00000110
,
00000010
00000000
00001000
00000100
00000000
00000100
00010000
00000000
,
00002000
02003000
03200000
00300000
,
00010000
00000000
01010000
00000000
00010000
00100000
01000000
00000000
,
10000000
00000000
11000000
00000000
10000000
00100000
01000000
00000000
,
00010000
00000000
00100000
00002000
00000000
00000000
00013000
00000000
,
00001000
00000000
01000000
00002000
00000000
00000000
00013000
00000000
,
00000010
00001010
00001000
00001001
,
00000001
00000011
00000010
00000110
,
00000100
00000000
00001000
00000010
00000000
00000010
00010000
00000000
,
00000100
00010100
00011000
01001000
,
00010000
00000000
00100000
00200000
00000000
00000000
00310000
00000000
,
11000000
10010000
01010000
10010000
,
00100000
00000000
10000000
00010000
00000000
00010000
10000000
00000000
,
01000000
00000000
00100000
00010000
00000000
00010000
01000000
00000000
,
00100000
01100000
01000000
01100000
,
01000000
00001000
00010000
00000000
00001000
00010000
00000100
00000000
,
00001000
00000000
00000001
00000100
00000000
00000100
00000001
00000000
,
00001000
00000000
00000100
00000010
00000000
00000010
00000001
00000000
,
00000100
00000101
00001000
00001100
,
00010000
00001000
00100000
00000000
00010000
01000000
00000000
00100000
,
20000000
00000000
30000000
00000000
00010000
01000000
10000000
00000000
,
00020000
00000000
00030000
00000000
00100000
10000000
01000000
00000000
,
10000000
00010000
01000000
00100000
,
00010000
00001000
00010000
00000000
00000100
00001000
00000100
00000000
,
00000020
00000031
00000200
00001300
,
00020000
01030000
20000000
30100000
,
02000000
00000000
13000000
20000000
00000000
30200000
00000000
00320000
,
00000000
00030000
00011000
00000000
,
00001000
00000000
00001010
00000000
00001000
00000100
00000010
00000000
,
00000001
00000000
00000011
00000000
00000001
00000100
00000010
00000000
,
00001000
00000000
00000100
00020000
00000000
00000000
00031000
00000000
,
00010000
00000000
00000010
00020000
00000000
00000000
00031000
00000000
,
01000000
01010000
00010000
10010000
,
10000000
11000000
01000000
01100000
,
00100000
00000000
00010000
01000000
00000000
01000000
00001000
00000000
,
00020000
00030200
00000320
00000030
,
00001000
00000000
00001100
00000000
00001000
00000010
00000100
00000000
,
00000001
00000000
00000101
00000000
00000001
00000010
00000100
00000000
,
00001000
00000000
00000010
00020000
00000000
00000000
00031000
00000000
,
00010000
00000000
00000100
00020000
00000000
00000000
00031000
00000000
,
00100000
00110000
00010000
10010000
,
10000000
10100000
00100000
01100000
,
01000000
00000000
00010000
00100000
00000000
00100000
00001000
00000000
,
01000000
01001000
00011000
00010100
;

//---------------dance-double - ----------------
#NOTES:
     dance-double:
     :
     Hard:
     8:
     :
00000000
00000000
00000000
00000000
,
00000000
00000000
00000000
00000000
,
00000000
00000000
00000000
00000000
,
00000000
00000000
00000000
00000000
,
00000000
00000000
00000000
00000000
,
00010000
01000000
00100000
00000000
10000000
01000000
00100000
00000000
,
00010000
01000000
00010000
00100000
00001000
00010000
00001000
00000000
,
00000100
00000010
00001000
00000000
00000100
00000010
00000001
00000000
,
00001000
00000010
00001000
00000100
00010000
00001000
00010000
00000000
,
00011000
00000000
00101000
00000000
00010000
00100000
01000000
20000000
,
00000000
30200000
00000000
00320000
00000000
00230000
00000000
00300000
,
10000000
01000000
00100000
00000000
00010000
01000000
00100000
00000000
,
01000000
00001000
00010000
00000100
00001000
00000001
00000020
00000000
,
00000031
00000010
00000100
00000000
00001000
00000010
00000100
00000000
,
00000001
00000100
00001000
00010000
00001000
00000100
00001000
00000000
,
00010000
00000000
00100000
20000000
00000000
32000000
00000000
03020000
,
00000000
02030000
00000000
13000000
00100000
10000000
01000000
00000000
,
00100000
00010000
00100000
00010000
01000000
00100000
01000000
00100000
,
00010000
00001000
00010000
00001000
00000010
00000100
00000010
00000100
,
00001000
00000000
00000002
00000100
00000003
00002000
00000100
00003000
,
00010000
00000000
00002000
00100000
00003000
00020000
00000100
00030000
,
00010000
00001000
00100000
00000000
00010000
10000000
01000000
00000000
,
00100000
00010000
01000000
00000000
00001000
00010000
00000010
00000000
,
00000102
00000000
00001000
00001000
00000000
00000000
00000103
00000000
,
00002100
00000001
00000100
00003001
,
00000100
00001000
00000100
00001000
00000010
00000100
00000010
00000100
,
00001000
00010000
00001000
00010000
01000000
00100000
01000000
00100000
,
00010000
00000000
20000000
00100000
30000000
00020000
00100000
00030000
,
10000000
01000000
00010000
01000000
10000000
00100000
00010000
00000000
,
00100000
10000000
01000000
01000000
00000000
00010000
00001000
00000000
,
00000010
00000001
00000100
00000100
00000000
00001000
00010000
00000000
,
00120000
00000000
00001000
00001000
00000000
00000000
00030100
00000000
,
00012000
00000000
00100000
00000000
00010000
00000000
01000000
00003000
,
00010000
00000000
00000100
00010000
00000000
00001000
01000000
00000000
,
00100000
10000000
01000000
00011000
,
01000000
01000000
00010000
00100000
10000000
00100000
00010000
01000000
,
00100000
00100000
00010000
00001000
00000100
00001000
00010000
00000000
,
00000100
00000010
00000001
00000000
00000100
00000010
00001000
00000000
,
00000100
00000010
00000100
00010000
00001000
01000000
00200000
00000000
,
00310000
00010000
00100000
10000000
00100000
01000000
00010000
00100000
,
01000000
01000000
10000000
00200000
00000000
02300000
00000000
03000000
,
00001000
00010000
00000100
00000000
00010000
00001000
01000000
00000000
,
00001000
00001000
00010000
00000100
00001000
00001000
00000000
00000000
,
00000202
00000000
00000303
00000100
00001000
00010000
01000000
00000000
,
22000000
00000000
33000000
10000000
00100000
01000000
00100000
10000000
,
00010000
00100000
00001000
00010000
00000100
00001000
00000010
00000000
,
00000100
00000001
00000100
00000010
00000100
00000001
00001000
00000000
,
00000100
00001000
00000010
00000000
00000100
00000001
00000010
00000000
,
00001000
00010100
00001000
00010010
,
00001000
00000000
00010000
01000000
00000000
10000000
00000000
00100000
,
02000000
00000000
03000000
10010000
,
01000000
00010000
01000000
00010000
00100000
01000000
00100000
01000000
,
00010000
00001000
00010000
00001000
00000100
00000010
00000100
00000010
,
00001000
00000000
00000002
00000010
00000003
00002000
00000010
00003000
,
00010000
00000000
00002000
01000000
00003000
00020000
00000010
00030000
,
00010000
00001000
01000000
00000000
00010000
10000000
00100000
00000000
,
01000000
00010000
00100000
00000000
00001000
00010000
00000100
00000000
,
00000012
00000000
00001000
00001000
00000000
00000000
00000013
00000000
,
00002010
00000001
00000100
00003001
,
00000010
00001000
00000010
00001000
00000100
00000010
00000100
00000010
,
00001000
00010000
00001000
00010000
00100000
01000000
00100000
01000000
,
00010000
00000000
20000000
01000000
30000000
00020000
01000000
00030000
,
10000000
00100000
00010000
00100000
10000000
01000000
00010000
00000000
,
01000000
10000000
00100000
00100000
00000000
00010000
00001000
00000000
,
00000010
00000001
00000100
00000100
00000000
00001000
00010000
00000000
,
01020000
00000000
00001000
00001000
00000000
00000000
00130000
00000000
,
00110000
00011000
00001010
00011000
;
