
//----- mcode: heyb -----
#TITLE:Hey Boy, Hey Girl;
#ARTIST:The Chemical Brothers;
#BANNER:Hey Boy, Hey Girl.png;
#BACKGROUND:Hey Boy, Hey Girl-bg.png;
#CDTITLE:./CDTitles/DS SuperNOVA PS2 EU.png;
#MUSIC:Hey Boy, Hey Girl.ogg;
#SAMPLESTART:1.88;
#SAMPLELENGTH:15;
#DISPLAYBPM:127;
#BPMS:0=127.8,4=127;

//---------------dance-single - ----------------
#NOTES:
     dance-single:
     :
     Beginner:
     1:
     :
0000
0000
0000
0000
,
0000
0000
0000
0000
,
0000
0000
0000
0000
,
0000
0000
0000
0000
,
0000
0000
0000
0000
,
0010
0000
0000
0000
,
0010
0000
0000
0000
,
0010
0000
0000
0000
,
1000
0000
0001
0000
,
0100
0000
0000
0000
,
0100
0000
0000
0000
,
0100
0000
0000
0000
,
0010
0000
0100
0000
,
0001
0001
0000
0000
,
1000
1000
0000
0000
,
0010
0010
0000
0000
,
0001
0001
0000
0000
,
1000
0000
0001
0000
,
0100
0000
0001
0000
,
0010
0000
0100
0000
,
1000
0000
0010
0010
,
0020
0000
0000
0030
,
0010
0000
0000
0000
,
0100
0000
0100
0000
,
0001
0000
0001
0000
,
1000
0000
1000
0000
,
0001
0000
0001
0001
,
0001
0000
0100
0000
,
0010
0000
1000
0000
,
0100
0000
1000
0000
,
0001
0000
0100
0000
,
0010
0000
0010
0000
,
0010
0010
0010
0000
,
0100
0000
0100
0000
,
0100
0100
0100
0100
,
0100
0000
0100
0000
,
0001
0000
0001
0000
,
1000
0000
0010
0000
,
1000
0000
0001
0000
,
1001
0000
0000
0000
,
0100
0000
0010
0000
,
0100
0000
0010
0000
,
1000
0000
0001
0000
,
0100
0000
1000
0000
,
0010
0000
1000
0000
,
0010
0000
0010
0000
,
1000
0000
0001
0000
,
1000
0000
1000
0000
,
0100
0000
0010
0000
,
0001
0000
0100
0000
,
0010
0000
0001
0000
,
0001
0000
1000
0000
,
0100
0000
0000
0000
;

//---------------dance-single - ----------------
#NOTES:
     dance-single:
     :
     Easy:
     4:
     :
0000
0000
0000
0000
,
0000
0000
0000
0000
,
0000
0000
0000
0000
,
0000
0000
0000
0000
,
0000
0000
0000
0000
,
1000
0000
0001
0000
,
1000
0001
1000
0001
,
0100
0000
0010
0000
,
0100
0010
0100
0010
,
0001
1000
0001
0100
,
0010
0000
0010
0000
,
0010
1000
0100
0010
,
0001
0000
1000
0000
,
0110
0000
1000
0100
,
0001
0000
0100
1000
,
0010
0000
0100
0001
,
0010
0000
1000
0001
,
1000
1000
0000
0001
,
0010
0010
0000
0100
,
0010
0010
0000
1000
,
0001
0001
1000
0001
,
2001
0000
0000
3000
,
0001
0100
0001
0000
,
0002
0000
0000
0003
,
1000
0100
1000
0100
,
0010
0010
0010
0000
,
0100
0100
0100
0100
,
0001
0000
1000
0000
,
0001
0000
0010
0000
,
1000
0000
0100
0000
,
0001
0100
1000
0010
,
0100
0100
0100
0000
,
0010
0010
0010
0000
,
0001
0001
0001
0000
,
1000
1000
0001
1000
,
0020
0030
0010
0000
,
0020
0030
0010
0000
,
0010
0100
0010
0100
,
0010
0100
0100
0100
,
0110
0000
0000
0000
,
1000
0100
0001
0100
,
1000
0010
0100
0001
,
1000
0100
0001
0100
,
1000
0001
0010
0100
,
1000
1000
0000
0001
,
0010
0100
1000
0100
,
0001
0001
0000
1000
,
0010
0001
0100
0010
,
0001
0000
0010
0100
,
0010
0000
1000
0001
,
1000
0000
0100
0010
,
0100
0000
0001
1000
,
1001
0000
0000
0000
;

//---------------dance-single - ----------------
#NOTES:
     dance-single:
     :
     Medium:
     5:
     :
0000
0000
0000
0000
,
0000
0000
0000
0000
,
0000
0000
0000
0000
,
0000
0000
0000
0000
,
0000
0000
0000
0000
,
0001
1000
0010
0100
,
0010
0100
0001
1000
,
0100
1000
0001
0100
,
0001
0010
0100
1000
,
0010
0100
0010
0100
,
0001
1000
0001
1000
,
0100
0010
0100
1000
,
0010
0000
0100
0000
0000
0010
0100
0000
,
0010
0000
0010
0000
0100
0001
0010
0000
,
0100
0000
0100
0000
1000
0001
0100
0000
,
0010
0000
0010
0000
1000
0010
0100
0000
,
0001
0001
1000
1000
,
1001
0000
1000
0100
0000
0000
0001
0000
,
0100
0000
0100
0001
0000
0000
0010
0000
,
0010
0000
1000
0100
0000
0000
0001
0000
,
1000
0000
0001
0000
0100
0010
0100
0000
,
0110
0000
0000
0000
,
1000
0001
0100
0010
,
1000
0001
0000
0010
0000
0001
0000
0100
,
0000
1000
0000
0100
0000
0001
0000
0010
,
0000
1000
0000
0010
0000
0100
0000
0001
,
0000
1000
0000
0100
0000
0010
0000
0100
,
0001
0000
0000
0000
0001
0100
0010
0000
,
1001
0000
0000
0000
1000
0100
0010
0000
,
1001
0000
0000
0000
0010
0001
0100
0000
,
1001
0000
0000
0000
0100
0001
1000
0000
,
0200
0300
0010
0010
,
0002
0003
0100
0100
,
0020
0030
1000
1000
,
0002
0003
1000
0001
,
2000
3000
0010
0010
,
0200
0300
0001
0001
,
1000
0001
1000
0001
,
0100
0010
0100
0010
0100
0000
0010
0000
,
0110
0000
0000
1001
,
0010
0000
0100
0000
0010
1000
0100
0000
,
0010
0000
0100
0000
0010
0001
0100
0000
,
0010
0000
0100
0000
0001
0010
0100
0000
,
1000
0010
0100
0001
,
1000
0001
0100
0000
,
1000
0010
0100
0000
0001
0000
1000
0000
,
0100
1000
0001
0000
,
0010
0100
0001
0000
0100
0000
0010
0000
,
1000
0100
1000
0000
0020
0000
0030
0000
,
0100
0001
0100
0000
0020
0000
0030
0000
,
1000
0001
1000
0000
0020
0000
0030
0000
,
0100
0001
0100
0000
0020
0000
0130
0000
,
0110
0000
0000
0000
;

//---------------dance-single - ----------------
#NOTES:
     dance-single:
     :
     Hard:
     6:
     :
0000
0000
0000
0000
,
0000
0000
0000
0000
,
0000
0000
0000
0000
,
0000
0000
0000
0000
,
0000
0000
0000
0000
,
1000
1001
0001
0011
,
1000
1010
1000
1100
,
0001
0101
0100
0110
,
0010
1010
1000
1001
,
1000
0000
0000
0010
0000
0000
0100
0000
0001
0000
0000
0010
0000
0000
0100
0000
,
1000
0000
0000
0001
0000
0000
0100
0000
0010
0000
0000
1000
0000
0000
0010
0000
,
0100
0000
0000
0001
0000
0000
1000
0000
0001
0000
0000
0100
0000
0000
0010
0000
,
0100
0000
0000
0001
0000
0000
0010
0000
1000
0000
0000
0010
0000
0000
0100
0000
,
0001
0000
1010
0000
1000
0100
0010
0001
,
0100
0000
0110
0000
0001
0100
0010
1000
,
0001
0000
1010
0000
0010
0001
0100
0010
,
1000
0000
0101
0000
0100
0001
0010
0100
,
1000
0000
0001
0100
0000
0010
0010
0000
,
0001
0000
1000
0010
0000
0100
0100
0000
,
0001
0000
0000
0000
1000
0000
0010
0000
0100
0010
0100
0000
0001
0000
0001
0000
,
0000
0000
0000
0000
0000
0000
0000
0000
0000
1000
0000
0100
0010
0000
0000
0000
,
0220
0000
0330
0000
1000
0001
0100
0000
,
0010
0000
0110
0000
1000
0010
0100
0000
,
0001
1000
0100
0010
0000
0010
0100
1000
,
0000
1000
0010
0100
0000
0100
0001
0010
,
0000
0010
0001
0100
0000
0100
0010
1000
,
0000
0000
1000
0000
0001
0000
0100
0000
0110
0000
0000
1000
0000
0000
0001
0000
,
0020
0000
0130
1000
0020
0000
0130
0001
,
2000
0000
3010
0100
0002
0000
1003
0100
,
2000
0000
3010
0100
0020
0000
0130
0001
,
0020
0000
0130
1000
0200
0000
1300
0010
,
0110
1000
0100
0001
,
0010
0001
0100
1000
,
0010
0100
0001
0010
,
0100
0010
0001
0100
,
1001
0100
0010
0001
,
1001
0100
0010
1000
,
1100
0001
0101
1000
,
0110
1000
0110
0001
,
1000
0000
0000
0000
0000
0000
0000
0000
0000
0001
0000
0100
0010
0000
0000
0000
,
1001
1001
0110
0011
,
1010
1010
0101
1100
,
0110
0110
1001
0110
,
1010
0000
0000
0000
0011
0000
0000
0000
0000
1000
0000
0100
0010
0000
0000
0000
,
0001
0100
0110
0000
1000
0100
0110
0000
,
1100
0000
0101
0000
1100
0100
0110
0000
,
0010
0001
0101
0000
0100
0010
1010
0000
,
1001
0000
0011
0000
1010
0010
0110
0000
,
1000
0000
0011
0000
1000
0100
0010
0001
,
0100
0000
0110
0000
0010
1000
0001
0100
,
0010
0000
0110
0000
1000
0010
0100
0001
,
0010
0000
0110
0000
1000
0001
0010
1000
,
0010
0000
0000
0000
;

//---------------dance-double - ----------------
#NOTES:
     dance-double:
     :
     Easy:
     3:
     :
00000000
00000000
00000000
00000000
,
00000000
00000000
00000000
00000000
,
00000000
00000000
00000000
00000000
,
00000000
00000000
00000000
00000000
,
00000000
00000000
00000000
00000000
,
00010000
00000000
00001000
00000000
,
00010000
00001000
00010000
00001000
,
00100000
00000000
00010000
00000000
,
00100000
01000000
00100000
01000000
,
10000000
00100000
10000000
00010000
,
01000000
00000000
01000000
00000000
,
01000000
00001000
00010000
00000100
,
00000010
00000000
00000100
00000000
,
00000110
00000000
00000001
00000010
,
00000100
00000000
00001000
00000001
,
00000100
00000000
00000010
00010000
,
00001000
00000000
01000000
00010000
,
00100000
00100000
00000000
01000000
,
00100000
00100000
00000000
00010000
,
10000000
10000000
00000000
00100000
,
01000000
01000000
00001000
00010000
,
00012000
00000000
00000000
00003000
,
00010000
00000100
00001000
00000000
,
00000020
00000000
00000000
00000030
,
00000100
00000001
00000100
00000001
,
00001000
00001000
00001000
00000000
,
00000010
00000010
00000010
00000010
,
00010000
00000000
00001000
00000000
,
00010000
00000000
01000000
00000000
,
00100000
00000000
00010000
00000000
,
10000000
01000000
00010000
01000000
,
00100000
00100000
00100000
00000000
,
10000000
10000000
10000000
00000000
,
00010000
00010000
00010000
00000000
,
00100000
00100000
00001000
00100000
,
00002000
00003000
00001000
00000000
,
00020000
00030000
00010000
00000000
,
00000100
00001000
00000100
00001000
,
00000001
00001000
00001000
00001000
,
00001001
00000000
00000000
00000000
,
00000001
00000100
00001000
00010000
,
01000000
10000000
00100000
01000000
,
00010000
01000000
10000000
01000000
,
00010000
00100000
00010000
01000000
,
00100000
00100000
00000000
01000000
,
00001000
00010000
00000100
00001000
,
00000001
00000001
00000000
00000100
,
00000010
00001000
00000100
00000010
,
00000001
00000000
00001000
00000100
,
00001000
00000000
00000100
00010000
,
00000100
00000000
00010000
00001000
,
00010000
00000000
00001000
00010000
,
00011000
00000000
00000000
00000000
;

//---------------dance-double - ----------------
#NOTES:
     dance-double:
     :
     Medium:
     5:
     :
00000000
00000000
00000000
00000000
,
00000000
00000000
00000000
00000000
,
00000000
00000000
00000000
00000000
,
00000000
00000000
00000000
00000000
,
00000000
00000000
00000000
00000000
,
00000100
00001000
00000001
00000110
,
00000001
00001000
00000100
00010100
,
00001000
00100000
00010000
10010000
,
10000000
00100000
01000000
01100000
,
20000000
30010000
02000000
03100000
,
02000000
03001000
00020000
00030100
,
00002000
00003010
00000200
00000310
,
00000200
00000301
00001000
00001001
,
00000100
00000000
00000100
00000000
00000001
00001000
00000100
00000000
,
00010000
00000000
00010000
00000000
00001000
00100000
00010000
00000000
,
01000000
00000000
01000000
00000000
00100000
10000000
01000000
00000000
,
00100000
00100000
01000000
01000000
,
01100000
00000000
00100000
00010000
00000000
00000000
01000000
00000000
,
00010000
00000000
00010000
00100000
00000000
00000000
00001000
00000000
,
00011000
00000000
00000100
00000010
00000000
00000000
00000001
00000000
,
00001001
00000000
00000100
00000010
00000000
00000000
00000110
00000000
,
00002002
00000000
00000003
00000000
,
00000001
00000010
00003100
00010000
,
00001000
00010000
00000000
01000000
00000000
10000000
00000000
00100000
,
00000000
01000000
00000000
00010000
00000000
00100000
00000000
00010000
,
00000000
00100000
00000000
10000000
00000000
01000000
00000000
00010000
,
00000000
00100000
00000000
00001000
00000000
00010000
00000000
00000100
,
00000010
00000000
00000000
00000000
00001000
00000010
00000100
00000000
,
00000101
00000000
00000000
00000000
00000010
00001000
00000100
00000000
,
00000101
00000000
00000000
00000000
00000001
00001000
00000100
00000000
,
00000101
00000000
00000000
00000000
00000010
00000001
00001000
00000000
,
00000020
00000030
00000100
00000100
,
00020000
00030000
01000000
01000000
,
00020000
00030000
00100000
00100000
,
02000000
03000000
10000000
00100000
,
02000000
03000000
00010000
00010000
,
20000000
30000000
00010000
00010000
,
00100000
00001000
00010000
00000100
,
00001000
00000010
00001000
00000010
00001000
00000000
00000010
00000000
,
00001010
00000000
00000000
00000011
,
00000001
00000000
00000100
00000000
00000010
00001000
00000100
00000000
,
00000010
00000000
00000100
00000000
00010000
00001000
00100000
00000000
,
01000000
00000000
00100000
00000000
00010000
10000000
00100000
00000000
,
10000000
00000000
01000000
00000000
00100000
00010000
01000000
00000000
,
00100000
01000000
00010000
00000000
,
10000000
01000000
00010000
00000000
00100000
00000000
00001000
00000000
,
00010000
00000010
00000100
00000000
,
00000001
00000100
00000010
00000000
00001000
00000000
00000010
00000000
,
00000001
00001000
00000001
00000000
00000200
00000000
00000300
00000000
,
00001000
00000010
00001000
00000000
00000200
00000000
00000300
00000000
,
00010000
00001000
00010000
00000000
02000000
00000000
03000000
00000000
,
00100000
00010000
00100000
00000000
00020000
00000000
10030000
00000000
,
11000000
00000000
00000000
00000000
;

//---------------dance-double - ----------------
#NOTES:
     dance-double:
     :
     Hard:
     7:
     :
00000000
00000000
00000000
00000000
,
00000000
00000000
00000000
00000000
,
00000000
00000000
00000000
00000000
,
00000000
00000000
00000000
00000000
,
00000000
00000000
00000000
00000000
,
00000001
00000011
00000010
00000110
,
00000100
00001100
00001000
00011000
,
00010000
00110000
00100000
01100000
,
01000000
11000000
10000000
10100000
,
01000000
00000000
00000000
00010000
00000000
00000000
10000000
00000000
00100000
00000000
00000000
01000000
00000000
00000000
00010000
00000000
,
00100000
00000000
00000000
00001000
00000000
00000000
00000100
00000000
00000010
00000000
00000000
00000001
00000000
00000000
00001000
00000000
,
00000100
00000000
00000000
00000010
00000000
00000000
00001000
00000000
00000010
00000000
00000000
00000100
00000000
00000000
00000001
00000000
,
00001000
00000000
00000000
00000100
00000000
00000000
00000001
00000000
00000010
00000000
00000000
00001000
00000000
00000000
00000010
00000000
,
00000100
00000000
00011000
00000000
00001000
00010000
01000000
00100000
,
00010000
00000000
10010000
00000000
01000000
00100000
10000000
01000000
,
00100000
00000000
00110000
00000000
01000000
10000000
00100000
01000000
,
00010000
00000000
11000000
00000000
01000000
00010000
00000100
00000010
,
00000001
00000000
00001000
00000010
00000000
00000100
00000100
00000000
,
00000001
00000000
00000010
00000100
00000000
00000001
00000001
00000000
,
00001000
00000000
00000000
00000000
00000010
00000000
00000100
00000000
00000001
00000100
00000001
00000000
00001000
00000000
00001000
00000000
,
00000000
00000000
00000000
00000000
00000000
00000000
00000000
00000000
00000000
00010000
00000000
00001000
00100000
00000000
00000000
00000000
,
00220000
00000000
00330000
00000000
01000000
00100000
10000000
00000000
,
00010000
00000000
10010000
00000000
00100000
00010000
01000000
00000000
,
00100000
10000000
00010000
01000000
00000000
01000000
00010000
00100000
,
00000000
00100000
00001000
00010000
00000000
00010000
00000010
00000100
,
00000000
00000100
00000010
00001000
00000000
00001000
00000001
00000010
,
00000000
00000000
00000010
00000000
00000100
00000000
00001000
00000000
00001100
00000000
00000000
00000010
00000000
00000000
00000100
00000000
,
00000002
00000000
00001003
00000010
00000200
00000000
00000310
00000001
,
00002000
00000000
00003100
00010000
00002000
00000000
00103000
00010000
,
02000000
00000000
03100000
10000000
02000000
00000000
03100000
00010000
,
20000000
00000000
30100000
01000000
00200000
00000000
10300000
00010000
,
10010000
10000000
01000000
00010000
,
00001000
00000010
00000001
00000100
,
00001000
00010000
00100000
10000000
,
01000000
00010000
00001000
00000100
,
00000001
00000010
00000100
00001000
,
00000110
00000100
00010000
01000000
,
01100000
01000000
10010000
00100000
,
11000000
01000000
00110000
00010000
,
00100000
00000000
00000000
00000000
00000000
00000000
00000000
00000000
00000000
00010000
00000000
00000100
00000010
00000000
00000000
00000000
,
00000110
00000110
00001001
00000011
,
00001010
00001010
00011000
00001100
,
00011000
00011000
10010000
10100000
,
01010000
00000000
00000000
00000000
11000000
00000000
00000000
00000000
00000000
00010000
00000000
01000000
00100000
00000000
00000000
00000000
,
10000000
01000000
01100000
00000000
00100000
00010000
01100000
00000000
,
00110000
00000000
00011000
00000000
00001100
00001000
00001001
00000000
,
00000001
00000100
00000110
00000000
00000010
00001000
00001100
00000000
,
00000101
00000000
00001010
00000000
00001001
00000001
00000011
00000000
,
00000100
00000000
00000110
00000000
00001000
00000100
00010000
01000000
,
00100000
00000000
01100000
00000000
00010000
10000000
00100000
01000000
,
00010000
00000000
00110000
00000000
01000000
00010000
00100000
00001000
,
00010000
00000000
00011000
00000000
00001000
00000100
00000010
00001000
,
00000001
00000000
00000000
00000000
;
