
//----- mcode: brui -----
#TITLE:Bruised;
#ARTIST:Sugababes;
#BANNER:Bruised.png;
#BACKGROUND:Bruised-bg.png;
#CDTITLE:./CDTitles/DS SuperNOVA PS2 EU.png;
#MUSIC:Bruised.ogg;
#SAMPLESTART:31.344;
#SAMPLELENGTH:15;
#BPMS:0=128;

//---------------dance-single - ----------------
#NOTES:
     dance-single:
     :
     Beginner:
     1:
     :
0000
0000
0000
0000
,
0000
0000
0000
0000
,
0000
0000
0000
0000
,
1000
0000
0001
0000
,
0100
0000
0001
0001
,
0001
0000
0010
0000
,
0100
0000
0010
0000
,
1000
0000
0001
0000
,
1000
0000
0100
0100
,
0100
0000
0000
0000
,
0010
0000
0000
0000
,
1000
0000
0000
0000
,
0001
0000
0000
0000
,
0100
0000
0000
0000
,
0010
0000
0000
0000
,
0100
0000
0001
0000
,
1000
0000
0010
0000
,
2002
0000
0000
3003
,
0000
0000
0000
0000
,
0220
0000
0000
0330
,
0000
0000
0000
0000
,
0010
0000
1000
0000
,
0001
0000
0100
0000
,
0010
0000
0100
0000
,
0001
0000
1000
1000
,
1000
0000
0001
0000
,
1000
0000
0010
0000
,
1000
0000
0001
0000
,
1000
0000
0100
0000
,
0010
0000
0100
0000
,
1000
0000
0010
0000
,
0100
0000
0001
0000
,
1000
0000
0100
0000
,
1000
0000
0010
0000
,
0010
0000
0100
0100
,
0100
0000
0001
0000
,
0010
0000
1000
0000
,
0010
0000
0100
0000
,
0001
0000
1000
1000
,
1000
0000
0010
0000
,
0001
0001
0001
0000
,
2002
0000
0000
3003
,
0000
0000
0000
0000
,
0220
0000
0000
0330
,
0000
0000
0000
0000
,
1000
0000
0100
0000
,
0001
0000
0100
0000
,
0010
0000
0100
0000
,
0010
0000
1000
0000
,
0001
0000
0000
0000
;

//---------------dance-single - ----------------
#NOTES:
     dance-single:
     :
     Easy:
     4:
     :
0000
0000
0000
0000
,
0000
0000
0000
0000
,
0000
0000
0000
0000
,
0001
1000
0010
1000
,
0100
0100
1000
0000
,
1000
0001
0010
0000
,
0100
0010
1000
0000
,
0010
0100
0001
0100
,
0010
0100
0100
0000
,
0001
0010
0100
0010
,
0001
1000
1000
0010
,
0000
0001
1000
0001
,
0000
1000
0001
1000
,
0000
0010
0100
0010
,
1000
0001
0001
0100
,
0000
1000
0100
1000
,
0000
0001
0010
0001
,
0010
0100
0010
1000
,
0001
0000
1000
0100
,
0010
0000
0001
0100
,
0010
0000
0100
0010
,
1000
0001
0100
0001
,
1000
0000
0001
1000
,
0100
0000
1000
0001
,
0100
0010
0100
0010
,
0000
1000
0000
0001
,
0000
0100
0010
0100
,
0001
1000
0000
0001
,
0000
0010
0100
1000
,
0001
1000
0000
0001
,
0000
0100
0001
0010
,
0100
1000
0000
0001
,
0000
0100
0010
1000
,
0001
0000
1000
0010
,
1000
0000
0001
0000
,
0010
0100
0100
0100
,
0100
0000
0010
0010
,
0100
0000
0001
0010
,
0100
0000
0010
0001
,
1000
0000
1000
0000
,
0001
1000
0001
1000
,
1001
0000
1000
0100
,
0010
0000
0001
0100
,
0010
0000
1000
0100
,
0001
0000
0100
1000
,
0010
0100
0001
1000
,
0001
0000
0100
0010
,
1000
0000
0001
0010
,
0100
1000
0001
0010
,
0110
0000
0000
0000
;

//---------------dance-single - ----------------
#NOTES:
     dance-single:
     :
     Medium:
     5:
     :
0000
0000
0000
0000
,
0000
0000
0000
0000
,
0000
0000
0000
0000
,
0100
0001
0010
1000
,
0001
0000
1000
0100
1000
0000
0000
0000
,
0010
0100
0001
0100
,
0010
1000
0100
0010
,
0001
1000
0100
0001
,
0100
0000
0000
0000
0010
1000
0001
0000
,
2000
3020
2030
3020
,
1030
0000
0010
1000
0100
0000
0100
1000
,
0010
0100
1000
0001
,
0000
0010
0001
1000
,
0002
0203
0302
0203
,
0301
0000
0010
0001
0100
0000
0100
0001
,
0010
0100
1000
0010
,
0000
0100
0001
1000
,
1001
0001
1000
0010
,
0110
0010
0100
0001
,
0011
0010
0001
1000
,
2020
0000
0000
3030
0000
0000
0001
0000
,
1001
1000
0001
0100
,
0110
0100
0010
1000
,
1100
0100
1000
0001
,
0202
0000
0000
0303
0000
0000
0100
0000
,
0001
0000
1000
1000
0000
0000
0001
0001
,
0000
0000
0100
0100
0000
0000
0010
0010
,
0000
0000
0001
0001
0000
0000
0010
0010
,
0000
0000
1000
1000
0000
0000
0001
0001
,
0000
0000
1000
1000
0000
0000
0100
0100
,
0000
0000
0010
0010
0000
0000
0001
0001
,
0000
0000
1000
1000
0000
0000
0001
0001
,
0000
0000
0100
0100
0200
0000
0300
0000
,
0000
1000
0001
1000
,
0010
0000
0100
0000
0001
0000
1000
0100
,
0010
0000
1000
0001
,
0100
0000
0010
0000
1000
0000
0100
0010
,
0001
0000
1000
0001
,
0100
0010
0100
1000
,
0002
0003
0020
0030
,
0001
1000
0010
0000
0100
0000
0010
0000
,
0110
0100
0010
0001
,
0011
1000
0100
1000
,
1100
1000
0010
0100
,
0110
0000
0001
0010
0001
0000
0001
1000
,
0001
0100
0010
1000
,
1010
0010
1000
0001
,
1001
1000
0100
0010
,
0110
0000
0100
0010
0100
0000
1000
0000
,
1001
0000
0000
0000
;

//---------------dance-single - ----------------
#NOTES:
     dance-single:
     :
     Hard:
     6:
     :
0000
0000
0000
0000
,
0000
0000
0000
0000
,
0000
0000
0000
0000
,
0000
1000
0100
0010
0000
0001
0010
0100
,
0000
1000
0010
0100
0001
0000
1000
0000
,
1001
0001
0100
0010
0000
1000
0010
0100
,
0000
0001
0010
0100
0000
1000
0001
0100
,
0000
0010
1000
0100
0000
1000
0010
0100
,
0000
0001
0010
0100
0010
0000
1000
0000
,
1100
0000
0001
0100
0010
0000
0010
1000
,
0100
0000
0100
1000
0010
0100
0001
0010
,
0100
1100
0101
1100
,
0000
0000
0010
0100
0010
0100
0010
0000
,
1000
0000
0001
0010
0100
0000
1000
0100
,
0010
0000
0001
0010
0100
1000
0010
0100
,
0001
0011
1010
1100
,
0000
0000
0001
0000
0010
0000
1000
0001
,
0100
0000
0001
0100
0010
0000
1000
0000
,
0001
0000
1000
0100
0010
0001
0010
0000
,
0100
0000
1000
0010
0100
0000
0001
0000
,
1000
0000
0010
1000
0100
0000
0100
1000
,
0001
0000
1000
0100
0010
0000
0001
0000
,
1000
0000
0100
1000
0010
0100
0001
0000
,
0010
0000
0001
0100
0010
0000
0010
0000
,
1000
0000
0001
0100
0010
0000
0010
1000
,
0100
0000
0100
2000
0000
0000
3010
0200
,
0000
0000
0301
0010
0001
0100
0010
1000
,
0001
0000
0100
0020
0000
0000
1030
0002
,
0000
0000
1003
0100
0001
0010
0100
1000
,
0001
0000
0001
0200
0000
0000
0310
2000
,
0000
0000
3100
1000
0010
0100
0001
0010
,
0100
0000
1000
0200
0000
0000
0310
0200
,
0000
0000
0310
0001
0100
0000
0000
0000
,
1000
0000
0001
0010
0100
1000
0000
0010
,
0000
0100
0000
0001
0000
0010
0100
1000
,
0001
0000
1000
0000
0001
1000
0010
0100
,
0000
0010
0000
1000
0000
0001
0000
0010
,
0100
0000
1000
0000
0010
0100
0001
0010
,
0000
1000
0000
0001
0000
1000
0000
0002
,
0000
0003
0000
2000
0000
3000
0000
0010
,
1000
0100
0010
0000
0100
0000
0110
0000
,
1000
0000
0001
0010
0100
0000
1000
0000
,
0001
0000
0100
0010
1000
0100
0010
0000
,
0001
0000
1000
0100
0010
0000
0001
0000
,
0010
0000
0100
1000
0010
0000
0010
1000
,
0100
0000
0001
0100
1000
0000
0010
0000
,
0100
0000
0001
0010
0100
1000
0010
0000
,
1000
0000
0100
0001
0010
0000
0100
0000
,
1000
0000
0001
0010
0100
0000
1000
0100
,
0010
0000
0000
0000
;

//---------------dance-double - ----------------
#NOTES:
     dance-double:
     :
     Easy:
     3:
     :
00000000
00000000
00000000
00000000
,
00000000
00000000
00000000
00000000
,
00000000
00000000
00000000
00000000
,
00001000
00010000
00000000
00000100
,
00000000
00000010
00002000
00000000
,
00003001
00001000
00000000
00000100
,
00000000
00010000
00000000
00001000
,
00100000
00010000
00000000
10000000
,
00000000
00100000
01000000
00010000
,
10000000
10000000
00100000
00100000
,
00010000
00000000
00100000
00000000
,
00001000
00001000
00010000
00010000
,
00000000
00001000
00000100
00000010
,
00001000
00001000
00000001
00000001
,
00000010
00000000
00000100
00000000
,
00001000
00000000
00000010
00010000
,
00000000
00001000
00010000
00001000
,
00100000
00000000
01000000
10000000
,
00010000
00000000
01000000
00010000
,
10000000
00000000
00100000
01000000
,
00010000
00010000
00100000
00100000
,
00001000
00000000
00010000
00001000
,
00000100
00000000
00000010
00001000
,
00000100
00000000
00000001
00001000
,
00000100
00000100
00000010
00000010
,
00010000
00010000
00000000
00001000
,
00000000
01000000
00100000
10000000
,
00010000
00010000
00000000
10000000
,
00000000
00100000
10000000
00010000
,
01000000
01000000
00000000
00010000
,
00000000
00100000
00001000
00010000
,
00001000
00001000
00000000
00000100
,
00000000
00000010
00000200
00000000
,
00000300
00000001
00000000
00001000
,
00000000
00000100
00000000
00001000
,
00000100
00010000
00000000
00001000
,
00000000
00100000
00000000
00010000
,
00100000
01000000
00000000
00010000
,
00000000
10000000
00000000
00100000
,
01000000
01000000
00100000
00100000
,
01000000
00001000
00010000
00001000
,
00011000
00000000
00000100
00000010
,
00000001
00000000
00001000
00000010
,
00000100
00000000
00000001
00001000
,
00000010
00000010
00010000
00010000
,
00001000
00000000
00100000
01000000
,
10000000
00000000
01000000
00100000
,
00010000
00000000
00100000
00001000
,
00010000
00010000
00001000
00001000
,
00011000
00000000
00000000
00000000
;

//---------------dance-double - ----------------
#NOTES:
     dance-double:
     :
     Medium:
     6:
     :
00000000
00000000
00000000
00000000
,
00000000
00000000
00000000
00000000
,
00000000
00000000
00000000
00000000
,
00000010
00001000
00000010
00000001
,
00000100
00000000
00000010
00001000
00000010
00000000
00000000
00000000
,
00001000
00000100
00000010
00000100
,
00010000
00000010
00000100
00010000
,
01000000
00100000
10000000
00010000
,
00100000
00000000
00000000
00000000
01000000
10000000
00100000
00000000
,
02000000
03020000
02030000
03020000
,
00130000
00000000
00001000
00010000
00000100
00000000
00000100
00010000
,
00001000
00000100
00000010
00001000
,
00000000
00000001
00000010
00001000
,
00000200
00002300
00003200
00002300
,
00003010
00000000
00000100
00000001
00000010
00000000
00000010
00000001
,
00000100
00001000
00010000
00100000
,
00000000
10000000
01000000
00010000
,
10010000
00000000
00010000
00100000
00001000
00000000
00022000
00000000
,
00033000
00000000
00001000
00010000
01000000
00000000
02200000
00000000
,
03300000
00000000
00100000
01000000
10000000
00000000
20020000
00000000
,
30030000
00100000
10000000
00100000
,
10100000
00000000
01000000
00010000
00100000
00000000
00220000
00000000
,
00330000
00000000
00100000
00001000
00010000
00000000
00022000
00000000
,
00033000
00000000
00010000
00000100
00000010
00000000
00000220
00000000
,
00000330
00000001
00000010
00000001
,
00001000
00000000
00000010
00000010
00000000
00000000
00010000
00010000
,
00000000
00000000
00001000
00010000
00001000
00000000
00100000
00000000
,
00010000
00000000
01000000
01000000
00000000
00000000
00100000
00100000
,
00000000
00000000
10000000
01000000
10000000
00000000
00100000
00000000
,
01000000
00000000
00010000
00010000
00000000
00000000
00100000
00100000
,
00000000
00000000
00001000
00010000
00001000
00000000
00000100
00000000
,
00000001
00000000
00000010
00000010
00000000
00000000
00000001
00000001
,
00000000
00000000
00001000
00000100
00002000
00000000
00003000
00000000
,
00000000
00000001
00000100
00001000
,
00000100
00000000
00010000
00000000
01000000
00000000
00100000
10000000
,
01000000
00000000
00010000
01000000
,
10000000
00000000
01000000
00000000
00010000
00000000
00100000
00001000
,
00010000
00000000
00000100
00001000
,
00000010
00000100
00000001
00001000
,
00001001
00000000
00000110
00000000
,
00000010
00001000
00000100
00000000
00010000
00000000
00001000
00000000
,
00011000
00000000
00001000
00100000
00010000
00000000
00220000
00000000
,
00330000
00000000
01000000
10000000
00010000
00000000
20020000
00000000
,
30030000
00000000
01000000
00010000
00100000
00000000
02200000
00000000
,
03300000
00000000
00100000
00001000
00010000
00000000
00010000
00001000
,
00000200
00000000
00000310
00001000
00000001
00000000
00000022
00000000
,
00000033
00000000
00001000
00000010
00000100
00000000
00000220
00000000
,
00000330
00000000
00001000
00000100
00010000
00000000
00022000
00000000
,
00033000
00000000
00010000
00001000
00010000
00000000
00000100
00000000
,
00001100
00000000
00000000
00000000
;

//---------------dance-double - ----------------
#NOTES:
     dance-double:
     :
     Hard:
     6:
     :
00000000
00000000
00000000
00000000
,
00000000
00000000
00000000
00000000
,
00000000
00000000
00000000
00000000
,
00000000
00000010
00001000
00000100
00000000
00000010
00000001
00000100
,
00000000
00000010
00001000
00000100
00010000
00000000
00001000
00000000
,
00011000
00001000
00100000
00010000
00000000
01000000
00010000
00100000
,
00000000
01000000
10000000
00010000
00000000
01000000
01000000
01000000
,
00000000
00010000
00100000
00001000
00000000
00000100
00000010
00001000
,
00000000
00000001
00000100
00000010
00001000
00000000
00000010
00000000
,
00000110
00000000
00000100
00000001
00000010
00000000
00000010
00000100
,
00001000
00000000
00001000
00000010
00000100
00010000
01000000
00100000
,
10000000
10010000
00011000
10010000
,
00000000
00000000
00010000
00100000
01000000
00100000
00010000
00000000
,
01000000
00000000
00100000
10000000
01000000
00000000
01000000
00100000
,
00010000
00000000
00010000
00100000
00001000
00010000
00000100
00000010
,
00000001
00001001
00011000
00001001
,
00000000
00000000
00000001
00000000
00000100
00000000
00001000
00000010
,
00000100
00000000
00000001
00001000
00000100
00000000
00020000
00000000
,
00031000
00000000
01000000
00100000
10000000
01000000
20000000
00000000
,
30010000
00000000
01000000
00100000
10000000
00000000
00020000
00000000
,
10030000
00000000
00100000
00001000
00010000
00000000
00010000
00001000
,
00000100
00000000
00000010
00001000
00000100
00000000
00002000
00000000
,
00003001
00000000
00000100
00000010
00001000
00000100
00020000
00000000
,
00031000
00000000
00001000
00010000
00001000
00000000
00200000
00000000
,
01300000
00000000
10000000
00010000
01000000
00000000
01000000
00100000
,
10000000
00000000
00010000
20000000
00000000
00000000
31000000
00200000
,
00000000
00000000
00301000
00010000
00000100
00000010
00000100
00000010
,
00000001
00000000
00001000
00000002
00000000
00000000
00000103
00000020
,
00000000
00000000
00001030
00000100
00000010
00000100
00001000
00000010
,
00001000
00000000
00000100
00020000
00000000
00000000
00031000
00200000
,
00000000
00000000
00310000
01000000
00100000
10000000
01000000
00100000
,
10000000
00000000
00100000
20000000
00000000
00000000
30100000
02000000
,
00000000
00000000
03100000
10000000
01000000
00000000
00000000
00000000
,
00100000
00000000
00001000
00000100
00000010
00000100
00000000
00000001
,
00000000
00001000
00000000
00000010
00000000
00000100
00000001
00000010
,
00000100
00000000
00001000
00000000
00000100
00010000
00001000
00100000
,
00000000
00010000
00000000
01000000
00000000
10000000
00000000
00100000
,
10000000
00000000
00010000
00000000
01000000
00100000
01000000
00010000
,
00000000
00100000
00000000
10000000
00000000
00010000
00000000
01010000
,
00000000
00000000
00000000
00011000
00000000
00000000
00000000
00000010
,
00001000
00000001
00000010
00000000
00000100
00000000
00000110
00000000
,
00001001
00000000
00000010
00000100
00000001
00000000
00001000
00000000
,
00000101
00000000
00000100
00001000
00010000
01000000
10000000
00000000
,
10100000
00000000
01000000
00010000
10000000
00000000
00100000
00000000
,
01100000
00000000
00010000
00100000
00001000
00000000
00010000
00000100
,
00001100
00000000
00000010
00000100
00000001
00000000
00001000
00000000
,
00001001
00000000
00001000
00000100
00000010
00000100
00010000
00000000
,
00011000
00000000
00001000
00010000
00001000
00000000
00100000
00000000
,
00110000
00000000
10000000
01000000
00010000
01000000
10000000
00100000
,
01000000
00000000
00000000
00000000
;
