
//----- mcode: biol -----
#TITLE:Biology;
#ARTIST:Girls Aloud;
#BANNER:Biology.png;
#BACKGROUND:Biology-bg.png;
#CDTITLE:./CDTitles/DS SuperNOVA PS2 EU.png;
#MUSIC:Biology.ogg;
#SAMPLESTART:60.745;
#SAMPLELENGTH:15;
#DISPLAYBPM:146;
#BPMS:0=146,4=145.7;

//---------------dance-single - ----------------
#NOTES:
     dance-single:
     :
     Beginner:
     1:
     :
0000
0000
0000
0000
,
0000
0000
0000
0000
,
0000
0000
0000
0000
,
0020
0000
0000
0030
,
0000
0000
0000
0000
,
0200
0000
0000
0300
,
0100
0000
0001
0000
,
1000
0000
0000
0000
,
0010
0010
0010
0000
,
0200
0000
0000
0300
,
0000
0000
0000
0000
,
0002
0000
0000
0003
,
0000
0000
0000
0000
,
2000
0000
0000
3000
,
1000
0000
0001
0000
,
0100
0000
0000
0000
,
0010
0010
0010
0000
,
0100
0000
0100
0000
,
0010
0000
0010
0000
,
2000
0000
0000
3000
,
0000
0000
0000
0000
,
0001
0000
0001
0000
,
0100
0000
0100
0000
,
0010
0000
0000
0000
,
0100
0000
0000
0000
,
0001
0001
0001
0000
,
1000
0000
0000
0000
,
0010
0000
0000
0000
,
0100
0000
0000
0000
,
1000
1000
1000
0000
,
0001
0000
0000
0000
,
0100
0000
0000
0000
,
0010
0000
0000
0000
,
1000
0000
0001
0000
,
1000
0000
0001
0000
,
0100
0000
0010
0000
,
0100
0000
0000
0000
,
0010
0000
0100
0000
,
1000
1000
1000
0000
,
0001
0000
0000
0000
,
0100
0000
0001
0000
,
0010
0000
1000
0000
,
0001
0001
0001
0000
,
0100
0000
0000
0000
,
0010
0000
1000
0000
,
0100
0000
0001
0000
,
1000
1000
1000
0000
,
0010
0000
0000
0000
,
0100
0000
0001
0000
,
0010
0000
1000
0000
,
0100
0100
0100
0000
,
0010
0000
0000
0000
,
0100
0000
0000
0000
,
0001
0000
1000
0000
,
0010
0000
1000
0000
,
0001
0000
0010
0000
,
0001
0000
0100
0000
,
0010
0000
1000
0000
,
0001
0000
1000
0000
,
0100
0000
0010
0000
;

//---------------dance-single - ----------------
#NOTES:
     dance-single:
     :
     Easy:
     4:
     :
0000
0000
0000
0000
,
0000
0000
0000
0000
,
0000
0000
0000
0000
,
0001
0000
0010
0000
,
0100
1000
0010
0100
,
0001
0000
1000
0000
,
0001
0100
1000
0100
,
0001
0000
0010
0000
,
0100
0100
0010
0010
,
1000
0000
0001
0000
,
0100
1000
0100
0001
,
0010
0000
0001
0000
,
1000
0001
0100
0001
,
0010
0000
0100
0000
,
1000
1000
0010
0010
,
0100
0000
0001
0000
,
0010
0010
0010
0010
,
0200
0000
1300
0000
,
0010
0000
0100
0000
,
0001
1000
0001
0000
,
0001
0100
0001
0000
,
2000
0000
3001
0000
,
0010
1000
0010
0000
,
0001
0010
0001
0000
,
1000
0100
0010
0001
,
2000
0000
3010
0000
,
0100
0001
1000
0000
,
0100
0010
0001
0000
,
1000
0000
0001
0000
,
0200
0000
0310
0000
,
1000
0010
0001
0000
,
0001
0010
1000
0100
,
1000
0010
0100
0001
,
1001
0000
0100
0000
,
0110
0000
1000
0000
,
1001
0000
0010
0000
,
0110
0000
0001
0000
,
1000
0100
0000
0000
,
0001
0100
0010
1000
,
0001
0000
1000
0000
,
0010
0010
0010
0000
,
0010
0001
0000
0000
,
1000
0001
0100
0010
,
1000
0000
0001
0000
,
0100
0100
0100
0000
,
0100
0010
0000
0000
,
1000
0100
0001
0100
,
1000
0000
0010
0000
,
0100
0100
0100
0000
,
0100
0001
0000
0000
,
0010
1000
0100
0010
,
1000
0000
0001
0000
,
0100
0010
0100
0010
,
1000
1000
0001
0000
,
0001
0001
1000
0000
,
0010
0010
0100
0000
,
0001
0100
1000
0100
,
0010
0010
1000
0000
,
0001
0001
0010
0000
,
0100
0100
1000
0000
;

//---------------dance-single - ----------------
#NOTES:
     dance-single:
     :
     Medium:
     4:
     :
0000
0000
0000
0000
,
0000
0000
0000
0000
,
0000
0000
0000
0000
,
1000
0100
0010
0000
,
0100
0000
0010
0000
1000
0000
0001
0100
,
0010
1000
0001
0000
,
0100
1000
0010
0100
,
0001
0010
0001
0000
1000
0000
0000
0000
,
0010
0100
0010
0000
0200
0000
0000
0000
,
0301
1000
0010
0000
,
1000
0100
0001
0000
,
0100
0010
1000
0000
,
0100
0000
0010
0000
1000
0000
0001
0010
,
0100
0010
0100
0000
,
1000
0100
0010
0000
,
1000
0001
1000
0000
0100
0000
0000
0000
,
1000
0001
1000
0000
0020
0000
0000
0000
,
1030
0002
0000
0003
,
0100
0001
0010
0100
,
1000
0010
0100
0010
,
0001
0000
1000
0000
0001
1000
0001
0000
,
0100
0020
0000
0030
,
1000
0100
0010
1000
,
0001
0100
0010
0001
,
1000
0000
0100
0000
0010
0001
0010
0000
,
1000
0200
0000
0300
,
0010
1000
0100
0010
,
1000
0001
0100
0010
,
1000
0000
0001
0000
0010
0001
0010
0000
,
0100
0020
0000
0030
,
1000
0010
0001
0100
,
0010
1000
0100
0010
,
0001
0010
0001
0000
0100
1000
0100
0000
,
0010
0100
1000
0100
,
0010
0001
0100
0010
,
0100
0001
1000
0001
,
1000
0001
0100
0000
,
0010
1000
0020
0000
0000
0000
0000
0000
,
0130
0100
0010
1000
,
0001
0000
1000
0001
,
0100
0100
0010
0000
,
1000
0100
2000
0000
0000
0000
0000
0000
,
3001
0001
1000
0010
,
0100
0000
1000
0001
,
1000
1000
0010
0000
,
1000
0001
2000
0000
0000
0000
0000
0000
,
3001
0010
0100
1000
,
0010
0000
0100
1000
,
0001
0001
0100
0010
,
0100
0010
0200
0000
0000
0000
0000
0000
,
0310
0001
0100
0010
,
1000
0000
0100
0001
,
1000
0010
1000
0010
,
0100
0000
0001
0000
0010
0001
0010
0000
,
0100
0000
0000
0000
1000
0100
1000
0000
,
0010
0000
0000
0000
0100
0001
0100
0000
,
0010
0100
1000
0001
,
0100
0000
0000
0000
0010
0100
0010
0000
,
0001
0000
0000
0000
0100
0010
0100
0000
,
1000
0000
0001
0000
1000
0001
1000
0000
;

//---------------dance-single - ----------------
#NOTES:
     dance-single:
     :
     Hard:
     6:
     :
0000
0000
0000
0000
,
0000
0000
0000
0000
,
0000
0000
0000
0000
,
0010
1100
0010
0101
,
1000
0001
1000
0001
0100
0000
0010
0000
,
0001
1010
1000
0011
,
0001
0000
0100
0000
0010
0000
1000
0010
,
0000
0000
0100
0001
0000
0010
0000
0001
,
0010
0000
0100
1000
0000
0010
0000
0000
,
0100
0101
0100
1100
,
1000
0100
0001
0100
1000
0000
0010
0000
,
0100
0011
0100
1010
,
0001
0000
1000
0000
0010
0100
0010
0000
,
0100
1001
0010
1001
,
0010
0000
0100
0010
0001
0000
1000
0100
,
0000
0000
1000
0010
0000
0000
0000
0100
,
0001
0000
0010
0100
0000
0000
0000
1001
,
0000
0202
0000
0000
0303
0000
0001
1000
,
0000
0100
0010
0001
0000
0010
0001
0100
,
0000
0001
0100
1000
0000
0100
0010
1000
,
0000
0100
1000
0001
0000
0010
0000
0011
,
0000
2002
0000
0000
3003
0000
0010
1000
,
0000
0001
0010
0001
0000
1000
0010
0100
,
0000
0001
1000
0100
0000
0010
0100
1000
,
0000
0010
0100
0001
0000
1000
0000
1001
,
0000
2200
0000
0000
3300
0000
0001
0100
,
0000
0001
0010
0100
0000
1000
0001
0100
,
0000
0010
1000
0100
0000
0010
0100
0010
,
0000
0100
1000
0010
0000
0100
0000
1001
,
0000
0022
0000
0000
0033
0000
1000
0100
,
0000
0010
0001
1000
0000
0010
0100
0001
,
0000
1000
0001
0010
0000
0100
1000
0100
,
0000
0010
0001
0010
0000
0100
0000
1001
,
0000
0100
0000
0110
0000
0001
0000
0011
,
0000
1000
0000
1010
0000
0100
0000
0110
,
0000
0010
0000
1001
0000
0100
0000
1001
,
0000
0010
0000
1001
0000
0100
0000
0001
,
1000
0100
0010
0000
0000
0001
0000
0010
,
0000
0001
0100
0001
0010
0100
1000
0000
,
0010
0000
0000
1000
0000
0100
0000
0001
,
0000
0000
1000
0100
0000
1000
0000
0100
,
0010
0001
0100
0000
0000
1000
0000
0010
,
0000
0001
0010
0100
1000
0010
0100
0000
,
0002
0000
0000
1000
0000
0100
0000
1000
,
0000
0100
0000
1000
0000
0010
0003
1000
,
0100
0010
0001
0000
0000
1000
0000
0010
,
0000
0100
0001
0010
0100
1000
0010
0000
,
0100
0000
0000
0001
0000
0100
0000
0010
,
0000
0000
0100
0010
0000
0001
0000
1000
,
0100
1000
0010
0000
0000
1000
0000
0001
,
0000
0010
0001
0100
0001
0010
0100
0000
,
0220
0000
0000
0000
0000
0330
0000
0001
,
0000
1000
0100
0010
0001
0010
0100
1000
,
0010
0100
0000
0000
0001
0010
0001
0100
,
0000
0100
0000
0010
1000
0100
0010
0001
,
0000
0001
0000
0100
1000
0010
0100
0001
,
0000
0010
1000
0100
0010
0001
1000
0001
,
1000
0001
0000
0010
0001
0100
0010
1000
,
0000
1000
0000
0100
0010
0001
0010
0100
,
0000
0100
0000
0010
0001
0100
1000
0100
;

//---------------dance-double - ----------------
#NOTES:
     dance-double:
     :
     Easy:
     4:
     :
00000000
00000000
00000000
00000000
,
00000000
00000000
00000000
00000000
,
00000000
00000000
00000000
00000000
,
00000200
00000000
00000300
00000000
,
00001000
00000001
00000100
00000010
,
00020000
00000000
00030000
00000000
,
00001000
00100000
00010000
01000000
,
00100000
00000000
10000000
00000000
,
00010000
00010000
00100000
00100000
,
02000000
00000000
03000000
00000000
,
10000000
00010000
00100000
00001000
,
00020000
00000000
00030000
00000000
,
00000100
00001000
00000010
00000100
,
00000002
00000000
00000003
00000000
,
00001000
00000010
00000001
00000010
,
00001000
00000000
00000100
00000000
,
00010000
00010000
00001000
00001000
,
00011000
00000000
00000000
00000000
,
01000000
00000000
00010000
00000000
,
00100000
01000000
00100000
00000000
,
00100000
10000000
00100000
00000000
,
10010000
00000000
00000000
00000000
,
00010000
00100000
00010000
00000000
,
00001000
00010000
00001000
00000000
,
00010000
00000100
00001000
00000010
,
00000110
00000000
00000000
00000000
,
00000010
00001000
00000100
00000000
,
00000010
00000001
00000100
00000000
,
00000010
00000000
00010000
00000000
,
00011000
00000000
00000000
00000000
,
00001000
01000000
00010000
00000000
,
00100000
00010000
01000000
00100000
,
10000000
01000000
00100000
00010000
,
10010000
00000000
00010000
00000000
,
01100000
00000000
00100000
00000000
,
00001000
00000000
00010000
00000000
,
00000110
00000000
00000100
00000000
,
00000001
00000100
00000000
00000000
,
00001000
00000100
00001000
00000010
,
00000200
00000000
00000310
00000000
,
00010000
00010000
00010000
00000000
,
00001000
00100000
00000000
00000000
,
01000000
00100000
00010000
01000000
,
00020000
00000000
10030000
00000000
,
00100000
00100000
00100000
00000000
,
10000000
00010000
00000000
00000000
,
00100000
00001000
00010000
00000010
,
00000200
00000000
00000301
00000000
,
00000010
00000010
00000010
00000000
,
00001000
00000010
00000000
00000000
,
00000100
00000010
00000100
00010000
,
00002000
00000000
00013000
00000000
,
00011000
00010000
00010000
00010000
,
00001000
00001000
00100000
00000000
,
00010000
00010000
01000000
00000000
,
00100000
00100000
10000000
00000000
,
00010000
00100000
00001000
00010000
,
00000100
00000100
00000010
00000000
,
00000001
00000001
00001000
00000000
,
00000010
00000010
00000100
00000000
;

//---------------dance-double - ----------------
#NOTES:
     dance-double:
     :
     Medium:
     5:
     :
00000000
00000000
00000000
00000000
,
00000000
00000000
00000000
00000000
,
00000000
00000000
00000000
00000000
,
10000000
00010000
00100000
00000000
,
00001000
00000000
00010000
00000000
00000100
00000000
00001000
00000010
,
00000100
00000001
00000010
00000000
,
00001000
00000010
00000100
00000010
,
00010000
00001000
00010000
00000000
00000100
00000000
00000000
00000000
,
00001000
00000010
00001000
00000000
00000200
00000000
00000000
00000000
,
00010300
00001000
00100000
00000000
,
00010000
01000000
00100000
00000000
,
10000000
00010000
01000000
00000000
,
00100000
00000000
10000000
00000000
01000000
00000000
00100000
00001000
,
00010000
00001000
00010000
00000000
,
00000100
00000010
00001000
00000000
,
00000001
00000010
00000001
00000000
00001000
00000000
00000000
00000000
,
00000001
00000000
00000000
00000000
00000000
00000000
00000000
00000000
00000010
00000000
00000000
00000000
00000000
00000000
00000000
00000000
00000001
00000000
00000000
00000000
00000000
00000000
00000000
00000000
00000000
00000000
00000000
00000000
00000000
00000000
00000000
00000000
00000200
00000000
00000000
00000000
00000000
00000000
00000000
00000000
00000000
00000000
00000000
00000000
00000000
00000000
00000000
00000000
00000000
00000000
00000000
00000000
00000000
00000000
00000000
00000000
00000000
00000000
00000000
00000000
00000000
00000000
00000000
00000300
,
00000001
00000020
00000000
00000030
,
00010000
00001000
00100000
00010000
,
01000000
00010000
10000000
01000000
,
00100000
00000000
10000000
00000000
00100000
01000000
00010000
00000000
,
00100000
00002000
00000000
00003000
,
00010000
00000010
00001000
00000100
,
00000010
00000001
00000010
00001000
,
00000010
00000000
00000100
00000000
00000001
00000100
00000001
00000000
,
00001000
00000200
00000000
00000300
,
00000010
00000001
00000100
00010000
,
01000000
00100000
10000000
00010000
,
00100000
00000000
00010000
00000000
10000000
00100000
10000000
00000000
,
00010000
20000000
00000000
30000000
,
00100000
01000000
00100000
00010000
,
00100000
00001000
00010000
00001000
,
00010000
00000100
00010000
00000000
00000100
00001000
00000100
00000000
,
00000010
00000001
00000100
00001000
,
00000100
00000010
00001000
00000001
,
00001000
00000100
00000010
00000100
,
00000010
00010000
00001000
00000000
,
00010000
00001000
00200000
00000000
00000000
00000000
00000000
00000000
,
00310000
00010000
01000000
00100000
,
02100000
00000000
03100000
10000000
,
00010000
00010000
01000000
00000000
,
00100000
00001000
00020000
00000000
00000000
00000000
00000000
00000000
,
00030100
00000100
00001000
00000001
,
00002001
00000000
00003001
00000100
,
00000010
00000010
00000100
00000000
,
00000010
00001000
00000200
00000000
00000000
00000000
00000000
00000000
,
00001300
00000100
00010000
00001000
,
00021000
00000000
00031000
00100000
,
00010000
00010000
10000000
01000000
,
00100000
01000000
20000000
00000000
00000000
00000000
00000000
00000000
,
30010000
01000000
00100000
00010000
,
20010000
00000000
30010000
00100000
,
01000000
00010000
00100000
01000000
,
00100000
00000000
00001000
00000000
00010000
00001000
00010000
00000000
,
00000100
00000000
00000000
00000000
00001000
00000010
00001000
00000000
,
00000100
00000000
00000000
00000000
00000001
00000010
00000001
00000000
,
00001000
00000100
00000001
00000100
,
00001000
00000000
00000100
00000000
00000100
00010000
00000100
00000000
,
00010000
00000000
00000000
00000000
00001000
00100000
00001000
00000000
,
00100000
00000000
00010000
00000000
10000000
01000000
10000000
00000000
;

//---------------dance-double - ----------------
#NOTES:
     dance-double:
     :
     Hard:
     7:
     :
00000000
00000000
00000000
00000000
,
00000000
00000000
00000000
00000000
,
00000000
00000000
00000000
00000000
,
00000100
00011000
00100000
00011000
,
00010000
00000100
00010000
00000100
00001000
00000000
00000010
00000000
,
00000100
00000101
00000010
00001010
,
00000100
00000000
00010000
00000000
00001000
00000000
00100000
00010000
,
00000000
00000000
01000000
00100000
00000000
10000000
00000000
00100000
,
01000000
00000000
00010000
00100000
00000000
01000000
00000000
00000000
,
10000000
11000000
00010000
01010000
,
00100000
00001000
00010000
00001000
00100000
00000000
00001000
00000000
,
00100000
00011000
00000100
00011000
,
00001000
00000000
00000100
00000000
00000010
00001000
00000010
00000000
,
00000100
00001001
00000010
00001001
,
00000100
00000000
00000001
00001000
00000100
00000000
00000010
00000100
,
00000000
00000000
00010000
00001000
00000000
00000000
00010000
01000000
,
00100000
00000000
00010000
01000000
00000000
00000000
00000000
00110000
,
00000000
22000000
00000000
00000000
33000000
00000000
00100000
10000000
,
00000000
00010000
01000000
00100000
00000000
10000000
01000000
00010000
,
00000000
00001000
00000100
00000001
00000000
00000010
00000001
00000100
,
00000000
00000010
00000100
00000001
00000000
00001000
00000000
00001010
,
00000000
00000202
00000000
00000000
00000303
00000000
00000010
00001000
,
00000000
00000100
00000010
00000100
00000000
00010000
00001000
00000100
,
00000000
00001000
00010000
01000000
00000000
00100000
00010000
01000000
,
00000000
00100000
10000000
01000000
00000000
00010000
00000000
00110000
,
00000000
00022000
00000000
00000000
00033000
00000000
00001000
00100000
,
00000000
00010000
01000000
10000000
00000000
01000000
00010000
00100000
,
00000000
01000000
00100000
01000000
00000000
10000000
00100000
01000000
,
00000000
00010000
00100000
00001000
00000000
00010000
00000000
00001010
,
00000000
00022000
00000000
00000000
00033000
00000000
00010000
00000100
,
00000000
00001000
00000010
00000100
00000000
00000001
00001000
00000001
,
00000000
00000100
00000001
00000010
00000000
00000100
00001000
00000100
,
00000000
00000010
00001000
00000010
00000000
00000100
00000000
00001001
,
00001000
00000100
00000000
00011000
00001000
00100000
00000000
00110000
,
00100000
01000000
00000000
01100000
00100000
00010000
00000000
01010000
,
00010000
10000000
00000000
11000000
10000000
00100000
00000000
01100000
,
00100000
10000000
00000000
10010000
00010000
00100000
00000000
00001000
,
00010000
00001000
00000200
00000000
00000000
00000310
00000000
00000100
,
00000000
00000001
00000010
00000001
00001000
00000100
00000010
00000000
,
00000110
00000000
00000000
00000001
00000000
00000010
00000000
00001000
,
00000000
00000000
00000001
00000100
00000000
00000010
00000000
00010000
,
00001000
00010000
02000000
00000000
00000000
03100000
00000000
00010000
,
00000000
10000000
00100000
01000000
00010000
10000000
00010000
00000000
,
00200000
00000000
00000000
00001000
00000000
00010000
00000000
00001000
,
00000000
00010000
00000000
00001000
00000000
00010000
00300000
00001000
,
00010000
00000100
00000020
00000000
00000000
00000031
00000000
00001000
,
00000000
00000010
00001000
00000100
00001000
00000001
00000010
00000000
,
00000110
00000000
00000000
00000001
00000000
00000100
00000000
00010000
,
00000000
00000000
01000000
00100000
00000000
10000000
00000000
00100000
,
10000000
01000000
00200000
00000000
00000000
01300000
00000000
10000000
,
00000000
00100000
01000000
00010000
00100000
00010000
00100000
00000000
,
00022000
00000000
00000000
00000000
00000000
00033000
00000000
00010000
,
00000000
00000100
00001000
00000010
00000001
00000010
00001000
00000100
,
00000010
00000001
00000000
00001000
00000100
00000001
00000100
00001000
,
00000000
00000010
00000000
00000100
00000001
00001000
00000100
00010000
,
00000000
00001000
00000000
00100000
00010000
10000000
00100000
01000000
,
00000000
00010000
01000000
00100000
10000000
01000000
00100000
01000000
,
00100000
10000000
00000000
00100000
01000000
00010000
00100000
00001000
,
00000000
00000100
00000000
00000010
00001000
00000010
00000100
00000001
,
00000000
00001000
00000000
00000100
00000010
00000001
00000010
00000100
;
