
//----- mcode: said -----
#TITLE:All The Things She Said;
#ARTIST:t.A.T.u.;
#BANNER:All The Things She Said.png;
#BACKGROUND:All The Things She Said-bg.png;
#CDTITLE:./CDTitles/DS SuperNOVA PS2 EU.png;
#MUSIC:All The Things She Said.ogg;
#SAMPLESTART:2.667;
#SAMPLELENGTH:15;
#BPMS:0=90;

//---------------dance-single - ----------------
#NOTES:
     dance-single:
     :
     Beginner:
     1:
     :
0000
0000
0000
0000
,
0000
0000
0000
0000
,
0000
0000
0000
0000
,
0001
0000
0001
0000
,
0001
0000
0001
0000
,
0010
0010
0010
0000
,
0010
0000
0010
0000
,
0100
0100
0100
0000
,
0100
0000
0100
0000
,
0001
0000
0001
0000
,
1000
0000
1000
0000
,
0001
0000
0001
0000
,
1000
0000
1000
0000
,
0100
0000
0100
0000
,
0010
0000
0010
0000
,
0100
0000
0100
0000
,
0010
0000
0010
0000
,
0001
0000
1000
0000
,
0001
0000
0001
0000
,
0001
0001
0001
0000
,
1000
0000
1000
0000
,
1000
1000
1000
0000
,
0010
0000
0010
0000
,
0100
0000
0100
0100
,
0100
0000
0010
0000
,
0010
0000
0010
0010
,
0010
0000
0010
0000
,
0100
0000
0100
0000
,
0001
0001
0001
0000
,
1000
1000
1000
0000
,
0100
0100
0100
0000
,
0010
0010
0010
0000
,
1000
1000
1000
0000
,
0001
0001
0001
0000
,
0100
0100
0100
0000
,
0010
0010
0010
0000
,
0110
0000
0000
0000
;

//---------------dance-single - ----------------
#NOTES:
     dance-single:
     :
     Easy:
     4:
     :
0000
0000
0000
0000
,
0000
0000
0000
0000
,
0000
0000
0000
0000
,
0100
0100
0010
0100
,
0010
0010
0200
0300
,
1000
1000
0001
0001
,
2000
0002
0000
3003
,
0001
1000
0001
1000
,
0010
0100
0010
0100
,
0002
0003
2000
3000
,
0002
0003
0020
0030
,
0200
0300
0020
0030
,
0002
0003
2000
3000
,
0001
0010
0001
0000
,
1000
0010
1000
0000
,
0001
0100
0001
0000
,
1000
0100
1000
0000
,
1001
0000
0110
0000
,
1000
0001
1000
0001
,
0100
0010
0200
0300
,
0001
1000
0001
1000
,
0100
0010
0200
0300
,
0001
1000
0001
0100
,
0020
0030
0100
0100
,
1000
0001
1000
0010
,
0200
0300
0010
0010
,
0110
0000
1001
0000
,
0110
0000
1001
0000
,
2000
3100
2000
3100
,
0020
0031
0020
0031
,
0200
0301
0200
0301
,
2000
3010
2000
3000
,
0002
0103
0002
0103
,
0020
1030
0020
1030
,
0200
1300
0200
1300
,
0002
0013
0002
0003
,
0110
0000
0000
0000
;

//---------------dance-single - ----------------
#NOTES:
     dance-single:
     :
     Medium:
     5:
     :
0000
0000
0000
0000
,
0000
0000
0000
0000
,
0000
0000
0000
0000
,
1000
0100
0100
0010
0001
0001
1000
0010
,
0010
0100
0001
0001
0100
1000
1000
0100
,
1001
0000
0101
0000
0011
0000
0100
2000
,
0000
0002
3000
0000
0103
0000
0100
0000
,
0010
1000
0100
0000
0010
0001
0100
0000
,
0001
1000
1001
0110
,
2002
3003
1000
1000
,
0001
0001
0100
0100
,
1000
1000
0100
0100
,
0001
0010
0001
0000
1000
0100
1000
0000
,
0001
0000
0100
0000
0010
0000
0000
0000
1000
0000
0000
1000
0000
0000
0000
0000
,
0100
0000
0010
0000
0001
0000
0000
0000
0100
0000
0000
0100
0000
0000
0000
0000
,
0010
1000
1000
0000
0001
0100
0100
0000
,
0010
1000
0001
0000
0010
0100
1000
0000
,
0010
0001
1000
0000
0010
0100
0001
0000
,
1000
1000
1000
0001
0001
0001
0100
0010
,
1000
1100
0001
0011
,
0100
0100
0100
1000
1000
1000
0010
0100
,
0001
0101
1000
1010
,
0012
0000
1000
0000
0203
0000
0310
2000
,
0000
3002
0000
0013
0110
0000
1001
0000
,
0200
0000
0302
0000
0023
0000
0130
2000
,
0000
3002
0000
0003
1000
0000
0001
0000
,
1001
0100
0020
0030
,
1000
0001
0200
0300
,
0010
1000
0100
0000
0001
0100
1000
0000
,
0001
0000
0000
0001
0000
0000
0100
0000
1000
0000
0000
1000
0000
0000
0100
0000
,
0001
0010
0100
0000
1000
0001
0200
0000
,
0320
0000
0230
0000
0310
1000
0001
0000
,
0100
0001
0010
0000
1000
0010
0001
0000
,
1000
0000
0000
1000
0000
0000
0010
0000
0001
0000
0000
0001
0000
0000
0010
0000
,
1000
0100
0010
0000
0001
1000
0020
0000
,
0230
0000
0320
0000
0130
0001
1000
0000
,
1001
0000
0000
0000
;

//---------------dance-single - ----------------
#NOTES:
     dance-single:
     :
     Hard:
     8:
     :
0000
0000
0000
0000
,
0000
0000
0000
0000
,
0000
0000
0000
0000
,
0100
0000
1000
0010
1000
0000
0100
0000
0001
0010
0001
0000
0100
0000
1000
0001
,
1000
0000
0001
0010
0001
0100
0010
0000
1000
0100
1000
0010
0100
0000
0001
0000
,
1002
0000
0023
0000
0230
0000
1300
0020
,
0000
1030
0100
0010
0100
1000
0001
0010
,
0200
0000
0000
2300
0000
0000
3010
0000
0002
0000
0000
0023
0000
0000
1030
0000
,
1100
0000
0000
0000
0101
0000
0000
0000
0010
1000
0000
0010
0001
0000
0110
0000
,
0002
0000
0000
0000
0000
0000
1003
0000
0100
0010
0100
0002
0000
0000
1003
0000
,
0010
0100
0010
0002
0000
0000
0003
1000
0100
0010
0100
0002
0000
0000
0003
0100
,
1000
0010
0100
0002
0000
0000
0000
0013
0100
1000
0001
0200
0000
0000
0310
0000
,
1000
0001
1000
0200
0000
0000
0310
0000
0001
1000
0001
0200
0000
0000
0310
0000
,
1001
0000
0001
0000
1000
0000
1000
0000
0100
0000
0100
0020
0000
0000
0031
0000
,
0100
0000
0100
0000
0001
0000
0001
0000
1000
0000
1000
0200
0000
0000
0310
0000
,
0001
0000
0001
2000
0000
0000
3010
0000
1000
0000
1000
0002
0000
0000
0013
0000
,
1001
0000
0100
0020
0000
0000
0031
0000
0110
0000
1000
0002
0000
0000
0003
0000
,
0110
0000
0000
0100
1000
0000
0000
0100
0001
0000
0000
0000
0110
0000
1001
0000
,
0010
1000
0010
0100
0001
0000
1000
0010
1000
0001
0100
0000
0010
0100
0001
0010
,
0100
0000
1000
0100
1000
0001
0010
0000
0100
1000
0100
0010
0001
0000
0100
0010
,
0001
0010
0100
0001
1000
0000
0010
1000
0001
0100
0010
0000
0010
1000
0001
0010
,
0100
0000
1000
0100
0010
0001
0010
0000
0100
1000
0001
0010
0001
0000
1000
0200
,
0010
0320
0001
0032
1000
1003
1010
0022
,
0030
2000
0003
3100
2002
3003
0220
0330
,
1001
1000
0011
0001
1100
1000
0001
0202
,
0000
0000
0003
0000
0310
1000
0010
0100
0010
0000
0100
0001
0100
0010
0100
0000
,
2002
0000
0000
3003
,
1100
0000
1001
0000
0101
0000
1001
0100
,
0010
0000
0001
0100
0000
0001
0010
0000
0100
0000
1000
0020
0000
0000
1030
0001
,
0010
0000
0010
0200
0000
0000
0310
0001
1000
0000
1000
0020
0000
0000
0130
0001
,
0100
0000
0010
2000
0000
0000
3100
1000
0100
0000
0010
0002
0000
0000
1003
0200
,
0000
0000
0310
0002
0000
0000
1003
0100
1000
0000
0010
0200
0000
0000
0301
0000
,
1001
0000
0001
0010
0000
0001
0100
0001
1000
0000
0010
1000
0000
0100
1000
0010
,
1000
0000
0001
0020
0000
0000
0031
0100
0001
0000
1000
0020
0000
0000
1030
0100
,
0010
0000
0010
0002
0000
0003
0001
0100
0010
0000
0010
2000
0000
0000
3001
0200
,
0000
0000
0310
2000
0000
0000
3001
0100
0010
0000
1000
0002
0000
0000
0103
0000
,
2002
0000
3003
0000
;

//---------------dance-double - ----------------
#NOTES:
     dance-double:
     :
     Easy:
     3:
     :
00000000
00000000
00000000
00000000
,
00000000
00000000
00000000
00000000
,
00000000
00000000
00000000
00000000
,
00000001
00000001
00001000
00001000
,
00000100
00000100
00000020
00000030
,
00000001
00000001
00000100
00000100
,
00002000
00000000
00000000
00003000
,
00001000
00010000
00001000
00010000
,
01000000
00100000
01000000
00100000
,
00020000
00030000
20000000
30000000
,
02000000
03000000
00020000
00030000
,
00002000
00003000
00000200
00000300
,
00000020
00000030
00002000
00003000
,
00000001
00001000
00000200
00000300
,
00010000
00001000
00200000
00300000
,
00010000
10000000
02000000
03000000
,
00010000
00001000
00000200
00000300
,
00000110
00000000
00001001
00000000
,
00000100
00000100
00000010
00000010
,
00000001
00000100
00002000
00003000
,
00010000
00010000
00001000
00001000
,
00100000
00100000
00020000
00030000
,
10000000
10000000
01000000
01000000
,
00020000
00030000
00001000
00001000
,
00010000
00010000
00001000
00001000
,
00000200
00000300
00000010
00000010
,
00000110
00000000
00001001
00000000
,
00000110
00000000
00011000
00000000
,
00010000
00001000
00010000
00001000
,
00100000
00010000
00100000
00010000
,
10000000
01000000
10000000
01000000
,
00010000
00001000
00010000
00000000
,
00001000
00010000
00001000
00010000
,
00000010
00001000
00000010
00001000
,
00000001
00000100
00000001
00000100
,
00001000
00010000
00001000
00000000
,
00011000
00000000
00000000
00000000
;

//---------------dance-double - ----------------
#NOTES:
     dance-double:
     :
     Medium:
     5:
     :
00000000
00000000
00000000
00000000
,
00000000
00000000
00000000
00000000
,
00000000
00000000
00000000
00000000
,
00000001
00001000
00000100
00000010
00000100
00001000
00000010
00010000
,
00001000
00100000
00100000
00001000
00010000
00000100
00000100
00010000
,
00011000
00000000
01001000
00000000
01100000
00000000
00100000
10100000
,
00000000
00110000
00000000
01000000
00000000
00010000
00000000
01000000
,
00000000
10000000
00000000
01000000
00000000
00010000
00000000
00001000
,
00000100
00000001
00000110
00001001
,
00000200
00000300
00000002
00000003
,
00000010
00000001
00001000
00000000
00000100
00010000
00001000
00000000
,
02000000
03000000
00200000
00300000
,
00010000
10000000
00100000
00000000
01000000
00010000
10000000
00000000
,
01000000
00000000
00000000
00000000
10000000
00000000
00000000
00000000
01000000
00000000
00000000
00010000
00000000
00000000
00000000
00000000
,
00001000
00000000
00000000
00000000
00010000
00000000
00000000
00000000
00001000
00000000
00000000
00000100
00000000
00000000
00000000
00000000
,
00000001
00000010
00000001
00000000
00001000
00000100
00001000
00000000
,
00000010
00010000
00001000
00000000
00100000
00001000
00010000
00000000
,
00101000
00011000
00010100
00011000
,
00100000
00010000
00010000
01000000
00010000
00010000
10000000
01000000
,
00100000
00001000
00001000
00010000
00001000
00010000
00010000
00000000
,
00000010
00001000
00001000
00000100
00001000
00001000
00000010
00000100
,
00000001
00000010
00000010
00000100
00001000
00000001
00000001
00000000
,
00001002
00000000
00000203
00000000
00002300
00000000
00013000
00010000
,
00000000
00001000
00000000
00010000
00200000
00000000
10300000
00000000
,
11000000
00000000
10100000
00000000
01010000
00000000
00010000
00200000
,
00000000
02300000
00000000
13000000
10000000
01000000
00010000
00010000
,
00022000
00000000
00000000
00033000
,
00001100
00001010
00000101
00000011
,
00000100
00001000
00000020
00000000
00000130
00000001
00000100
00000000
,
00000010
00001000
00000200
00000000
00010300
00001000
00010000
00000000
,
00001000
00000000
00000000
01000000
00000000
00000000
00010000
00000000
10000000
00000000
00000000
01000000
00000000
00000000
00100000
00000000
,
00000000
00010000
00000000
00100000
00000000
01000000
10000000
00000000
,
00100000
01000000
00020000
00000000
00130000
00010000
00100000
00000000
,
00001000
00010000
00000020
00000000
00001030
00000100
00001000
00000000
,
00000001
00000100
00001000
00000000
00010000
01000000
10000000
00000000
,
01100000
00000000
10010000
00000000
01000000
00010000
00001000
00000000
,
00011000
00000000
00000000
00000000
;

//---------------dance-double - ----------------
#NOTES:
     dance-double:
     :
     Hard:
     8:
     :
00000000
00000000
00000000
00000000
,
00000000
00000000
00000000
00000000
,
00000000
00000000
00000000
00000000
,
00100000
10000000
01000000
10000000
00010000
00000000
00010000
01000000
00010000
00100000
00001000
00000000
00010000
00000010
00001000
00000010
,
00000100
00000000
00000001
00000100
00001000
00010000
01000000
00000000
10000000
01000000
00010000
00001000
00000100
00000000
00001000
00010000
,
00002000
00000000
00023000
00000000
00230000
00000000
00310000
00002000
,
00000000
00003010
00000001
00001000
00000001
00000100
00001000
00010000
,
00200000
00000000
00000000
20300000
00000000
00000000
31000000
00000000
00020000
00000000
00000000
00032000
00000000
00000000
00003010
00000000
,
00000110
00000000
00000000
00000000
00001001
00000000
00000000
00000000
00000100
00000010
00000000
00001000
00000001
00000000
00001001
00000000
,
00000200
00000000
00000000
00000000
00000000
00000000
00000310
00000000
00000001
00001000
00000001
00000100
00000000
00000000
00001000
00010000
,
00001000
00100000
00010000
01000000
00000000
00000000
00000000
00100000
10000000
00100000
01000000
00010000
00000000
00000000
00000000
00000000
,
00100000
01000000
10000000
01000000
00000000
00000000
00000000
00010000
01000000
10000000
00010000
10000000
00000000
00000000
00100000
10000000
,
01000000
00010000
00001000
00010000
00000000
00000000
00001000
00010000
00001000
00000100
00000001
00000020
00000000
00000000
00000130
00000000
,
00001001
00000001
00000101
00000100
00001100
00001000
00011000
00010000
,
01010000
01000000
11000000
10000000
10100000
00100000
00110000
00010000
,
00021000
00000100
00001000
00030100
00012000
01000000
00010000
01003000
,
00011000
00000100
00010100
00001000
00001010
00000001
00000101
00001000
,
00001001
00000000
00000110
00000000
00011000
00000000
01100000
10010000
,
00100000
10000000
00100000
10000000
00010000
00000000
01000000
00010000
01000000
00010000
10000000
00000000
01000000
00010000
00001000
00000100
,
00000001
00000000
00000100
00000010
00000001
00000010
00001000
00000000
00010000
01000000
10000000
01000000
00100000
00000000
10000000
00000000
,
01000000
00100000
01000000
00100000
00010000
00000000
10000000
01000000
00100000
01000000
00100000
00000000
00010000
10000000
00010000
01000000
,
00100000
00000000
00010000
00001000
00000100
00001000
00010000
00000000
01000000
00010000
00001000
00000010
00001000
00000000
00010000
00001000
,
00011000
00000000
00001100
00000000
01010000
00000000
00011000
00101000
,
00000000
00010010
00000000
00011000
01001000
00000000
00010100
00000000
,
00001000
00000001
00000000
00000000
00000001
00000100
00000000
00000000
00000100
00001000
00000000
00000000
00001000
00010000
00002000
00000000
,
00010000
00000000
00023000
00000000
01000000
00000000
02030000
00000000
10000000
00000000
13000000
00010000
01000000
00100000
01000000
00010000
,
20000000
00000000
02000000
30000000
,
03100000
00000000
00000000
00100000
00010000
00000000
00000000
00010000
01000000
00001000
00000000
00001000
00010000
00000000
00011000
00000000
,
00000100
00001000
00000100
00000010
00000000
00000010
00000001
00000010
00000100
00000000
00000100
00002000
00000000
00000000
00003100
00010000
,
00000010
00000000
00000010
00020000
00000000
00031000
01000000
00010000
00100000
00000000
00100000
00002000
00000000
00000000
00013000
01000000
,
10000000
00000000
00100000
01000000
00000000
01000000
10000000
01000000
00010000
00000000
00010000
00200000
00000000
00000000
00301000
00020000
,
00000000
00000000
00030100
00002000
00000000
00000000
00003001
00000100
00000010
00000000
00000010
00001000
00000000
00000001
00000100
00000010
,
00001000
00000000
00000100
00010000
00000000
00001000
00010000
00001000
01000000
00000000
00010000
00100000
00000000
00010000
10000000
01000000
,
10000000
00000000
00010000
00100000
00000000
00010000
01000000
00010000
10000000
00000000
00100000
10000000
00000000
01000000
00010000
00001000
,
00000010
00000000
00000010
00000002
00000000
00000103
00001000
00010000
00100000
00000000
00100000
20000000
00000000
00000000
30010000
02000000
,
00000000
00000000
03001000
00020000
00000000
00000000
00030100
00001000
00000010
00000000
00000100
00000002
00000000
00000000
00000103
00000000
,
00001001
00000000
00000000
00000000
;
