#TITLE:Square Hammer;
#SUBTITLE:Early Demo ver;
#ARTIST:Ghost feat. Tobias Forge;
#TITLETRANSLIT:;
#SUBTITLETRANSLIT:;
#ARTISTTRANSLIT:;
#GENRE:;
#CREDIT:;
#MUSIC:y2mate.com - Ghost Square Hammer Early Mix Version Demo.mp3;
#BANNER:banner.png;
#BACKGROUND:bg.png;
#CDTITLE:;
#SAMPLESTART:59.887;
#SAMPLELENGTH:29.541;
#SELECTABLE:YES;
#OFFSET:-0.344;
#BPMS:0.000=129.990;
#STOPS:;
#BGCHANGES:;
#FGCHANGES:;

//--------------- dance-single - ----------------
#NOTES:
     dance-single:
     :
     Challenge:
     9:
     0,0,0,0,0:
0000
0000
0000
0000
,
0000
0000
0000
0000
,
0000
0000
0000
0000
,
0000
0000
0000
0000
,
0000
0000
0000
0000
,
0000
0000
0000
0000
,
0000
0000
0100
0000
0010
0000
1000
0001
,
0100
0000
0010
0000
0010
0100
0010
1000
,
0001
0100
1010
0000
0100
0010
0001
0100
,
0001
0020
0000
0130
1000
0010
0100
0001
,
1000
0001
0110
0000
0010
0001
1000
0001
,
0100
0002
0000
0013
0100
0010
0001
1000
,
0010
0100
1001
0000
0010
0100
0001
1000
,
0001
0200
0000
0310
1000
0010
1000
0001
,
0100
0010
0101
0000
0010
0100
1000
0010
,
0100
0000
0000
0000
0000
0000
0000
0000
0000
0000
0000
0000
0010
0000
0000
0000
0000
0000
0000
0000
0000
0000
0000
0000
0000
0000
0000
0000
0000
0000
0000
0000
0000
0000
0000
0000
2002
0000
0000
0000
0000
0000
0000
0000
0000
0000
0000
0000
0000
0000
0000
0000
0000
0000
0000
0000
0000
0000
0000
0000
0000
0000
0000
0000
0000
0000
0000
0000
0003
3000
0000
0000
1001
0000
0000
0000
0000
0000
0000
0000
0000
0000
0000
0000
0010
0000
0000
0000
0000
0000
0000
0000
0000
0000
0000
0000
,
0100
0001
1000
0000
0100
0000
0010
0000
,
0001
1000
0010
0000
0010
0001
1000
0100
,
0010
0001
1100
0000
0011
0000
1000
0010
,
0100
0001
0100
0010
1000
0001
1000
0010
,
0100
0000
0000
0000
0000
0000
0000
0000
0000
0000
0000
0000
0000
0000
0000
0000
0000
0000
0000
0000
0000
0000
0000
0000
0000
0000
0000
0000
0000
0000
0000
0000
0000
0000
0000
0000
0000
0000
0000
0000
0000
0000
0000
0000
0000
0000
0000
0000
2002
0000
0000
0000
0000
0000
0000
0000
0000
0000
0000
0000
0000
0000
0000
0000
0000
0000
0000
0000
0000
0000
0000
0000
0000
0000
0000
0000
0000
0000
0000
0000
0000
0000
0000
0000
0000
0000
0000
0000
0000
0000
0000
0000
0000
0000
0000
0000
0000
0000
0000
0000
0000
0000
0000
0000
0000
0000
0000
0000
0000
0000
0000
0000
0000
0000
0000
0000
0000
0000
0000
0000
0000
0000
0000
0000
0000
0000
0000
0000
0000
0000
0000
0000
0000
0000
0000
0000
0000
0000
0000
3003
0000
0000
0000
0000
2200
0000
0000
0000
0000
0000
0000
0000
0000
0000
0000
0000
0000
0000
0000
0000
0000
0000
0000
0000
0000
0000
0000
0000
0000
0000
0000
0000
0000
0000
0000
0000
0000
0000
0000
0000
0000
0000
0000
0000
0000
0000
0000
0000
0000
0000
0000
0000
,
0000
0000
0000
0000
0000
0000
0000
0000
0000
0000
0000
0000
0000
0000
0000
0000
0000
3300
0000
0000
0000
0000
0000
0000
0022
0000
0000
0000
0000
0000
0000
0000
0000
0000
0000
0000
0000
0000
0000
0000
0000
0000
0000
0000
0000
0000
0000
0000
0000
0000
0000
0000
0000
0000
0000
0000
0000
0000
0000
0000
0000
0000
0000
0000
0000
0000
0000
0000
0000
0000
0000
0000
0000
0000
0000
0000
0000
0000
0000
0000
0000
0000
0000
0000
0000
0000
0000
0000
0000
0000
0000
0000
0000
0000
0000
0000
0000
0000
0000
0000
0000
0000
0000
0000
0033
0000
0000
0000
0000
0000
0000
0000
0000
0000
0000
0000
0000
0000
0000
0000
0100
0000
0000
0000
0000
0000
0000
0000
0000
0000
0000
0000
0000
0000
0000
0000
0000
0000
0000
0000
0000
0000
0000
0000
0010
0000
0000
0000
0000
0000
0000
0000
0000
0000
0000
0000
0000
0000
0000
0000
0000
0000
0000
0000
0000
0000
0000
0000
1000
0000
0000
0000
0000
0000
0000
0000
0000
0000
0000
0000
0000
0000
0000
0000
0000
0000
0000
0000
0000
0000
0000
0000
,
0010
0100
0001
0000
0100
0010
1000
0001
,
0100
0010
0000
1000
0010
0100
0001
0100
,
0010
0100
0001
0000
0101
0000
0010
0100
,
0010
0100
1000
0010
1000
0001
0100
0001
,
1000
0100
1000
0000
1100
0000
0010
0100
,
0001
1000
0010
1000
0100
0010
0001
0100
,
0010
0000
0000
0220
0000
0000
0000
0000
0330
2002
0000
0000
,
0000
0000
3003
2002
0000
0000
0000
0000
0000
0000
0000
3003
0000
0000
0000
0100
0000
0000
0010
0000
0000
0001
0000
0000
,
0100
0010
1000
0000
0001
0010
0100
1000
,
0001
1000
0000
0100
0010
0100
1000
0010
,
0100
0001
0101
0000
0010
1000
0010
0100
,
0001
1000
0000
0010
0100
0010
0100
0001
,
0010
0000
1001
0000
0010
0100
0001
0100
,
0010
1000
0000
0010
0100
0001
0010
0100
,
1000
0000
0110
0000
0100
0010
0100
0001
,
1000
0100
0000
0000
1100
0000
0011
0000
,
1010
0000
0101
0000
0010
0100
1000
0010
,
0100
0000
0001
0000
0000
0000
0001
0000
1000
0000
0001
0000
1000
0001
1000
0001
,
1000
0010
0100
0010
0100
0000
0000
0000
0010
0000
0100
0000
0001
0000
1000
0000
,
0100
0010
0000
0010
1000
0001
0010
0100
,
0010
0000
0110
0000
0010
0100
0001
1000
,
0001
0010
0001
1000
0100
0010
1000
0001
,
0110
0000
1001
0000
0010
0100
0001
0100
,
1000
1100
0000
0000
0011
0000
1010
0000
,
0101
0000
0001
0010
0001
0100
0010
1000
,
0001
1000
0000
0000
1001
0000
0110
0000
,
0110
0000
1001
0000
0001
0100
0001
1000
,
0100
1000
0000
0010
1000
0100
0010
0001
,
0010
0100
1000
0000
1001
0000
0110
0000
,
2000
0000
0000
0002
0000
0000
0000
0000
0000
0000
0000
3003
0000
0000
0000
0000
0000
0000
0001
0000
0000
0010
0000
0000
,
0100
1000
0101
0000
1010
0000
0010
0001
,
0200
0000
0000
0020
0000
0000
0000
0000
0000
0000
0000
0000
0000
0000
0330
0000
0000
0000
1100
0000
0000
0000
0000
0000
,
1001
0000
0000
0000
0000
0000
0022
0000
0000
0000
0000
0000
0000
0000
0000
0000
0000
0033
2200
0000
0000
0000
0000
0000
,
0000
0000
3300
0220
0000
0000
0000
0000
0000
0000
0000
0000
0000
0000
0330
0010
0000
0000
0001
0000
0000
0100
0000
0000
,
0001
1000
1100
0000
0010
0100
1000
0010
,
0100
0001
0000
1000
0100
1000
0001
0010
,
0001
0100
0001
0000
0110
0000
0010
0100
,
0010
0100
0001
0100
0001
0010
0001
0010
,
0100
1000
1100
0000
0011
0000
0010
0100
,
0001
1000
0100
1000
0001
0010
0100
1000
,
1100
0000
0000
0000
0000
0000
0000
0000
0202
0000
0000
0000
0000
0000
0000
0000
0000
0000
0000
0000
0000
0000
0000
0303
0022
0000
0000
0000
0000
0000
0000
0000
,
0000
0000
0000
0033
2020
0000
0000
0000
0000
0000
0000
0000
0000
0000
0000
0000
0000
0000
0000
3030
1000
0000
0000
0000
0010
0000
0000
0000
0100
0000
0000
0000
,
0010
1000
0100
0000
1001
0100
1000
0001
,
0010
0001
0000
1000
0010
0100
0001
1000
,
0001
1000
1001
0000
0010
0100
0001
0010
,
0100
1000
0000
0001
0100
0010
0100
0001
,
0010
0000
0110
0000
0001
0100
0010
0100
,
0001
0100
0000
0010
1000
0100
0010
0001
,
1000
0000
1100
0000
0010
0001
1000
0100
,
1000
0000
0000
0000
0022
0000
0000
0000
0000
0000
0000
0000
0000
0000
0000
0033
2002
0000
0000
0000
0000
0000
0000
3003
0202
0000
0000
0000
0000
0000
0000
0303
,
2020
0000
0000
0000
0000
0000
0000
3030
0110
0000
0000
0000
0000
0000
0000
0000
0010
0000
0000
0000
0100
0000
0000
0000
1000
0000
0000
0000
0010
0000
0000
0000
,
1000
0000
0001
0000
0000
0000
0010
0000
1000
0000
0001
0000
1000
0001
1000
0001
,
1000
0010
0100
0010
0000
0000
0100
0000
0001
0000
0100
0000
0001
0000
0010
0000
,
0001
0100
0000
0010
0100
0001
1000
0001
,
1000
0000
1001
0000
0001
0010
0100
1000
,
0100
0010
0000
0001
0010
0001
1000
0100
,
1000
0000
1100
0000
0010
0100
0001
0100
,
0010
1000
0000
0000
1010
0000
0101
0000
,
0110
1002
0100
0010
,
1000
0000
0003
1001
0000
0000
0000
0000
0000
0000
0000
0000
1100
0000
0000
0000
0000
0000
0011
0000
0000
0000
0000
0000
,
0110
0000
1001
0000
0110
0000
1000
0100
,
0010
0001
0000
0100
0010
1000
0000
0001
,
1000
0001
0010
0100
1000
0001
0010
0100
,
1000
0100
2000
0020
0000
0000
0000
0000
,
0000
0000
0000
0000
0000
0000
0000
0000
0000
0000
0000
0000
0000
0000
0000
0000
0000
0000
0000
0000
3030
0000
0000
0000
0010
0000
0000
0000
0000
0000
0100
0000
0000
0000
0000
0000
0010
0000
0000
0000
0000
0000
0100
0000
0000
0000
0000
0000
0010
0000
0000
0000
0000
0000
0100
0000
0000
0000
0000
0000
0002
0000
0000
0000
0000
0000
0000
0000
0000
0000
0000
0000
0000
0000
0000
0000
0000
0000
0000
0000
0000
0000
0000
0000
0000
0000
0000
0000
0000
0000
0000
0000
0000
0003
0000
0000
,
0001
0000
1000
0001
1000
0001
1000
0001
1000
0001
0010
0000
0000
0000
0110
0000
,
0000
1000
0002
0000
1000
0000
0010
0000
,
0203
0000
0000
0020
0000
0000
0000
0000
0000
0000
0000
0000
0000
0000
0330
0110
0000
0000
0000
0000
0000
1001
0000
0000
,
0000
0000
1100
0000
M010
0001
0100
0010
,
1000
0001
0000
0100
0010
1000
0000
0001
,
0100
0010
0100
0001
0100
0010
1000
0001
,
1000
0010
0000
0001
0100
0010
1000
0001
,
0100
0010
1000
0001
0100
0001
0010
0001
,
1000
0100
0000
0010
0100
0010
0001
0100
,
0001
0000
0000
0010
0000
0000
0100
0000
0000
1000
0000
0000
0020
0000
0000
0000
0000
0000
1000
0000
0000
0000
0000
0030
,
0001
0100
0000
0001
1000
0020
0000
0000
,
0000
0000
0000
0000
0000
0000
0000
0030
0040
0000
0004
0000
0000
0000
0000
0000
0000
0000
0000
0000
0000
0000
0000
0033
0400
0000
4000
0000
0000
0000
0000
0000
,
0000
0000
0000
3300
2200
0000
0000
0000
0000
0000
0000
0300
0020
0000
0000
0000
0000
0000
0000
0000
0000
0000
0000
0000
0000
0000
0000
0000
0000
0000
0000
0000
,
0000
0000
0000
0000
0000
0000
0000
3030
1010
0000
0000
0000
0000
0000
0000
0000
0100
0000
0000
0000
0010
0000
0000
0000
0001
0000
0000
0000
1000
0000
0000
0000
,
0010
1000
0000
0010
0100
0001
0010
0001
,
0100
0010
0110
0000
0010
1000
0100
0010
,
0001
1000
0000
0010
1000
0010
0100
0001
,
0010
0000
1100
0000
1000
0100
0010
0001
,
1000
0001
0000
1000
0100
0010
0001
0100
,
0001
0000
0011
0000
0010
0100
1000
0001
,
0100
0101
0000
0000
1010
0000
0110
0000
,
1001
0000
1001
1000
0010
1000
0010
1000
,
0001
0100
0000
0010
0100
0001
0010
0100
,
0010
0000
0110
0000
0001
0010
0001
1000
,
0010
0100
0000
0001
1000
0010
0100
0010
,
1000
0000
0101
0000
0100
0010
1000
0010
,
1000
0100
0000
0010
0100
0010
0001
0100
,
0010
0000
1010
0000
0100
0010
1000
0100
,
0010
0001
0000
0000
1100
0000
0101
0000
,
0011
0000
1010
1000
0001
0010
0001
0010
,
0100
0010
0000
0000
1001
0000
1001
0000
,
0110
0000
0110
0000
0010
0100
0001
1000
,
0010
0100
0000
0000
1100
0000
0011
0000
,
0101
0000
0010
1000
0100
0010
0001
0100
,
0010
0000
0000
0000
0200
0000
0000
0000
0000
0000
0000
0000
0000
0000
0000
0300
1001
0000
0000
0000
0000
0000
0000
0000
1010
0000
0000
0000
0000
0000
0000
0000
,
0101
0000
0010
0100
0001
0010
0100
0010
,
0001
0000
0000
0000
2000
0000
0000
0000
0000
0000
0000
0000
0000
0000
0000
3000
1010
0000
0000
0000
0000
0000
0000
0000
0101
0000
0000
0000
0000
0000
0000
0000
,
0110
0000
1000
0001
1000
0010
0100
0010
,
1000
0100
0000
0000
0110
0000
0110
0000
,
1001
2002
0000
3003
;
