#TITLE:Spillways;
#SUBTITLE:;
#ARTIST:Ghost feat. Papa Emeritus IV;
#TITLETRANSLIT:;
#SUBTITLETRANSLIT:;
#ARTISTTRANSLIT:;
#GENRE:;
#CREDIT:;
#MUSIC:Ghost - Spillways DDR.mp3;
#BANNER:banner.png;
#BACKGROUND:bg.png;
#CDTITLE:;
#SAMPLESTART:40.788;
#SAMPLELENGTH:15.723;
#SELECTABLE:YES;
#OFFSET:-0.085;
#BPMS:0.000=128.000;
#STOPS:;
#BGCHANGES:;
#FGCHANGES:;

//--------------- dance-single - ----------------
#NOTES:
     dance-single:
     :
     Challenge:
     8:
     0,0,0,0,0:
0000
0000
0000
0000
,
0000
0000
0000
0000
,
0000
0000
0000
0000
,
0000
0000
0000
0000
0000
0000
0000
0000
1000
0000
0001
0000
0010
0100
0010
0000
,
0000
1001
0001
0100
0001
1000
0001
0100
,
1100
0000
0010
1000
0001
0010
0100
1000
,
0101
1010
0000
0100
1000
0001
0010
0100
,
1001
0000
0000
0010
0100
0010
0001
1000
,
1000
0000
0000
0000
0002
0000
0000
0000
1000
0000
0000
0000
0000
0000
0000
0000
0100
0000
0000
0000
0000
0000
0000
0000
0000
0000
0000
0000
0000
0000
0000
0003
,
0210
0000
0000
0010
0000
1000
0000
0000
,
0302
0010
2003
0001
,
0020
0000
0000
0000
0000
0000
0000
0000
3030
0000
0000
0000
0010
0100
1000
0001
,
0100
0000
0010
0001
0100
1000
0010
0000
,
1010
0000
0100
0010
0100
0001
0010
0100
,
1001
0010
0100
0001
0100
0001
0100
0000
,
1001
0000
1000
0001
0010
0001
1000
0000
,
1010
0001
0100
0001
1000
0010
1000
0100
,
1100
1000
0100
0001
1000
0100
0010
0001
,
0110
0000
0001
1000
1001
0000
0100
0010
,
0200
0000
0000
0000
0000
0000
0000
0000
0001
0000
0000
0000
1000
0000
0000
0300
0020
0000
0000
0000
0000
0000
0000
0000
0001
0000
0000
0000
0100
0000
0000
0030
,
2000
0000
0000
0000
0000
0000
0000
0000
0010
0000
0000
0000
0100
0000
0000
3000
0002
0000
0000
0000
0000
0000
0000
0000
0000
0000
0000
0000
0000
0000
0000
0000
,
0200
0000
0000
0000
0000
0000
0000
0000
0000
0000
0000
0000
0000
0000
0000
0303
0110
0000
0000
0000
0000
0000
0000
0000
1010
0000
0000
0000
0011
0000
0000
0000
,
0101
0000
0100
0010
0100
0001
0010
0100
,
1000
0001
0010
0001
1000
0010
0100
0010
,
0100
0001
0010
0001
1000
0100
0010
0001
,
1000
0010
0100
0001
0010
0100
0010
0100
,
1001
0000
0100
0010
1000
0001
0100
0010
,
1000
0001
0100
0010
0001
0100
1000
0001
,
1010
0000
0101
0000
0110
0000
0100
0010
,
0001
1000
0100
0010
0001
0100
0010
0001
,
0110
0000
0000
0100
1100
0000
0000
0001
,
1001
0000
0110
0000
0110
0000
1000
0001
,
0100
0011
1100
1001
,
0110
0000
0110
0000
0101
0000
1000
0010
,
0100
0002
0000
0000
,
2003
0000
0000
0000
0000
0000
0000
0000
0000
0000
0000
0000
0000
0000
0000
0000
0020
0000
0000
0000
0000
0000
0000
0000
0000
0000
0000
0000
0000
0000
0000
3030
,
0100
0010
0001
0000
,
0010
0000
0000
1000
0001
0010
1000
0000
,
0100
0000
0010
0100
0001
1000
0100
0000
,
0001
0000
0000
0100
0001
0010
0100
1000
,
0021
0000
0000
1000
0000
0001
0000
0000
,
1230
0000
0000
0000
0000
0000
0000
0000
0000
0000
0000
0000
0010
0000
0000
0000
0000
0000
0000
0000
1000
0000
0000
0000
0000
0000
0000
0000
0000
0000
0000
0300
,
2002
0000
0000
0000
0000
0000
0000
0000
0000
0000
0000
0000
0000
0000
0000
3000
0020
0000
0000
0000
0000
0000
0000
0000
0000
0000
0000
0000
0000
0000
0000
0000
,
0203
0000
0330
0100
,
1000
0000
0010
0100
0001
1000
0010
0100
,
0110
1000
0100
0010
0001
1000
0010
1000
,
1010
0001
0100
0010
0100
0010
0001
1000
,
1001
0100
0010
0100
0001
1000
0100
0010
,
0001
0100
0001
0020
0000
1000
0000
0001
,
0000
1030
0000
0100
0010
0100
1000
0010
,
0002
0000
0000
0000
0000
0000
0000
0000
0000
0000
0000
0000
0000
0000
0000
0000
0200
0000
0000
0000
0000
0000
0000
0000
0000
0000
0000
0000
0000
0000
0000
0303
,
2000
0000
0000
0000
0000
0000
0000
0000
0000
0000
0000
0000
0000
0000
0000
0000
0000
0000
0000
0000
0000
0000
0000
3000
1100
0000
0000
0000
0110
0000
0000
0000
,
0011
0000
0001
0100
0010
1000
0100
0010
,
0001
1000
0010
0100
0001
0100
0010
0100
,
0110
0000
1001
0000
0110
0000
0100
1000
,
0001
0100
0010
1000
0001
0010
0100
0010
,
0110
0000
1000
0001
1000
0010
0100
0001
,
1000
0010
0100
0010
1000
0100
0010
0001
,
0101
0000
0110
0000
1010
0000
0010
0100
,
0010
0001
1000
0100
0010
0100
1000
0001
,
0010
0000
0011
0110
1000
0000
1010
0101
,
0001
0000
0100
0000
1000
0000
1100
0011
,
0000
0000
1000
0001
0000
0000
0100
0010
,
0110
0000
1000
0000
0001
0000
0100
0001
,
0100
0000
0010
1000
0001
0000
0100
0010
,
1000
0000
0001
1000
0100
0000
0010
0100
,
0004
0040
0000
0000
0000
0000
0000
0000
0000
0000
0000
0000
0000
0000
0000
0033
,
0400
4000
0000
0000
0000
0000
0000
0000
0000
3300
0110
0000
0000
0000
0000
0000
,
0000
0000
0000
0000
0000
0000
0000
0000
2000
0000
0000
0000
0000
0000
0000
0000
0002
0000
0000
3000
0203
0000
0000
0000
0000
0000
0000
0300
0100
0000
0000
0000
,
0001
1000
0010
1000
0220
0000
0000
0330
,
1100
0011
0100
0110
,
1001
0000
0000
0000
0011
0000
0000
0000
0000
2200
0000
0000
0000
0000
0000
0000
,
0000
0000
0000
0000
0000
3300
0000
0000
0000
0000
0000
0000
0000
0000
0000
0000
;
