#TITLE:Ride to Hell;
#SUBTITLE:;
#ARTIST:Angus McSix feat. Angus McFife XIII;
#TITLETRANSLIT:;
#SUBTITLETRANSLIT:;
#ARTISTTRANSLIT:;
#GENRE:;
#CREDIT:;
#MUSIC:Ride to Hell.mp3;
#BANNER:banner.png;
#BACKGROUND:bg.png;
#CDTITLE:;
#SAMPLESTART:58.813;
#SAMPLELENGTH:20.741;
#SELECTABLE:YES;
#OFFSET:-0.109;
#BPMS:0.000=162.000;
#STOPS:;
#BGCHANGES:;
#FGCHANGES:;

//--------------- dance-single - ----------------
#NOTES:
     dance-single:
     :
     Easy:
     6:
     0,0,0,0,0:
0000
0000
0000
0000
,
0000
0000
0000
0000
,
0000
0000
0000
0000
,
0000
0000
0000
0000
,
0100
0000
0010
0000
1000
0000
0000
1000
,
0000
0010
0000
0001
0010
0001
1000
0000
,
0001
0000
1000
0000
0010
0000
0000
0010
,
0100
0010
0100
0010
0100
0010
0100
0010
,
0100
0000
1000
0000
0001
0000
0000
0010
,
0000
0100
0000
0001
0010
0100
0010
0000
,
0100
0000
1001
0000
1000
0001
0000
1000
,
0000
0100
0000
1000
0001
0100
0010
0000
,
0100
0000
0100
0000
0010
0001
0000
0010
,
0000
0100
0000
1000
0010
0100
0010
0000
,
0002
0000
0000
0000
,
0000
0000
0000
2000
0000
0000
0000
0000
0000
0000
0000
0000
0000
0000
0000
0000
0000
0000
0000
0000
0000
0000
0000
0000
0000
0000
0000
0000
0000
0000
0000
0000
0000
0000
0000
0000
0000
0000
0000
0000
0000
0000
0000
0000
0000
0003
3000
0000
,
0100
0000
1000
0000
0000
0001
0000
0001
,
0000
0100
0000
1000
0000
0000
0100
0010
,
0100
0000
0010
1000
0000
0002
0000
0200
,
0000
0000
0000
0000
0000
0003
0020
0000
0000
0000
0000
0000
0000
0330
0000
0000
,
0010
0000
0000
1000
0000
0001
0000
1000
,
0000
0000
0000
2000
0000
0000
0000
0000
0000
0002
0000
0000
0000
0000
3000
0200
0000
0000
0000
0000
0000
0000
0000
0003
,
0020
0000
0000
0000
0000
0000
0000
0000
0000
0000
0000
0000
0000
0000
0000
0000
0000
0000
0000
0000
0000
0000
0000
0330
,
0010
0000
1000
0000
0001
0000
0000
0010
,
0100
0000
0010
0100
0000
0001
0000
1000
,
0000
0000
0000
0002
0000
0000
0000
0000
0000
2000
0000
0000
0000
0000
0000
0000
0000
0000
0000
3003
0000
0000
0000
0000
,
0001
0000
1000
0001
0000
1000
0000
0202
,
0000
0000
0000
0000
0000
0000
0000
0000
0000
0000
0000
0000
0000
0000
0000
0000
0000
0000
0000
0000
0000
0000
0000
0303
,
0101
0000
0000
0010
0000
0100
0000
1000
,
0000
0001
0000
0100
0000
0000
0000
0000
,
0220
0000
0000
0000
0000
0000
0000
0000
0000
0000
0000
0000
0000
0000
0000
0000
0000
0000
0000
0000
0000
0000
0000
0330
,
0110
0000
1001
0000
,
0110
0010
0100
0001
,
0010
1000
0010
0001
,
0010
1000
0100
0010
,
0110
0000
0000
0000
0000
0000
2000
0000
0000
0002
0000
0000
0000
0000
0000
0000
0000
0000
0000
0000
0000
0000
0000
3003
,
0100
0001
0010
0100
,
1000
0010
0001
0100
,
0010
1000
0001
0100
,
0010
0000
0100
0010
0000
0000
0001
0000
,
2000
0000
0000
0000
0000
0000
0000
0000
0000
0000
0000
0000
0002
0000
0000
0000
0000
0000
0000
0000
3000
0020
0000
0000
,
0000
0000
0000
0000
0000
0000
0000
0033
0000
0001
0000
0000
,
0100
0010
1000
0001
,
0010
0000
0000
1001
0000
0100
0000
0000
,
0002
0000
0000
0000
0000
0000
0000
0000
0000
0000
0000
0000
0200
0000
0000
0000
0000
0000
0000
0003
0000
0020
0000
0000
,
0000
0000
0000
0000
0000
0000
0000
0330
0000
0000
0000
0000
,
2000
0000
0000
0000
0000
0000
0000
0000
0000
0000
0000
0000
0000
0000
0000
0000
0000
0000
0000
0000
0000
0000
0000
0000
0020
0000
0000
0000
0000
0000
0000
0000
0000
0000
0000
0000
0000
0000
3030
1010
0000
0000
0000
0000
0000
0000
0000
0000
,
0000
0001
1000
0001
1000
0001
1000
0001
,
2000
0000
0000
0000
0000
0000
0000
0000
0000
0000
0000
0000
0020
0000
0000
0000
0000
0000
0000
0000
3000
0200
0000
0000
,
0000
0000
0000
0000
0000
0000
0000
0330
0000
1000
0000
0000
,
1000
0001
0100
0010
,
0010
0000
0000
1000
0000
0010
0000
0000
,
0002
0000
0000
0000
0000
0000
0000
0000
0000
0000
0000
0000
2000
0000
0000
0000
0000
0000
0000
0000
3003
0020
0000
0000
,
0000
0000
0000
0000
0030
0010
0000
0000
,
2000
0000
0000
0000
0000
0000
0000
0000
0000
0000
0000
0000
0000
0000
0000
0000
0000
0000
0000
0000
0000
0000
3000
0000
0001
0000
0000
0000
0000
0000
0000
0000
0000
0000
0000
0000
0000
0000
0000
0110
0000
0000
0000
0000
0000
0000
0000
0000
,
0000
0010
0100
0010
0100
0010
0100
0010
,
1000
0000
0001
1000
0000
0000
0000
0100
,
0001
0000
0000
1010
0000
0000
0000
0000
,
0010
1000
0001
0100
,
1000
0000
0010
0100
0000
0000
0000
0000
,
1010
0000
0000
0101
0000
0000
0100
0000
,
1000
0000
0001
0010
0000
0000
0000
0000
,
1001
1001
0110
0110
,
0001
0000
0010
1000
0000
0000
0000
0000
,
0100
0000
1000
0001
0000
0000
1000
0000
,
0001
0000
0100
0010
0000
0000
0010
0000
,
1000
0000
0000
0010
0000
0000
0001
0000
,
0100
0000
0010
1000
0000
0000
0100
0000
,
0001
0000
0001
1000
0000
0000
1001
0000
,
0110
0000
0010
0100
0000
0000
1000
0000
,
0001
0000
0110
0000
,
2002
0000
0000
0000
,
3003
0000
0000
0000
;

//--------------- dance-single - ----------------
#NOTES:
     dance-single:
     :
     Medium:
     7:
     0,0,0,0,0:
0000
0000
0000
0000
,
0000
0000
0000
0000
,
0000
0000
0000
0000
,
0000
0000
0000
0000
,
0100
0000
0010
0000
0100
0010
0000
1000
,
0000
0010
0000
0001
0010
0001
1000
0000
,
0001
0000
1000
0000
0010
0100
0000
0010
,
1000
0100
1000
0010
1000
0001
0100
0001
,
1000
0000
0110
0000
0001
0100
0000
0010
,
0000
0100
0000
0001
0010
0100
0010
0000
,
0110
0000
1001
0000
1000
0010
0000
1000
,
0000
0100
0000
1000
0001
0100
0010
0000
,
0100
0000
1100
0000
0010
0001
0000
0010
,
0000
0100
0000
1000
0010
0100
0010
0000
,
0022
0000
0000
0000
,
0000
0000
0033
2200
0000
0000
0000
0000
0000
0000
0000
0000
0000
0000
0000
0000
0000
0000
0000
0000
0000
0000
0000
0000
0000
0000
0000
0000
0000
0000
0000
0000
0000
0000
0000
0000
0000
0000
0000
0000
0000
0000
0000
0000
0000
0000
3300
0000
,
0100
0000
0001
1000
0000
0001
0000
0001
,
0000
0100
0000
1010
0000
0000
0100
0010
,
0100
0000
0010
1000
0000
0002
0000
0200
,
0000
0000
0000
0000
0000
0303
0220
0000
0000
0000
0000
0000
0000
0330
0100
0000
,
0010
0000
0100
0010
0000
0001
0000
1000
,
0000
0000
0000
2000
0000
0000
0000
0000
0000
0002
0000
0000
0000
0000
3003
0200
0000
0000
0000
0000
0000
0000
0000
0000
,
0020
0000
0000
0000
0000
0000
0000
0000
0000
0000
0000
0000
0000
0000
0000
0000
0000
0000
0000
0000
0000
0000
0000
0330
,
0010
0000
1000
0000
0001
0000
0000
0010
,
0100
0000
0010
0100
0000
0001
0000
1000
,
0000
0000
0000
0002
0000
0000
0000
0000
0000
2000
0000
0000
0000
0000
0000
0000
0000
0000
0000
3003
0000
0010
0000
0000
,
0100
0000
0010
0100
0000
1000
0000
0202
,
0000
0000
0000
0000
0000
0000
0000
0000
0000
0000
0000
0000
0000
0000
0000
0000
0000
0000
0000
0000
0000
0000
0000
0303
,
0101
0000
0100
0010
0000
0100
0000
1000
,
0000
0000
0000
0002
0000
0000
0000
0000
0000
0200
0000
0000
0000
0000
0003
0020
0000
0000
0000
0000
0330
1000
0000
0000
,
0001
0100
0010
0100
0001
1000
0001
1000
,
0110
0000
1001
0000
,
0110
0000
0010
0000
0100
0000
0001
0100
,
0010
0000
1000
0000
0010
0000
0001
1000
,
0010
1001
1010
0101
,
0110
0000
0000
0000
0000
0000
2000
0000
0000
0002
0000
0000
0000
0000
0000
0000
0000
0000
0000
0000
0000
0000
0000
3003
,
0100
0000
0001
0000
0010
0000
0100
1000
,
0001
0000
0010
0000
0001
0000
0100
0001
,
1000
1010
0101
1100
,
0011
0000
0100
0010
0000
0001
0100
0010
,
2000
0000
0000
0000
0000
0000
0100
0000
0000
0000
0000
0000
0002
0000
0000
0000
0000
0000
0000
0000
3000
0020
0000
0000
,
0000
0000
0000
0000
0000
0000
0000
0000
0000
0000
0000
0000
0000
0000
0033
0010
0000
0000
0001
0000
0000
1000
0000
0000
,
0100
0000
0010
0100
1000
0000
0001
0100
,
0010
1000
0000
1001
0000
0100
0010
0100
,
0002
0000
0000
0000
0000
0000
1000
0000
0000
0000
0000
0000
0200
0000
0000
0000
0000
0000
0000
0303
0000
1020
0000
0000
,
0000
0000
0000
0000
0000
0000
0100
0000
0000
0000
0000
0000
0000
0000
0030
1000
0000
0000
0001
0000
0000
0010
0000
0000
,
0200
0000
0000
0000
0000
0000
0000
0000
0000
0000
0000
0000
0000
0000
0000
0000
0000
0000
0000
0000
0000
0000
0000
0000
0320
0000
0000
0000
0000
0000
0000
0000
0000
0000
0000
0000
0000
0000
0030
1010
0000
0000
0000
0000
0000
0000
0000
0000
,
0000
0001
1000
0100
0010
0001
1000
0100
,
2000
0000
0000
0000
0000
0000
0001
0000
0000
0000
0000
0000
0002
0000
0000
0000
0000
0000
0000
0000
3000
0200
0000
0000
,
0000
0000
0000
0000
0000
0000
0000
0000
0000
0000
0000
0000
0000
0000
0303
0010
0000
0000
1000
0000
0000
0100
0000
0000
,
1000
0000
0001
1000
0100
0000
1000
0001
,
0010
1000
0000
1000
0000
0010
1000
0100
,
0002
0000
0000
0000
0000
0000
0010
0000
0000
0000
0000
0000
2003
0000
0000
0000
0000
0000
0000
0000
3000
0200
0000
0000
,
0000
0000
0010
0000
0000
0301
1000
0020
,
2000
0000
0000
0000
0000
0000
0000
0000
0000
0000
0000
0000
0000
0000
0000
0000
0000
0000
0000
0000
0000
0000
3030
0000
0101
0000
0000
0000
0000
0000
0000
0000
0000
0000
0000
0000
0000
0000
0000
1001
0000
0000
0000
0000
0000
0000
0000
0000
,
0000
0001
0100
0010
0100
0001
0010
0100
,
1000
0000
0000
0000
0000
0000
0002
0000
0000
0200
0000
0000
0000
0000
0000
0000
0000
0000
0000
0000
0303
0001
0000
0000
,
0100
0000
0000
0000
0000
0000
2000
0000
0000
0020
0000
0000
0000
0000
0000
0000
0000
0000
0000
0000
0000
0000
0000
3030
,
0011
1000
0001
0100
,
1001
0000
0000
0000
0000
0000
0002
0000
0000
0200
0000
0000
0000
0000
0000
0000
0000
0000
0000
0000
0000
0000
0000
0303
,
1010
0000
0000
0000
0000
0000
0002
0000
0000
0200
0000
0000
0000
0000
0000
0000
0000
0303
0110
0000
0000
0000
0000
0000
,
1001
0000
0000
0000
0000
0000
0200
0000
0000
0020
0000
0000
0000
0000
0000
0000
0000
0000
0000
0000
0000
0000
0000
0330
,
1001
0100
0010
1000
,
0110
0000
0000
0000
0000
0000
0020
0000
0000
2000
0000
0000
0000
0000
0000
0000
0000
0000
0000
0000
0000
0000
0000
3030
,
0110
0000
0100
0020
0000
0000
1000
0000
,
0031
0000
1000
0010
0000
0000
1010
0000
,
0101
0000
0000
0000
0000
0000
0200
0000
0000
0020
0000
0000
0000
0000
0000
0000
0000
0330
0100
0000
0000
0000
0000
0000
,
0011
0000
0010
1000
0001
0000
0100
0000
,
0001
0000
0000
0000
0000
0000
0020
0000
0000
2000
0000
0000
0000
0000
0000
0000
0000
3030
1001
0000
0000
0000
0000
0000
,
1010
0000
0000
0000
0000
0000
0020
0000
0000
0200
0000
0000
0000
0000
0000
0000
0000
0330
2000
0000
0000
0000
0000
0000
,
0020
0000
0000
0000
0000
0000
0000
0000
0000
0000
0000
3030
0022
0000
0000
0000
0000
0000
0000
0000
0000
0000
0000
0033
,
2002
0000
0000
0000
,
3003
0000
0000
0000
;

//--------------- dance-single - ----------------
#NOTES:
     dance-single:
     :
     Hard:
     9:
     0,0,0,0,0:
0000
0000
0000
0000
,
0000
0000
0000
0000
,
0000
0000
0000
0000
,
0000
0000
0000
0000
,
0100
0000
0010
0000
0100
0010
0000
1000
,
0000
0010
0000
0001
0010
0001
1000
0000
,
0001
0000
1000
0000
0010
0100
0000
0010
,
4000
0000
0000
0004
0000
0000
0000
0000
0000
0000
0000
0000
0000
0000
0000
0000
0000
0000
0000
0000
0000
0000
0000
0000
0000
0000
0000
0000
0000
0000
0000
0000
0000
0000
0000
0000
0000
0000
0000
0000
0000
0000
0000
0000
0000
0000
3003
0000
,
0110
0000
0110
0000
0001
0100
0000
0010
,
0000
0100
0000
0001
0010
0100
0010
0001
,
0100
0000
0010
0000
1000
0010
0000
1000
,
0000
0100
0000
1000
0001
0100
0010
1000
,
0100
0000
1100
0000
0010
0001
0000
0010
,
0000
0100
0000
1000
0010
0100
0010
1000
,
0002
0000
0010
0000
1000
1000
0000
0103
,
0000
0001
0000
1000
1000
0001
0010
0000
,
0100
0000
0001
1000
0000
0001
0000
0001
,
0000
0100
0000
1010
0000
0000
0100
0010
,
0100
0000
0010
1000
0000
0002
0000
0200
,
0000
0000
0000
0000
0000
0303
0220
0000
0000
0000
0000
0000
0000
0330
0100
0000
,
0010
0000
0100
0010
0000
0001
0000
1000
,
0000
0010
1000
0001
0010
0200
0000
0000
,
0020
0000
0000
0000
0000
0000
0000
0000
0000
0000
0000
0000
0000
0000
0000
0000
0000
0000
0000
0000
0000
0000
0000
0330
,
0010
0000
1000
0000
0001
0000
0100
0010
,
0100
0000
0010
0100
0000
0001
0000
1000
,
0000
0000
0000
0002
0000
0000
0000
0000
0000
2000
0000
0000
0000
0000
0000
0000
0000
0000
0000
3003
0000
0010
0000
0000
,
0100
0001
0010
0100
1000
0001
0100
0202
,
0000
0000
0000
0000
0000
0000
0000
0000
0000
0000
0000
0000
0000
0000
0000
0000
0000
0000
0000
0000
0000
0000
0000
0303
,
0100
0001
0100
0010
0100
0001
1000
0100
,
1000
0001
0100
0010
0100
0010
0100
0001
,
0040
0000
0000
0400
0000
0000
0000
0000
0000
0000
0000
0000
0000
0000
0000
0000
0000
0000
0000
0000
0000
0000
0000
0000
0000
0000
0000
0000
0000
0000
0000
0000
0000
0000
0000
0000
0000
0000
0000
0000
0000
0000
0000
0000
0000
0000
0330
0000
,
0110
0000
1001
0000
,
0010
0100
0001
1000
0010
0100
0010
1000
,
0010
0100
0001
0100
0001
1000
0100
0010
,
0001
1001
1010
0101
,
0110
0000
0110
1002
0000
0000
0100
0000
,
0013
0100
1000
0001
0100
0001
0010
0100
,
0010
0001
0100
0001
1000
0001
1000
0100
,
0010
1010
0101
1100
,
0011
0000
0100
0010
0100
0001
0100
0010
,
2000
0000
0000
0000
0000
0000
0100
0000
0000
0000
0000
0000
0002
0000
0000
0000
0000
0000
0000
0000
3000
0020
0000
0000
,
0000
0000
0000
0000
0000
0000
0000
0000
0000
0000
0000
0000
0000
0000
0033
0010
0000
0000
0001
0000
0000
1000
0000
0000
,
0100
0000
1010
1000
0001
0000
0001
0100
,
0010
1000
0000
1001
0000
0100
0010
0100
,
0002
0000
0000
0000
0000
0000
1000
0000
0000
0000
0000
0000
0200
0000
0000
0000
0000
0000
0000
0303
0000
1020
0000
0000
,
0000
0000
0000
0000
0000
0000
0100
0000
0000
0000
0000
0000
0000
0000
0030
1000
0000
0000
0001
0000
0000
0010
0000
0000
,
0200
0000
0000
0000
0000
0000
0000
0000
0310
0000
0000
0000
0000
1001
0000
0000
,
0000
0001
1000
0100
0010
0001
1000
0100
,
2000
0000
0000
0000
0000
0000
0001
0000
0000
0000
0000
0000
0002
0000
0000
0000
0000
0000
0000
0000
3000
0200
0000
0000
,
0000
0000
0000
0000
0000
0000
0000
0000
0000
0000
0000
0000
0000
0000
0303
0010
0000
0000
1000
0000
0000
0100
0000
0000
,
1000
0000
0001
1000
0100
0000
1001
0001
,
0010
0100
0000
1000
0100
0010
1000
0100
,
0002
0000
0000
0000
0000
0000
0010
0000
0000
0000
0000
0000
2003
0000
0000
0000
0000
0000
0000
0000
3000
0200
0000
0000
,
0000
0000
0010
0000
0000
0301
1000
0010
,
1000
0000
0000
0000
0000
0000
0000
0000
0101
0000
0000
0000
0000
1001
0000
0000
,
0000
0001
0100
0010
0100
0001
0010
0100
,
1000
0001
0100
0001
1000
0100
1000
0100
,
0110
0000
1000
0100
1000
0001
0010
0001
,
0011
1010
0101
1001
,
1001
0000
0001
0100
0001
0010
0001
1000
,
1010
0000
0000
0000
0000
0000
0002
0000
0000
0200
0000
0000
0000
0000
0000
0000
0000
0303
0110
0000
0000
0000
0000
0000
,
1001
0000
0100
0010
1000
0010
1000
0001
,
1001
0110
1100
0011
,
0001
1000
0010
1000
0001
1000
0001
0010
,
0110
0000
0100
0020
0000
0000
1000
0000
,
0031
0000
1000
0010
0000
0000
1010
0000
,
1000
0010
0100
0010
1000
0010
0100
0001
,
0011
0000
0010
1000
0001
0010
0100
1000
,
0101
0000
0000
0000
0000
0000
0020
0000
0000
2000
0000
0000
0000
0000
0000
0000
0000
3030
1001
0000
0000
0000
0000
0000
,
1010
0000
0000
0000
0000
0000
0020
0000
0000
0200
0000
0000
0000
0000
0000
0000
0000
0330
2200
0000
0000
0000
0000
3300
,
0110
1000
0001
0010
0100
1000
0001
0100
,
0001
0100
0010
1000
0010
0100
0001
0010
,
0100
0000
0000
0000
;
