#TITLE:Kiss the Go Goat;
#SUBTITLE:;
#ARTIST:Ghost feat. Papa Nihil;
#TITLETRANSLIT:;
#SUBTITLETRANSLIT:;
#ARTISTTRANSLIT:;
#GENRE:;
#CREDIT:;
#MUSIC:kiss the go goat ddr.mp3;
#BANNER:banner.png;
#BACKGROUND:bg.png;
#CDTITLE:;
#SAMPLESTART:80.727;
#SAMPLELENGTH:14.076;
#SELECTABLE:YES;
#OFFSET:-0.192;
#BPMS:0.000=130.005;
#STOPS:;
#BGCHANGES:;
#FGCHANGES:;

//--------------- dance-single - ----------------
#NOTES:
     dance-single:
     :
     Easy:
     4:
     0,0,0,0,0:
0000
0000
0000
0000
,
0000
0000
0000
0000
,
0000
0010
0100
0010
,
0001
0000
0100
0000
0000
0010
0000
1000
,
0000
0000
0010
0100
,
1000
0000
0010
0000
0000
0010
0000
0100
,
0000
0000
0010
0100
,
0001
1000
0100
0010
,
0001
0000
0000
0010
0000
0000
0000
0100
0000
0000
0010
0000
0000
0000
0000
0000
,
0010
0100
0001
0000
,
0000
2000
0000
0000
0002
0000
0000
0000
,
3003
0000
0000
0000
0000
0200
0000
0000
,
0000
0000
0000
0020
0000
0000
0000
0000
0000
0000
0000
0000
0000
0000
0330
0000
,
0000
0000
0000
0000
0000
1000
0000
0010
,
0000
0100
0000
0001
0010
0000
0100
0000
,
0010
0100
0010
0001
,
0000
1000
0000
0000
0010
0000
0010
0000
,
0100
0000
1010
0000
0000
0001
0000
0100
,
0000
0010
1000
0001
,
0000
0001
0000
0100
,
0000
0000
0100
0000
0001
0000
0000
1000
,
0000
0000
0000
0010
0000
0000
0000
0100
,
0000
0010
0100
1000
,
0010
1000
0001
1000
,
0110
0000
0001
0000
,
0100
0000
0000
0100
,
0001
0000
1100
0000
0000
0011
0000
0000
,
0010
0100
1000
0001
,
0000
0100
0001
0010
,
0001
0100
0010
0100
,
0010
0100
0001
0000
,
0100
0010
1000
0001
,
0000
0100
0010
1000
,
0000
0010
0001
0000
,
1100
0000
0010
0000
,
1000
0000
0001
0100
,
0010
1000
0001
0000
,
0100
0000
1010
0000
,
0100
0001
0010
0000
,
1000
0000
0001
0110
,
0000
1000
0001
0000
,
0100
0010
1000
0000
,
0001
0100
0010
1000
,
0001
0100
0000
0000
0000
1001
0000
0000
,
0100
0010
0000
0000
0100
0000
0010
0000
,
1000
0000
0001
0000
0000
0100
0000
0010
,
0100
0001
0010
0100
,
0000
0010
0000
0000
0000
0002
0000
0000
,
2000
0000
0000
0000
0000
3003
0000
0000
,
0000
0001
0000
0100
0000
0010
0000
1000
,
0001
0110
0100
0010
,
0001
0000
0000
0000
1000
0000
0000
0000
0010
0000
0000
0100
0000
0000
0000
0000
,
0010
0100
0000
0000
0000
0000
0000
0010
,
0000
0100
0000
0001
0000
1000
0000
0010
,
0200
0000
0000
0300
0000
0000
0000
0000
,
0000
0002
0000
0000
0000
0000
0000
0000
0000
0000
0000
0000
2000
0000
0000
0000
,
0000
0000
0000
0000
0000
0000
0000
0000
0000
3003
0000
0000
0000
0000
0000
0000
,
0000
0010
0000
0100
0000
0001
0000
1000
,
0010
1010
0001
0100
,
0001
1000
0100
0010
,
1001
0100
0010
0100
,
0010
0001
0010
0100
,
1000
0000
0100
0001
,
1000
0001
0100
0010
,
1000
0000
0110
0000
0010
0000
0001
1000
,
0100
0100
0010
0001
,
0100
0010
1000
0001
,
0010
1000
0001
0000
0000
0000
1001
0000
,
0110
0000
0100
0010
,
0101
0000
1100
0010
,
0001
0000
0000
0000
0010
0000
0000
0000
0100
0000
1000
0000
0000
0000
0000
MMMM
,
0000
0000
0000
0000
MMMM
0000
0000
0000
0000
0000
0000
0000
0000
MMMM
0000
0000
;

//--------------- dance-single - ----------------
#NOTES:
     dance-single:
     :
     Medium:
     5:
     0,0,0,0,0:
0000
0000
0000
0000
0100
0001
0100
0010
,
0000
0010
0100
0010
1000
0001
0000
0100
,
0000
0000
0100
0001
1000
0001
1000
0000
,
0010
0100
1000
0001
0010
0100
0000
0010
,
0000
0000
0100
0001
1000
0001
0100
0010
,
0000
0100
0010
0100
1000
0100
0000
2002
,
0000
0000
0000
0000
0000
0000
0000
0000
0000
3003
0000
0000
0100
0000
0000
0000
0010
0000
0000
0000
0100
0000
0000
0000
0010
0000
0000
0000
0100
0000
0000
0000
,
0001
0100
0010
1000
0001
0010
0100
1000
,
0000
0000
0000
0001
0000
0000
0000
0100
0000
0000
0010
0000
0000
0000
0000
0000
,
1000
0010
1000
0001
,
0000
1001
0000
0100
0020
0000
0000
0000
,
0030
0000
0000
0000
0000
2000
0000
0002
,
0000
0000
0000
3000
0200
0000
0000
0000
0000
0000
0000
0000
0000
0000
0000
0000
0000
0000
0000
0000
0000
0000
0000
0000
0000
0000
0000
0000
0303
0000
0000
0000
,
0000
0000
0000
0000
0000
0100
0000
0001
,
0000
1010
0000
0100
0001
0000
0110
0000
,
0100
0010
0001
1000
,
0010
0000
0100
0001
0010
0000
0100
0000
,
0010
1000
0100
0010
,
1000
0000
0001
0000
0100
0000
0100
0001
,
0000
1000
0010
0100
0001
1000
0000
0001
,
0000
1000
0010
1000
0100
0010
0001
0100
,
0000
0010
1000
0001
0000
0100
0001
1000
,
0000
0100
0000
0010
0000
0100
1000
0001
,
0010
0100
0010
0100
0010
0001
1000
0002
,
0000
0000
0000
0003
0010
0000
0100
0000
0001
0000
1000
0000
0000
0000
0000
0000
,
0100
0001
1000
0100
,
0001
0010
0100
0000
0000
2000
0000
0000
,
0000
3000
0100
0010
,
1000
0000
0000
0100
0010
0000
1000
0001
,
0000
0100
0010
1000
0000
0010
0001
0100
,
0000
0100
0010
1000
0001
0010
0100
0000
,
0010
0000
1000
0000
0001
0000
0010
0200
,
0000
0000
0000
0000
0000
0000
0000
0000
0000
0000
0000
0000
0000
0300
0100
0000
0000
0000
0000
0000
0000
0000
0000
0000
1000
0000
0000
0000
0000
0000
0000
0000
,
0001
0000
0100
0000
0010
0000
0000
0100
,
0001
1000
0010
0100
0001
0000
0010
0000
,
0100
0010
0001
0100
,
0001
0100
0000
0100
,
0001
0100
0010
1000
0001
0000
0000
0000
,
0100
0001
0100
0010
,
1000
0000
0100
0000
0010
1000
0001
0000
,
0000
1010
0101
0000
,
0010
0001
1100
0000
,
0010
1000
0100
0110
,
1000
0000
0001
0000
0000
0000
0000
M00M
0000
0000
0010
0000
0000
0000
0000
0000
,
1000
0001
0100
0010
0000
0100
0010
0100
,
1000
0001
0000
1000
0000
0010
0000
0100
,
0002
0000
0000
0000
0000
0000
0000
0003
0010
0000
0000
0000
0001
0000
0000
0000
,
0000
0000
0000
0000
0020
0000
0000
0000
0000
0000
0000
0000
0000
0000
0000
0000
0000
0000
0000
0000
0200
0000
0000
0000
0000
0000
0000
0000
0000
0000
0000
0030
,
0002
0000
0000
0000
0000
0303
0000
0000
,
0000
1000
0000
0100
0000
0010
0000
0001
,
0100
1000
0100
0010
,
0001
0000
0000
0000
1000
0000
0000
0000
0010
0000
0000
0100
0000
0000
0000
0000
,
0100
0010
0000
0001
0000
0000
0000
0100
,
0000
0010
0000
1000
0000
0001
0000
0200
,
0020
0000
0330
0000
,
0000
0000
0002
0000
0000
0000
0000
0000
0000
0000
0000
0000
0000
0000
0000
0000
0200
0000
0000
0000
0000
0000
0000
0303
0020
0000
0000
0000
0000
0000
0000
0000
,
0000
0000
0000
0000
0000
0030
0000
0000
,
0000
0010
0000
0001
0000
1000
0000
0001
,
0100
0100
0010
1000
,
0001
0000
0010
0000
0100
0000
2000
0000
0000
0000
0000
3000
0000
0000
0000
0000
,
0101
1000
0010
0001
,
0100
0000
0000
0010
0100
0010
0001
1000
,
0100
0000
0000
0010
0100
0010
0001
1000
,
0100
0010
0100
1000
,
0001
0000
1000
0000
0001
0000
1000
0001
,
0100
0010
1000
0100
,
0010
0000
0100
0000
0010
0000
1000
0001
,
0100
0001
0010
0000
0000
0000
1010
0000
,
0110
0000
0010
0100
,
1001
0000
0100
1000
,
0001
0000
0000
0000
0101
0000
0000
0000
0001
0000
1000
0000
0000
0000
0000
MMMM
,
0000
0000
0000
0000
MMMM
0000
0000
0000
0000
0000
0000
0000
0000
MMMM
0000
0000
;

//--------------- dance-single - ----------------
#NOTES:
     dance-single:
     :
     Hard:
     8:
     0,0,0,0,0:
0000
0000
0000
0000
0100
0001
0100
0010
,
0000
0010
0100
0010
1000
0001
0000
0110
,
0000
0000
0100
0010
1000
0100
0010
0010
,
0000
0100
1000
0001
0010
0100
0000
0010
,
0000
0000
0100
0001
1000
0001
0100
0010
,
0000
0100
0010
0100
1000
0100
0000
2002
,
0000
0000
0000
0000
0000
0000
0000
0000
0000
3003
0000
0000
0100
0000
0000
0000
0010
0000
0000
0000
1000
0000
0001
0000
0100
0000
0001
0000
0100
0000
0001
0000
,
1000
0010
0100
0001
0001
0010
0100
1000
,
0000
0000
0000
1001
0000
0000
0000
0100
0000
0000
0010
0000
0000
0000
0000
0000
,
1000
0010
1000
0001
,
0000
0000
0000
0000
2002
0000
0000
0000
0000
0000
0000
3003
0200
0000
0000
0000
0020
0000
0000
0000
0000
0000
0000
0000
0000
0000
0000
0000
0000
0000
0000
0000
,
0330
0000
0000
0000
0000
2000
0000
0002
,
0000
0000
0000
3000
0200
0000
0000
0000
0000
0000
0000
0000
0000
0000
0000
0000
0000
0000
0000
0000
0000
0000
0000
0000
0000
0000
0000
0000
0303
0000
0000
0000
,
0000
0000
0000
0000
0000
1001
0000
1010
,
0000
0101
0000
0100
0001
0000
0110
1000
,
0001
0100
0001
0010
0100
0010
0001
0010
,
0000
0000
0100
0001
0010
0000
0100
0000
,
0010
0000
1000
0000
0100
1000
0100
0010
,
0001
0100
0001
0100
0010
0100
0100
0001
,
0000
1000
0010
0100
0001
1000
0000
0011
,
0000
1000
0010
1000
0100
0010
0001
0100
,
0000
0010
1000
0001
0000
0100
0001
1000
,
0000
0100
0010
0100
0010
0100
1000
0001
,
0010
0100
1000
0100
0010
0001
1000
0202
,
0000
0000
0000
0303
0010
0000
0100
0000
0001
0000
1000
0000
0000
0000
0000
0000
,
0001
0000
0100
0000
0000
1000
0100
1000
,
0001
0010
0100
0000
0000
2020
0000
0000
,
0000
3030
0100
0010
,
1000
0000
0000
0000
0000
0000
0100
0010
0100
0000
0000
0000
1000
0000
0001
0000
,
0000
0100
0010
1000
0000
0010
0001
0100
,
0000
0100
0010
1000
0001
0010
0001
1000
,
0010
1000
0010
0100
0010
0100
0001
0220
,
0000
0000
0000
0000
0000
0000
0000
0000
0000
0000
0000
0000
0000
0330
0110
0000
0000
0000
0000
0000
0000
0000
0000
0000
1000
0000
0001
0000
0000
0000
0000
0000
,
0010
0000
0100
0000
0010
0000
0000
0100
,
0001
1000
0010
0100
0001
0000
0000
0010
,
0100
0001
1000
0001
0010
0000
1100
0000
,
0011
0000
0110
0000
0000
0010
0100
1000
,
0010
0100
0010
1000
0001
0000
0000
0100
,
0010
1000
0100
1000
0010
0100
0010
0100
,
0001
1000
0010
0100
0001
1000
1001
0000
,
0000
1010
0101
0000
,
1001
0110
0110
0000
,
0011
1100
0110
0010
,
1000
0000
0001
0000
0000
0000
0000
MMMM
0000
0000
0010
0000
0000
0000
0000
0000
,
1000
0001
0100
0010
1000
0100
0010
0100
,
1000
0001
0100
0010
0000
1010
0000
0100
,
0001
1000
0010
0100
0000
0100
0010
1000
,
0100
0010
0000
1001
0000
0000
0000
0010
,
0100
0010
1000
0001
0000
0010
0001
1000
,
0000
1010
0000
0110
0000
0011
0000
0101
,
0100
1000
0100
0010
,
0001
0000
0000
0000
1000
0000
0000
0000
0010
0000
0000
0101
0000
0000
0000
0000
,
0100
0010
0100
0001
0000
0000
0000
0101
,
0000
1010
0000
1001
0000
0110
0000
0100
,
0010
0010
1000
0001
,
0000
0000
0002
0000
0000
0000
0000
0000
0000
0000
0000
0000
0000
0000
0000
0000
0200
0000
0000
0000
0000
0000
0000
0303
2020
0000
0000
0000
0000
0000
0000
0000
,
0000
0000
0000
0000
0000
3030
0000
0000
,
0000
0110
0000
0101
0000
1010
0000
0001
,
0100
0000
0110
0100
0001
0010
0100
0010
,
0001
0000
0010
0000
0100
0000
2000
0000
0000
0000
0000
3000
0000
0000
0000
0000
,
0101
0000
1000
0010
0100
0001
0100
0010
,
0100
0000
0000
0010
0100
0010
0001
1000
,
0101
0000
0000
0000
0000
0000
0100
0010
0100
0000
0010
0000
1000
0000
0001
0000
,
0110
1010
0101
0110
,
0000
0001
0010
0100
0010
0001
0010
0100
,
1000
0000
0000
0001
1000
0100
0010
1000
,
0101
0000
1010
0001
0100
0010
1000
0001
,
0100
0001
0010
0000
0000
0000
1010
0000
,
0110
0000
0101
0101
,
1010
0000
0110
1001
,
1010
0000
0000
0000
0101
0000
0000
0000
0001
0000
1000
0000
0000
0000
0000
MMMM
,
0000
0000
0000
0000
MMMM
0000
0000
0000
0000
0000
0000
0000
0000
MMMM
0000
0000
;
