#TITLE:Eternal Warrior;
#SUBTITLE:In meeeeeeeee!;
#ARTIST:Angus McSix feat. Angus McFife XIII;
#TITLETRANSLIT:;
#SUBTITLETRANSLIT:;
#ARTISTTRANSLIT:;
#GENRE:;
#CREDIT:;
#MUSIC:Eternal Warrior.mp3;
#BANNER:banner.png;
#BACKGROUND:bg.png;
#CDTITLE:;
#SAMPLESTART:41.560;
#SAMPLELENGTH:19.379;
#SELECTABLE:YES;
#OFFSET:-0.074;
#BPMS:0.000=175.000;
#STOPS:336.000=0.043;
#BGCHANGES:;
#FGCHANGES:;

//--------------- dance-single - ----------------
#NOTES:
     dance-single:
     :
     Challenge:
     9:
     0,0,0,0,0:
0000
0000
0000
0000
,
0210
1000
0302
0010
,
2003
0001
3020
0100
,
1030
0001
0100
0000
1001
0000
0010
0000
,
0100
0010
1000
0000
1100
0000
0011
0000
,
0002
1000
0010
0103
,
0220
0000
0000
0000
0000
0000
0000
0000
0000
0000
0000
0330
2002
0000
0000
0000
0000
0000
0000
0000
0000
0000
0000
3003
,
0210
0000
0000
0000
0000
0000
1000
0000
0000
0000
0000
0000
0001
0000
0000
0000
0000
0000
0010
0000
0000
0000
0000
0300
,
0400
0000
0000
0040
0000
0000
0000
0000
0000
0000
0000
0000
0000
0000
0000
0000
0000
0000
0000
0000
0000
0000
0000
0000
0000
0000
0000
0000
0000
0000
0000
0000
0000
0000
0000
0000
0000
0000
0000
0000
0000
0000
0000
0000
0000
0000
0330
0000
,
0110
0010
0100
0001
,
2000
0000
0010
0000
0100
0000
3002
0200
,
0000
0000
0000
0000
0000
0000
0000
0000
0000
0000
0000
0000
0000
0000
0000
0000
0000
0303
0010
0000
0000
0000
0000
0000
1000
0000
0000
0000
0000
0000
0100
0000
0000
0000
0000
0000
0000
0000
0000
0000
0000
0000
0012
0000
0000
0000
0000
0000
,
0000
1000
0000
0103
,
1010
0000
0100
0001
0000
1000
0001
0010
,
0000
0000
0100
0000
1001
0000
001M
0100
,
0010
1000
0001
0100
0000
0001
0010
0100
,
0010
0000
1100
0000
0011
0000
1000
0001
,
0100
0010
1000
0000
1010
0000
0010
0000
,
0101
0000
0100
0000
1010
0000
0010
1000
,
0001
0000
0001
1000
0000
0001
0000
1020
,
0000
0000
0000
0000
0000
0000
0100
0000
0000
0000
0000
0000
0000
0000
0000
0000
0000
0030
0010
0000
0000
0100
0000
0000
,
0001
1000
0100
0010
0000
0110
0000
1001
,
0000
0110
0000
1001
0000
0000
0100
0000
,
0001
0000
1000
0010
0000
1010
0000
0100
,
0010
0100
0010
1000
0001
0010
0100
1000
,
0001
0000
0000
0000
0000
0000
0100
0000
0000
0000
0000
0000
2200
0000
0000
0000
0000
0000
0000
0000
3300
0022
0000
0000
,
0000
0000
0000
0000
0000
0000
0000
0000
0000
0000
0000
0033
2002
0000
0000
0000
0000
0000
0000
0000
3003
1001
0000
0000
,
0000
0100
0010
0000
0010
0000
0100
0000
,
0001
0000
1000
0000
0100
0000
0010
0001
,
1000
0100
1000
0001
1000
0010
0100
0001
,
0100
1010
0101
1001
,
0100
0010
1000
0001
0000
0000
0010
0100
,
1000
0001
0000
0000
0110
0000
2000
0002
,
0000
0000
0000
0000
0000
3003
0100
0000
0000
0000
0000
0000
0001
0000
0000
0000
0000
0000
1000
0000
0000
0020
0000
0000
,
0000
0000
0000
0000
0000
0000
0100
0000
0000
0000
0000
0000
1000
0000
0000
0000
0000
0000
0001
0000
0000
0000
0000
0030
,
1000
0100
1000
0100
0000
0000
0011
0100
,
1000
0001
0000
0000
0101
0000
0100
0010
,
0000
0000
1000
0000
0001
0000
2000
0020
,
0000
0000
0000
0000
0000
3030
0110
0000
0000
0000
0000
0000
1001
0000
0000
0000
0000
0000
0110
0000
0000
0000
0000
0000
,
0001
0010
0100
1000
0000
0010
0100
0001
,
1000
0010
0000
0000
1100
0000
0020
0002
,
0000
0000
0000
0000
0000
0033
0110
0000
0000
0000
0000
0000
1001
0000
0000
0000
0000
0000
0001
0000
0000
1000
0000
0000
,
0000
1100
0011
1001
,
0100
0001
1000
0100
0000
0000
0010
0001
,
1000
0000
0000
0010
0000
0000
0000
0000
0000
0000
0000
0000
2020
0000
0000
0000
0000
0000
0000
0000
0000
0000
0000
3030
,
0201
0010
0001
1000
,
0304
0000
0000
4000
0000
0000
0000
0000
0000
0000
0000
0000
0000
0000
0000
0000
0000
0000
0000
0000
0000
0000
0000
0000
0000
0000
0000
0000
0000
0000
0000
0000
0000
0000
0000
0000
0000
0000
0000
0000
0000
0000
0000
0000
0000
0000
3003
0000
,
0020
0000
0000
0000
0000
0000
0100
0000
0000
0000
0000
0000
0001
0000
0000
0000
0000
0000
2000
0000
0000
0000
0000
0030
,
0002
0000
0000
0000
0000
0000
0000
0000
0000
0000
0000
3000
0200
0000
0000
0000
0000
0000
0000
0000
0000
0000
0000
0303
,
0010
2000
0001
0000
0100
0000
0010
0000
,
0001
0001
0100
0010
,
0200
0000
0000
0000
0000
0000
0000
0000
0000
0000
0000
3300
0022
0000
0000
0000
0000
0000
0000
0000
0000
0000
0000
0033
,
0220
0000
0000
0000
0000
0000
0000
0000
0000
0000
0000
0330
2002
0000
0000
0000
0000
0000
0000
0000
0000
0000
0000
3003
,
1001
0100
0001
1000
0000
0010
1000
0001
,
0100
0010
0000
1000
0001
0100
0010
0100
,
0001
0010
0110
0011
,
2100
0000
0001
0000
3000
0000
0010
0100
,
0010
0000
0000
0000
0000
0000
1000
0000
0000
0001
0000
0000
0000
0000
0000
0202
0000
0000
0000
0000
0000
0000
0000
0303
,
0020
0000
0000
0000
0000
0000
0100
0000
0000
0000
0000
0000
0000
0000
0000
0000
0000
0030
1000
0000
0000
0001
0000
0000
,
0010
0100
0010
0001
,
1000
0000
0000
0002
0000
0000
0000
0000
0000
0200
0000
0000
0000
0000
0000
0000
0000
0303
0010
0000
0000
1000
0000
0000
,
0001
0000
1000
0000
0100
0010
0000
0110
,
0000
1001
0000
1100
0000
0011
0000
0100
,
0010
1000
0010
1000
0000
0110
0000
0100
,
0010
0100
0000
1000
0100
0010
0000
0100
,
0001
0000
0000
0100
0000
0000
0001
0000
0000
2000
0000
0000
0000
0000
0000
0002
0000
0000
0000
0000
3003
0210
0000
0000
,
0000
0000
0000
0000
0000
0000
0001
0000
0000
0000
0000
0000
0000
0000
0000
0000
0000
0300
0100
0000
0000
0001
0000
0000
,
0100
0001
0000
0010
1000
0010
0000
0001
,
1000
0001
0000
0010
0100
0010
0100
0000
,
0110
0000
0100
0010
0000
2000
0000
0002
,
0000
0000
0000
0000
3003
0000
4000
0000
0000
0400
0000
0000
0000
0000
0000
0000
0000
0000
0000
0000
0000
0000
0000
0000
0000
0000
0000
0000
0000
0000
0000
0000
0000
0000
0000
0000
0000
0000
0000
0000
0000
0000
0000
0000
0000
3300
0000
0000
,
1100
0000
0000
0000
0000
0000
0001
0000
0000
0000
0000
0000
0220
0000
0000
0000
0000
0000
0000
0000
0330
2001
0000
0000
,
0000
0000
0000
0000
0000
0000
0000
0000
0000
0000
0000
3000
0202
0000
0000
0000
0000
0000
0000
0000
0303
0110
0000
0000
,
0000
0100
0020
0000
1000
0000
0001
0000
,
0100
0000
0000
0000
0000
0000
0000
0000
0000
0000
0000
0000
0001
0000
0000
0000
0000
0000
0000
0000
0000
0000
0030
0000
4000
0000
0000
0004
0000
0000
0000
0000
0000
0000
0000
0000
0000
0000
0000
0000
3003
0000
0110
0000
0000
0000
0000
0000
,
0000
0000
0100
0000
0001
1000
0000
0220
,
0000
0000
0000
0000
0000
0330
1001
0000
0000
0000
0000
0000
0100
0000
0000
0000
0000
0000
0010
0000
0000
0000
0000
0000
,
0001
0100
0001
1000
0001
1000
0010
1000
,
0100
0000
0000
0000
0000
0000
0010
0000
0000
0000
0000
0000
0001
0000
0000
0000
0000
0000
1000
0000
0000
0000
0000
0000
0400
0000
0000
0040
0000
0000
0000
0000
0000
0000
0000
0000
0000
0000
0000
0000
0000
0000
0000
0000
0000
0000
0330
0000
,
0110
0000
1010
0000
0201
0000
0000
0001
,
0000
0000
0000
0000
0000
0000
0000
0000
0000
1000
0000
0000
0000
0000
0000
0000
0000
0000
0000
0000
0300
0110
0000
0000
,
0000
0100
0010
0000
1000
0000
0001
0000
,
0100
0001
1000
0001
,
0040
0000
0000
0004
0000
0000
0000
0000
0000
0000
0000
0000
0000
0000
0000
0000
0000
0000
0000
0000
0000
0000
0000
0000
0000
0000
0000
0000
0000
0000
0000
0000
0000
0000
0000
0000
0000
0000
0000
0000
0000
0000
0000
0000
0000
0000
0033
0000
,
0011
0110
0110
1001
,
1000
0001
0100
0001
0000
0000
0010
1000
,
0001
1000
0000
0000
0110
0000
2000
0002
,
0000
0000
0000
0000
0000
3000
0100
0000
0000
0000
0000
0000
0010
0000
0000
0000
0000
0003
0200
0000
0000
0020
0000
0000
,
0000
0000
0000
0000
0000
0330
0110
0000
0000
0000
0000
0000
1100
0000
0000
0000
0000
0000
0011
0000
0000
0000
0000
0000
,
0100
0010
1000
0010
0000
0100
0001
1000
,
0100
0010
0000
0000
1001
0000
0100
0010
,
0100
0001
1000
0010
1000
0000
0002
0200
,
0000
0000
0000
0000
0000
0303
1100
0000
0000
0000
0000
0000
0011
0000
0000
0000
0000
0000
1001
0000
0000
0000
0000
0000
,
0010
1000
0001
0100
0000
0010
0100
0010
,
1000
0001
0000
0000
0110
0000
2000
0002
,
0000
0000
0000
0000
0000
3003
1001
0000
0000
0000
0000
0000
1100
0000
0000
0000
0000
0000
0002
0000
0000
0020
0000
0000
,
0000
0000
0000
0000
0000
0033
1010
0000
0000
0000
0000
0000
0101
0000
0000
0000
0000
0000
0110
0000
0000
0000
0000
0000
,
0100
0010
1000
0001
0000
0010
0001
1000
,
0010
0000
0000
0100
0000
0000
0000
0000
0000
0000
0000
0000
0220
0000
0000
0000
0000
0000
0000
0000
0000
0000
0000
0330
,
0220
0000
0000
0000
0000
0000
0000
0000
0000
0000
0000
0000
0000
0000
0000
0000
0000
0000
0000
0000
0000
0000
0330
0000
0400
0000
0000
0004
0000
0000
0000
0000
0000
0000
0000
0000
0000
0000
0000
0000
0000
0000
0000
0000
0000
0000
0303
0000
,
4000
0040
0000
0000
0000
0000
0000
3030
1010
0000
0000
0000
0001
0000
1000
0000
,
0004
0000
0000
4000
0000
0000
0000
0000
0000
0000
0000
0000
0000
0000
0000
0000
0000
0000
0000
0000
0000
0000
0000
0000
0000
0000
0000
0000
0000
0000
0000
0000
0000
0000
0000
0000
0000
0000
0000
0000
0000
0000
0000
0000
0000
0000
3003
0000
,
1001
0000
0000
0000
;
