#TITLE:Deus in Absentia;
#SUBTITLE:;
#ARTIST:Ghost feat. Papa Emeritus III;
#TITLETRANSLIT:;
#SUBTITLETRANSLIT:;
#ARTISTTRANSLIT:;
#GENRE:;
#CREDIT:;
#MUSIC:Deus in Absentia.mp3;
#BANNER:banner.png;
#BACKGROUND:background.png;
#CDTITLE:;
#SAMPLESTART:22.173;
#SAMPLELENGTH:19.341;
#SELECTABLE:YES;
#OFFSET:-0.355;
#BPMS:0.000=110.000;
#STOPS:183.000=5.455;
#BGCHANGES:;
#FGCHANGES:;

//--------------- dance-single - ----------------
#NOTES:
     dance-single:
     :
     Easy:
     4:
     0,0,0,0,0:
0000
0000
0000
0000
,
0000
0000
0000
0000
0000
0000
0000
0100
,
0000
1000
0001
0000
0000
0001
1000
0000
,
0010
0000
0100
0000
0010
1000
0100
0000
,
0001
0000
0010
1000
0000
0001
0100
0000
,
0010
0000
0001
0000
1000
0000
0001
0100
,
0000
1000
0010
0000
0000
0010
0100
0000
,
0001
0010
1000
0101
,
0010
0000
1000
0100
0000
0010
0001
0000
,
0100
0010
0001
0000
,
0000
0010
1000
0000
0001
0000
0100
0010
,
1000
0001
0100
0010
,
1000
0100
0001
1010
,
0000
0001
0100
0000
0000
0010
1000
0000
,
0001
0100
0010
1000
,
0100
0010
0001
0100
,
0001
1000
0010
0100
,
0000
0001
1000
0000
1001
0000
0220
0000
,
0000
0000
0000
0000
0000
0000
0000
0000
0000
0000
0000
0000
0000
0000
0000
0000
0000
0000
0000
0000
0000
0000
0000
0330
0002
0000
0000
0000
0000
0000
0000
0000
,
0000
0000
0000
0000
0000
0000
0000
0000
2000
0000
0000
0000
0000
0000
0000
0000
0000
0000
0000
0000
0000
0000
0000
0000
0000
3003
0000
0000
0100
0000
0000
0000
,
0000
0010
1000
0000
0001
0000
0100
0000
,
1000
0010
0100
0010
,
0001
0000
0000
0010
0000
0100
1000
0000
,
0100
0000
0010
0000
0001
0000
1000
0100
,
0000
0010
0001
0000
0100
0000
0010
0000
,
1000
0010
0100
0001
,
0001
0000
1000
0000
0001
1000
0001
0000
,
0010
0100
2002
0000
,
0000
0000
0000
3003
0010
0000
0000
0000
0001
0000
0000
0000
0000
0000
0000
0000
1000
0000
0000
0000
0000
0000
0000
0000
0100
0000
0000
0000
0000
0000
0000
0000
,
0010
1000
0001
0100
,
0010
0100
0001
1000
,
0000
0010
0200
0000
0000
0000
0301
0000
,
0000
0100
1000
0010
,
0100
1000
0001
0100
,
0010
0000
0001
0000
1000
0000
0100
0010
,
0000
0001
0100
0000
0101
0000
0010
0001
,
1000
0100
1000
0000
0001
0000
1000
0001
,
0000
0010
0100
0100
,
0001
1000
0100
1000
,
0000
1000
0001
0000
0000
0010
0100
0000
,
0000
0100
0010
0000
0001
0000
1000
0001
,
0000
1000
0100
1000
,
0010
0000
1000
0000
0001
0000
0100
0010
,
0000
1000
0001
0000
1001
0000
2020
0000
,
0000
0000
0000
0000
0000
0000
0000
0000
0000
0000
0000
0000
0000
0000
0000
0000
0000
0000
0000
0000
0000
0000
0000
3030
0202
0000
0000
0000
0000
0000
0000
0000
,
0000
0000
0000
0000
0000
0000
0000
0000
0000
0000
0000
0000
0000
0000
0000
0000
0000
0000
0000
0000
0000
0000
0000
0303
0000
0000
0000
0000
0000
0000
0000
0000
,
0110
1001
0110
1000
,
0001
0000
0000
0000
0000
0000
0000
0000
0010
0000
0000
0000
0000
0000
0000
0000
2000
0000
0000
0000
0002
0000
0000
0000
0000
0000
0000
0000
0000
0000
0000
3003
,
0020
0000
0000
0000
0200
0000
0000
0000
0000
0000
0000
0000
0000
0000
0000
0000
0000
0000
0000
0000
0000
0000
0000
0330
1001
0000
0000
0000
0000
0000
0000
0000
,
0010
0100
0010
1100
,
0110
0000
0001
0010
0000
1000
0000
0000
,
0002
0200
0000
0000
0000
0000
0000
0000
,
0000
0000
0000
0000
0303
1000
0001
1000
,
0001
1000
1001
0000
0100
0000
0101
0000
,
0010
0000
0000
0000
0000
0000
0000
0000
0110
0000
0000
0000
0000
0000
0000
0000
0002
0000
0000
0000
2000
0000
0000
0000
0000
0000
0000
0000
0000
0000
0000
3003
,
0020
0000
0000
0000
0200
0000
0000
0000
0000
0000
0000
0000
0000
0000
0000
0000
0000
0000
0000
0000
0000
0000
0000
0330
1001
0000
0000
0000
0000
0000
0000
0000
,
0010
1000
0001
0000
0100
0000
1100
0000
,
0011
0000
0010
0100
0000
1001
0000
0000
,
0020
2000
0000
0000
0000
0000
0000
0000
,
0000
0000
0000
0000
0000
0000
0000
3030
0010
0000
0100
0000
0010
0000
0100
0000
,
0010
0000
0000
0000
0100
0000
0000
0000
0020
0000
0000
0000
0000
0000
0000
0000
0000
0000
0000
0000
0000
0000
0000
0030
2002
0000
0000
0000
0000
0000
0000
0000
,
0000
0000
0000
0000
0000
0000
0000
3003
0220
0000
0000
0000
0000
0000
0000
0000
0000
0000
0000
0000
0000
0000
0000
0330
0011
0000
0000
0000
0000
0000
0000
0000
,
0000
0020
0200
0000
0000
0000
0330
0000
,
0100
0010
0002
0000
0000
0000
0203
0000
,
0000
0320
0000
2030
,
0000
3002
0010
1000
,
0103
0010
0100
0010
0100
0001
1000
0001
,
1000
0001
2000
0000
0000
0000
0020
0000
,
0000
0000
0000
0000
0000
0000
0000
3030
0200
0000
0000
0000
0000
0000
0000
0000
0000
0000
0000
0000
0000
0000
0000
0300
0020
0000
0000
0000
0000
0000
0000
0000
,
0000
0000
0000
0000
0000
0000
0000
0000
2000
0000
0000
0000
0000
0000
0000
3030
0001
0000
0000
0000
0000
0000
0000
0000
0010
0000
0000
0000
0000
0000
0000
0000
,
1000
0001
0200
0000
0000
0000
2000
0000
,
0000
0000
0000
0000
0000
0000
0000
3300
0002
0000
0000
0000
0000
0000
0000
0000
0000
0000
0000
0000
0000
0000
0000
0003
0220
0000
0000
0000
0000
0000
0000
0000
,
0000
0330
1000
0000
0001
0000
0000
0000
1100
0000
0000
0000
0110
0000
0000
0000
,
0011
0000
1000
0000
0010
0000
0001
1000
,
0100
0010
0100
0000
0000
0000
0000
0000
0000
0000
0000
0000
0000
0000
0000
0000
;

//--------------- dance-single - ----------------
#NOTES:
     dance-single:
     :
     Medium:
     6:
     0,0,0,0,0:
0000
0000
0000
0000
,
0000
0000
0000
0000
0000
0000
0000
0100
,
0010
1000
0001
0000
0000
0001
1000
0000
,
0010
0000
0100
0000
0010
1000
0100
0010
,
0001
0100
0010
1000
0000
0001
0100
0000
,
0010
0000
0001
0000
1000
0000
0010
1000
,
0001
1000
0010
0000
0100
0010
0100
1000
,
0001
0000
0001
0000
1000
0000
0101
0010
,
1000
0100
1000
0101
0000
0110
1001
0000
,
0100
0010
0001
0000
,
0000
0010
1000
0001
0100
0010
0100
0010
,
1000
0000
0001
0100
1000
0000
0100
0001
,
1000
0010
0100
0001
1000
0100
1010
0000
,
0000
0000
0000
0000
0002
0000
0000
0000
0200
0000
0000
0000
0000
0000
0000
0000
0000
0000
0000
0303
0010
0000
0000
0000
1000
0000
0000
0000
0000
0000
0000
0000
,
1000
0001
0100
0010
0100
0010
1000
0100
,
1000
0000
0010
0001
1000
0000
0100
1000
,
0001
0100
1000
0010
0100
0001
0010
0100
,
0000
0001
1000
0000
1001
0000
0210
0000
,
1000
0000
0000
0000
0000
0000
0000
0000
0010
0000
0000
0000
0000
0000
0000
0000
0001
0000
0000
0000
0000
0000
0000
0300
0020
0000
0000
0000
0000
0000
0000
0000
,
0001
0000
0000
0000
0000
0000
0000
0000
0100
0000
0000
0000
0000
0000
0000
0000
1000
0000
0000
0000
0000
0000
0000
0000
0000
0000
0000
0030
0101
0000
0000
0000
,
0000
0010
1000
0000
0001
0000
0110
0000
,
1000
0000
0010
0000
0100
0000
0010
1000
,
0001
1000
0100
1100
0000
0011
0110
0000
,
0100
0000
0010
0000
0001
0000
0010
0100
,
1000
0010
0100
0000
0001
0100
0010
0100
,
0010
0000
1000
0000
0100
0010
0100
1000
,
0001
0100
0010
0000
0001
0010
0100
1000
,
0010
0100
0010
1000
2002
0000
0000
0000
,
0000
0000
0000
3003
0010
0000
0000
0000
0001
0000
0000
0000
1000
0000
0000
0000
0001
0000
0000
0000
0010
0000
0000
0000
0100
0000
0000
0000
1000
0000
0000
0000
,
0010
0000
0100
1000
0001
0000
0001
1000
,
0010
0100
0010
1000
0001
0100
0101
0000
,
0010
0000
0000
0000
2000
0000
0000
0000
0200
0000
0000
0000
0000
0000
0000
0000
0000
0000
0000
3300
0020
0000
0000
0000
0002
0000
0000
0000
0000
0000
0000
0000
,
0033
1000
0100
0010
0001
1000
0100
0010
,
0001
0000
1000
0100
0001
0000
0100
1000
,
0010
0100
0001
0100
0001
1000
0100
1000
,
0000
0001
0100
0000
0101
0000
0010
0001
,
1000
0100
1000
0010
0100
0010
1000
0001
,
0100
0000
0010
1000
0001
0000
0100
0010
,
1000
0001
0100
0010
0100
0001
1000
0000
,
0000
0000
2000
0000
0002
0000
0000
0000
0000
3003
0020
0000
0200
0000
0000
0000
,
0330
0100
0010
0100
0001
1000
0010
1000
,
0001
0000
0100
0010
0100
0000
1000
0001
,
0010
0100
0010
0100
0001
0010
0001
0100
,
0000
1000
0001
0000
1001
0000
2020
0000
,
0000
0000
0000
0000
0000
0000
0000
0000
0000
0000
0000
0000
0000
0000
0000
0000
0000
0000
0000
0000
0000
0000
0000
3030
0202
0000
0000
0000
0000
0000
0000
0000
,
0000
0000
0000
0000
0000
0000
0000
0303
0220
0000
0000
0000
0000
0000
0000
0000
0000
0000
0000
0000
0000
0000
0000
0330
0000
0000
0000
0000
0000
0000
0010
0000
,
0100
1001
0110
1010
,
0101
0000
0000
0000
0000
0000
0000
0000
0110
0000
0000
0000
0000
0000
0000
0000
2000
0000
0000
0000
0002
0000
0000
0000
0000
0000
0000
0000
0000
0000
0000
3003
,
0020
0000
0000
0000
0200
0000
0000
0000
0000
0000
0000
0000
0000
0000
0000
0000
0000
0000
0000
0000
0000
0000
0000
0330
1001
0000
0000
0000
0100
0000
0000
0000
,
0010
1000
0001
0100
0010
0001
1100
0000
,
0110
0000
1000
0010
0000
0001
1000
0001
,
0010
0200
0010
0000
1000
0000
0010
0000
,
0001
0000
0000
0000
0000
0000
0000
0000
0010
0000
0000
0000
0000
0000
0000
0300
0010
0000
0000
0000
1000
0000
0000
0000
0001
0000
0000
0000
0100
0000
0000
0000
,
0010
1000
1001
0010
0100
1000
0101
0000
,
1010
0000
0000
0000
0000
0000
0000
0000
0110
0000
0000
0000
0000
0000
0000
0000
0002
0000
0000
0000
2000
0000
0000
0000
0000
0000
0000
0000
0000
0000
0000
3003
,
0020
0000
0000
0000
0200
0000
0000
0000
0000
0000
0000
0000
0000
0000
0000
0000
0000
0000
0000
0000
0000
0000
0000
0330
1001
0000
0000
0000
0100
0000
0000
0000
,
0010
1000
0001
0010
0100
1000
1100
0000
,
0011
0000
0000
0000
0000
0000
0000
0000
0020
0000
0000
0000
0200
0000
0000
0000
0000
0000
0000
0330
2002
0000
0000
0000
0000
0000
0000
0000
0000
0000
0000
3003
,
0020
2000
0000
0000
0000
0000
0000
0000
,
0000
0000
0000
0000
0000
0000
0000
3030
0010
0000
0100
0000
0010
0000
0001
0000
,
0100
0000
0000
0000
0101
0000
0000
0000
2020
0000
0000
0000
0000
0000
0000
0000
0000
0000
0000
0000
0000
0000
0000
3030
2002
0000
0000
0000
0000
0000
0000
0000
,
0000
0000
0000
0000
0000
0000
0000
3003
0220
0000
0000
0000
0000
0000
0000
0000
0000
0000
0000
0000
0000
0000
0000
0330
0011
0000
0000
0000
0000
0000
0000
0000
,
0000
0020
0200
0000
0000
0000
0330
0000
,
0100
0010
0002
0000
1000
0000
0203
0000
,
0001
0320
1000
0230
,
0000
0300
0002
0000
0010
0000
1000
0000
,
0103
1000
0001
0010
0100
1000
0001
0010
,
1000
0100
2001
0000
0100
0000
3020
0000
,
0001
0000
0230
0000
0010
0300
0002
0000
,
1000
0003
0200
0000
0001
0000
0010
0000
,
1300
0001
0200
0000
0001
0000
2300
0000
,
0010
3002
0100
0223
,
0000
0330
1000
0000
0001
0000
0000
0000
1100
0000
0000
0000
0110
0000
0000
0000
,
0011
0000
1000
0001
0100
0010
1000
0001
,
0100
1000
0001
0000
0000
0000
0000
0000
0000
0000
0000
0000
0000
0000
0000
0000
;

//--------------- dance-single - ----------------
#NOTES:
     dance-single:
     :
     Hard:
     8:
     0,0,0,0,0:
0000
0000
0000
0000
,
0000
0000
0000
0000
0000
0000
0000
0000
0000
0000
0001
0100
0010
0000
0100
0000
,
0010
1000
0001
0010
0100
0010
0001
0000
,
0010
0000
0100
0000
0010
1000
0100
0010
,
0001
0100
0010
1000
0000
0011
1100
0000
,
0010
0000
0001
0000
1000
0000
0010
1000
,
0001
1000
0100
0000
1010
0010
0100
0001
,
0101
0000
0001
0000
1000
0000
0101
0010
,
1000
0100
1000
0101
0000
0110
1001
0000
,
0100
0000
0000
0000
0010
0000
0000
0000
0001
0000
0000
0010
0100
0000
0000
0000
,
0000
0010
1000
0001
0100
0010
0100
0010
,
1000
0000
0001
0100
1000
0000
0100
0001
,
1000
0100
0010
0001
1000
0100
0010
0000
,
0100
0001
0010
1000
0100
0001
0010
0000
,
0011
1100
0001
0010
0100
0010
1000
0100
,
1000
0001
0010
0100
1000
0000
0100
1000
,
0001
0100
1000
0010
0100
0001
0010
0001
,
1000
0001
1000
0000
1001
0000
0210
0000
,
1000
0000
0000
0000
0000
0000
0000
0000
0010
0000
0000
0000
0000
0000
0000
0000
0001
0000
0000
0000
0000
0000
0000
0300
0020
0000
0000
0000
0000
0000
0000
0000
,
0001
0000
0000
0000
0100
0000
0000
0000
1030
0000
0010
1000
0001
0000
0100
0000
,
0000
0101
0110
0000
1010
0000
1001
0000
,
1000
0000
0010
0000
0100
0000
0010
1000
,
0001
1000
0100
1000
0001
0100
0101
0000
,
0100
0000
0010
0000
0001
0000
0010
0100
,
1000
0010
0100
0001
1000
0100
0010
0100
,
0010
0000
1000
0010
0100
0010
0100
1000
,
0001
0100
0101
0000
1000
0010
0100
0001
,
0010
0100
0010
1000
2002
0000
0000
0000
,
0000
0000
0000
3003
0010
0000
0000
0000
0001
0000
0000
0000
1000
0000
0000
0000
0001
0000
0000
0000
0010
0000
0000
0000
0100
0000
0000
0000
1000
0000
0000
0000
,
0010
0001
0100
1000
0001
0000
0001
1000
,
0010
0100
0010
1000
0001
0100
0101
0000
,
0010
1000
0100
0010
0001
0010
0001
0010
,
0100
1000
0100
0010
0001
1000
0100
0010
,
0001
0100
0010
0100
1000
0000
0100
1000
,
0010
0100
0001
0100
0001
1000
0100
0001
,
0010
0000
1000
0000
0100
0000
0000
0000
0101
0000
0000
0000
0100
0001
1000
0100
,
0010
0000
0010
0000
1000
0000
0010
0000
0100
0000
0010
0000
1000
0000
0004
4000
,
0000
0000
0000
0000
0000
0000
0000
0000
0000
0000
0000
0000
0000
0000
0000
3003
0040
0000
0400
0000
0000
0000
0000
0000
0000
0000
0000
0000
0000
0000
0000
0330
,
0000
0001
0100
0010
0100
0001
1000
0000
,
0010
1000
0001
0010
0001
1000
0100
1000
,
0010
0000
0100
0000
0010
0000
0100
0000
0001
0000
1000
0000
0010
0000
4000
0400
,
0000
0000
0000
0000
0000
0000
0000
0000
0000
0000
0000
0000
0000
0000
0000
3300
0004
0000
0040
0000
0000
0000
0000
0000
0000
0000
0000
0000
0000
0000
0000
0000
,
0033
0100
0010
0100
0001
0010
0001
1000
,
0100
1000
0001
0100
0010
0000
2010
0000
,
0001
0000
0000
0000
0000
0000
0000
0000
0100
0000
0000
0000
0000
0000
0000
0000
0010
0000
0000
0000
0000
0000
0000
3000
0202
0000
0000
0000
0000
0000
0000
0000
,
0000
0000
0000
0000
0000
0000
0000
0303
0220
0000
0000
0000
0000
0000
0000
0000
0000
0000
0000
0000
0000
0000
0000
0330
0000
0000
0000
0000
0000
0000
0010
0000
,
0100
0000
1001
0100
0010
0100
0010
0001
,
1000
0010
0100
0010
1000
0100
0010
0001
,
0010
0000
0001
0000
0010
0000
0100
0000
1000
0000
0100
0000
0001
1000
0001
0010
,
0001
1000
0100
0010
0100
0000
0001
0000
0010
0000
0001
0000
1000
0000
0100
0000
,
0010
0100
1000
0010
0100
0001
1000
0100
,
0010
0001
0010
0100
1000
0100
0010
0001
,
0100
0000
0001
0000
0010
0000
0100
0000
0010
0000
0100
0001
1000
0001
1000
0100
,
1000
0100
0010
0100
1000
0000
0010
0000
0100
0000
1000
0000
0001
0000
0100
0000
,
0010
1000
0001
0010
0100
1000
0010
0100
,
0010
0000
1000
0000
0001
0000
0100
0000
0010
0000
1000
0000
0001
1000
0010
1000
,
0010
0100
0010
0100
0001
0000
1000
0000
0001
0000
0100
0000
0010
0000
1000
0000
,
0100
1000
0010
0100
0001
0010
0100
0010
,
0100
1000
0001
0010
0001
0100
0001
0100
,
0010
0000
0100
0000
0010
0000
1000
0000
0004
0400
0000
0000
0000
0000
0000
0000
,
0000
0000
0000
0000
0000
0000
0000
0303
0010
0000
0000
0000
0001
0000
0000
0000
1000
0000
0000
0000
0100
0000
0000
0000
0001
0000
0000
0000
0010
0000
0000
0000
,
0100
0000
0000
0000
1000
0000
0000
0000
0200
0000
0000
0000
0000
0000
0000
0000
1000
0000
0000
0000
0000
0000
0000
0300
0001
0000
0000
0000
1000
0000
0000
0000
,
0100
0000
0000
0000
0010
0000
0000
0000
2000
0000
0000
0000
0000
0000
0000
0000
0001
0000
0000
0000
0000
0000
0000
3000
1000
0000
0000
0000
0001
0000
0000
0000
,
0100
0010
0002
0000
1000
0000
0103
0010
,
0001
1000
0020
0000
0100
0000
0130
0001
,
1000
0010
0002
0000
0100
0000
1003
0010
,
0100
0001
0100
0010
0100
1000
0001
0010
,
0100
0001
1000
0000
2001
0000
0000
0000
0001
0000
0010
0000
3020
0000
0000
0000
,
1000
0000
0000
0000
0000
0000
0000
0000
0032
0000
0000
0000
0000
0000
0000
0000
0100
0000
0000
0000
0000
0000
0000
0003
2000
0000
0000
0000
0000
0000
0000
3000
,
0010
0000
0001
0000
0200
0000
0000
0000
0001
0000
0000
0000
1300
0001
0100
0001
,
0100
0010
0100
0010
0200
0000
0000
0000
0001
0000
0000
0000
2300
0000
0000
0000
,
0010
0000
0000
0000
0000
0000
0000
0000
3002
0000
0000
0000
0000
0000
0000
0000
0100
0000
0000
0000
0000
0000
0000
0003
0220
0000
0000
0000
0000
0000
0000
0000
,
0000
0330
1000
0000
0001
0000
0000
0000
1100
0000
0000
0000
0110
0000
0000
0000
,
0011
0000
1000
0001
0100
0010
1000
0001
,
0100
1000
0001
0000
0000
0000
0000
0000
0000
0000
0000
0000
0000
0000
0000
0000
;
