#VERSION:0.83;
#TITLE:Dance Macabre;
#SUBTITLE:;
#ARTIST:Ghost feat. Cardinal Copia;
#TITLETRANSLIT:;
#SUBTITLETRANSLIT:;
#ARTISTTRANSLIT:;
#GENRE:;
#CREDIT:;
#MUSIC:Dance Macabre - DDR Sized.mp3;
#BANNER:Dance Macabre-banner.png;
#BACKGROUND:Dance Macabre-bg.png;
#CDTITLE:;
#SAMPLESTART:61.149;
#SAMPLELENGTH:15.298;
#SELECTABLE:YES;
#OFFSET:-0.332;
#BPMS:0.000=126.020;
#STOPS:;
#BGCHANGES:;
#FGCHANGES:;

//--------------- dance-single - ----------------
#NOTEDATA:;
#STEPSTYPE:dance-single;
#DESCRIPTION:;
#DIFFICULTY:Easy;
#METER:3;
#RADARVALUES:0,0,0,0,0;
#NOTES:
0000
0000
0000
0000
,
0000
0000
0000
0000
,
0000
0000
0000
0000
,
0000
0000
0000
0000
,
0000
0000
0000
0000
,
0000
0000
0000
0000
,
0000
0000
0000
0000
,
0000
0000
1000
0000
0001
0000
0100
0100
,
0001
0000
1000
0000
0000
0010
0000
0000
,
0100
0000
0001
0000
0000
0100
0000
0000
,
1100
0000
0011
0000
,
0100
0000
0010
0000
,
1001
0000
0010
0000
0000
0100
0000
0000
,
0000
0000
0001
0000
0000
1000
0000
0000
,
0100
0000
0010
0000
,
0001
0000
0100
0000
,
0000
0110
1000
0010
,
0002
0000
0000
0003
0000
0000
0100
0000
,
0000
0010
0000
0000
0100
0000
0000
0000
,
0000
1000
0001
0000
,
0010
0100
0000
0010
,
0000
2002
0000
0000
3003
0000
0000
0000
,
0000
0200
0000
0000
0000
0002
0000
0000
,
0303
1000
0000
0010
,
0000
0000
0100
0000
0000
0010
0000
0000
,
0000
0001
0000
0000
0000
0000
0000
0000
,
1000
0000
0001
0000
0000
0100
0000
0010
,
0000
0000
2000
0000
0000
0000
0000
0000
0000
0002
0000
0000
0000
0000
0000
0000
,
3003
0000
1010
0000
0000
0101
0000
0000
,
0000
0000
0001
0000
0000
0100
0000
0000
0000
0000
0000
0000
0000
0000
0000
0000
,
1000
0000
0000
0001
0000
0000
0000
0000
,
0110
0000
0000
1001
0000
0000
0000
0000
,
1000
0000
0001
0000
0000
0110
0000
0000
,
1000
0000
0010
0000
0000
0101
0000
0000
,
0010
0000
0100
0000
,
1000
0000
0001
0000
,
0110
0000
0100
0000
0000
0001
0000
0000
,
0100
0000
0010
0000
0000
1000
0000
0000
,
0000
0110
0000
0000
1001
0000
0000
0000
,
0100
0000
0000
0001
0000
0000
0000
0000
,
0000
0010
0100
1000
,
0000
0002
0000
0000
0000
0000
0003
0000
,
0000
1000
0000
0000
0010
0000
0000
0000
,
0000
0100
0001
1000
,
0110
0000
0000
0001
0000
0000
1000
0000
,
0000
0020
0000
0000
0000
0030
0000
0000
,
0000
1100
0000
0000
0000
0011
0000
0000
,
0000
0100
0010
1000
,
0001
0000
0110
0000
0000
1010
0000
0000
,
0000
0101
0000
0000
0100
0000
0010
0000
,
0000
0000
1000
0000
0000
0001
0000
0100
,
0000
0000
0010
0000
0000
0000
0000
0000
0000
1001
0000
0000
0000
0000
0000
0000
,
0000
0010
0100
0000
,
0000
0001
0000
0000
0000
1000
0000
0000
,
0000
0100
0000
0010
0000
0000
0000
0000
,
0000
1100
0000
0011
0000
0000
0000
0000
,
1010
0000
0100
0000
0000
0001
0000
0000
,
0100
0000
0010
0000
0000
1000
0000
0000
,
0000
0010
0000
0000
0100
0000
0000
0000
,
0001
0000
1000
0000
,
0100
0000
0010
0000
0000
0100
0000
0000
,
0000
0000
0001
0000
0000
1000
0000
0000
,
0000
0110
0000
0000
1001
0000
0000
0000
,
0000
0100
0000
0000
0010
0000
0000
0000
,
0000
0000
1010
0000
0000
0110
0000
0000
,
0101
0000
0000
1010
0000
0000
0100
0000
,
0010
1000
0001
0000
,
0000
0100
0000
0010
,
0000
0000
1100
0000
0000
0011
0000
0000
,
0110
0000
0000
1010
0000
0000
0000
0000
,
1000
0001
0000
0100
0000
0000
0000
0000
,
0010
0100
0000
1001
0000
0000
0000
0000
;

//--------------- dance-single - ----------------
#NOTEDATA:;
#STEPSTYPE:dance-single;
#DESCRIPTION:;
#DIFFICULTY:Medium;
#METER:5;
#RADARVALUES:0,0,0,0,0;
#NOTES:
0000
0000
0000
0000
,
0000
0000
0000
0000
,
0000
0000
0000
0000
,
0000
0000
0000
0000
,
0000
0000
0000
0000
,
0000
0000
0000
0000
,
0000
0000
0000
0000
,
0000
0000
0110
0000
1001
0000
0100
0100
,
0001
0000
0001
1000
0000
0100
0000
0000
,
0010
0000
0001
0100
0000
0001
0000
0000
,
1000
0001
0000
0100
0100
0000
0000
0000
,
1000
0010
0000
0001
0100
0000
0000
0000
,
0101
0000
0010
1000
0000
0001
0000
0000
,
1000
0000
0010
0100
0000
1000
0000
0000
,
0100
0010
0000
0100
0001
0000
0000
0000
,
1000
0010
0000
0100
0001
0000
0000
0010
,
0100
1000
0010
0100
0001
1000
0100
0010
,
0002
0000
0000
0000
0000
0003
0000
0010
,
0100
0002
0000
0000
0200
0000
0000
0000
,
0303
1000
0001
0100
,
0010
0000
0000
1000
0001
0010
0100
0010
,
1000
0000
1000
0000
0001
0000
0000
1000
,
0100
0002
0000
0000
0000
0020
0000
0000
,
0033
0100
0010
1000
,
0100
0000
0100
0010
1000
0001
0000
0010
,
0000
0200
0000
0000
0300
0000
0000
0000
,
0010
0001
1000
0100
0001
1000
0000
0010
,
0000
0000
0200
0000
0000
0000
0000
0000
0000
0002
0000
0000
0000
0000
0000
0000
,
0303
0000
1000
0100
0010
0001
0000
0100
,
0000
0001
0000
0100
0010
1000
0000
0100
,
0001
0001
0000
1010
0000
0000
0000
0000
,
0010
0100
0000
1001
0000
0000
0000
0000
,
1001
0000
0100
0001
0000
0100
0000
0000
,
0010
1000
0001
1000
0000
0100
0000
0001
,
1000
0010
0000
0000
0100
0000
0000
0000
,
1000
0001
0000
0100
0010
0000
0000
0000
,
1010
0000
0001
0100
0000
0010
0000
0100
,
0001
1000
0001
1000
0000
0001
0000
0000
,
0010
0100
0000
0001
1000
0000
0000
0000
,
1000
0001
0000
0100
0010
0000
0000
0001
,
0010
0100
0010
0100
0010
1000
0010
0100
,
0100
0002
0000
0000
0000
0000
0003
0100
,
0010
2000
0000
0000
3001
0000
0100
0000
,
0001
0010
0001
1000
,
0001
0000
0000
0100
0001
1000
0010
0001
,
1000
0020
0000
0000
0030
0000
0000
1000
,
0001
0020
0000
0000
0000
0200
0000
0000
,
0330
1000
0010
0100
,
0001
0100
0010
1000
0100
0100
0000
0002
,
0000
2000
0000
0000
3003
0000
0000
0000
,
1000
0001
0100
0010
0001
0100
0000
0100
,
0000
0000
0002
0000
0000
0000
0000
0000
0000
2000
0000
0000
0000
0000
0000
0000
,
0000
0000
0000
0000
0000
0000
0000
0000
0000
0000
0000
3003
0010
0000
0000
0000
0000
0000
1000
0000
0000
0000
0000
0000
0100
0000
0000
0000
0000
0000
0001
0000
0000
0000
0000
0000
0000
0000
0000
0000
0000
0000
0010
0000
0000
0000
0000
0000
,
0000
0001
0000
0100
0001
1000
0000
0010
,
1000
0001
0000
0100
0000
0000
0000
0000
,
0100
0010
0000
1000
0001
0000
0000
0000
,
1010
0000
0100
0001
0000
1000
0000
0000
,
0001
0100
0010
0100
0000
1000
0000
0001
,
0100
0010
0000
0000
0001
0000
0000
0000
,
1000
0001
0000
0100
0010
0000
0000
0000
,
0101
0000
0010
0001
0000
1000
0000
0010
,
0100
0100
0010
0001
0000
1000
0000
0000
,
0000
1000
0000
0100
0010
0000
0000
0000
,
0000
1001
0000
0000
0110
0000
0000
0000
,
0000
0000
1100
0000
0000
0110
0000
0000
,
0011
0000
0000
0110
0000
0000
0010
0000
,
1000
0001
0020
0000
,
0000
0030
0100
0010
,
1001
0000
1010
0000
0000
0011
0000
0000
,
1100
0000
0000
0110
0000
0000
0000
0000
,
1000
0001
0000
0110
0000
0000
0000
0000
,
1000
0010
0000
2200
0000
0000
0000
0000
,
0000
3300
0000
0000
0000
0000
0000
0000
0000
0000
0000
0000
0000
0000
0000
0000
;

//--------------- dance-single - ----------------
#NOTEDATA:;
#STEPSTYPE:dance-single;
#DESCRIPTION:;
#DIFFICULTY:Hard;
#METER:7;
#RADARVALUES:0,0,0,0,0;
#NOTES:
0000
0000
0000
0000
,
0000
0000
0000
0000
,
0000
0000
0000
0000
,
0000
0000
0000
0000
,
0000
0000
0000
0000
,
0000
0000
0000
0000
,
0000
0000
0000
0000
,
0000
0000
0000
0000
1000
0000
0001
0000
0100
0000
0010
0000
0100
0010
0100
0010
,
1000
0000
0001
0100
0000
1010
0000
0000
,
0001
1000
0100
0010
0000
1001
0000
0000
,
1000
0000
0000
0000
0000
0000
0000
0000
0000
0000
0000
0000
0000
0000
0000
0000
0000
0000
0000
0000
0000
0000
0000
0000
0010
0000
0000
0000
0000
0000
0000
0000
0000
0000
0000
0000
0000
0000
0000
0000
0000
0000
0000
0000
0000
0000
0000
0000
0000
0000
0000
0000
0000
0000
0000
0000
0000
0000
0000
0000
0000
0000
0000
0000
0000
0000
0000
0000
0000
0000
0000
0000
0002
0000
0000
0000
0000
0000
0000
0000
0000
0000
0000
0000
0000
0000
0000
0000
0000
0000
0000
0000
0000
0000
0000
0000
2000
0000
0000
0000
0000
0000
0000
0000
0000
0000
0000
0000
0000
0000
0000
0000
0000
0000
0000
0000
0000
0000
0000
0000
0000
0000
0000
0000
0000
0000
0000
0000
0000
0000
0000
0000
0000
0000
0000
0000
0000
0000
0000
0000
0000
0000
0000
0000
0000
0000
0000
0000
0000
0000
0000
0000
0000
0000
0000
0000
0000
0000
0000
0000
0000
0000
0000
0000
0000
0000
0000
0000
0000
0000
0000
0000
0000
0000
0000
0000
0000
0000
0000
0000
0000
0000
0000
0000
0000
0000
0000
0000
0000
0000
0000
3000
,
1003
0010
0000
1000
0001
0000
1000
0010
,
1001
0000
0100
0100
0000
0001
0000
0000
,
0001
0010
1000
0100
0000
0001
0000
0000
,
1000
0000
0000
0000
0000
0000
0000
0000
0000
0000
0000
0000
0001
0000
0000
0000
0000
0000
0000
0000
0000
0000
0000
0000
0000
0000
0000
0000
0000
0000
0000
0000
0000
0000
0000
0000
0200
0000
0000
0000
0000
0000
0000
0000
0000
0000
0000
0000
0020
0000
0000
0000
0000
0000
0000
0000
0000
0000
0000
0000
0000
0000
0000
0000
0000
0000
0000
0000
0000
0000
0000
0000
0000
0000
0000
0000
0000
0000
0000
0000
0000
0000
0000
0000
0000
0000
0000
0000
0000
0000
0000
0000
0000
0000
0000
0330
,
1000
0000
0001
0000
0000
0000
0100
0000
0001
0000
0000
0000
0000
0000
0100
0010
,
0100
0000
0001
1000
0001
0000
1000
0000
0100
0000
0010
0000
0100
0000
0001
0000
,
2000
0000
0001
0000
0100
0000
3010
0100
,
0001
2000
0000
0000
0020
0000
0000
0000
,
3030
0101
0110
1010
,
0101
0000
0110
0100
0010
1000
0100
0010
,
0001
0200
0000
0000
0000
0300
0000
0100
,
0001
2000
0000
0000
0000
0002
0000
0000
,
0000
0000
0000
0000
0000
0000
0000
0000
0000
0000
0000
0000
0000
3003
0000
0000
0000
0000
0000
0000
0000
0000
0000
0000
0000
0000
0000
0000
0000
0000
0000
0000
0000
0000
0000
0000
0000
0000
0000
0000
0000
0000
0000
0000
0000
0000
0000
0000
0100
0000
0000
0000
0000
0000
0000
0000
0000
0000
0000
0000
0000
0000
0000
0000
0000
0000
0000
0000
0000
0000
0000
0000
0000
0000
0000
0000
0000
0000
0000
0000
0000
0000
0000
0000
0000
0000
0000
0000
0000
0000
0000
0000
0000
0000
0000
0000
0010
0000
0000
0000
0000
0000
0000
0000
0000
0000
0000
0000
0000
0000
0000
0000
0000
0000
0000
0000
0000
0000
0000
0000
0000
0000
0000
0000
0000
0000
0000
0000
0000
0000
0000
0000
0000
0000
0000
0000
0000
0000
0000
0000
0000
0000
0000
0000
1000
0000
0000
0000
0000
0000
0000
0000
0000
0000
0000
0000
0000
0000
0000
0000
0000
0000
0000
0000
0000
0000
0000
0000
0000
0000
0000
0000
0000
0000
0000
0000
0000
0000
0000
0000
0000
0000
0000
0000
0000
0000
0000
0000
0000
0000
0000
0000
,
0100
0000
0010
1000
0001
0000
0100
0000
0100
0000
0010
0000
0000
0000
2000
0000
,
0000
0002
0000
0000
3003
0000
0000
0000
,
0010
0001
1000
0001
0010
0100
0000
1000
,
0000
0000
0002
0000
0000
0000
0000
0000
0000
0200
0000
0000
0000
0000
0000
0000
,
0303
0000
0010
0001
1000
0010
0000
1000
,
0000
0001
0000
1000
0010
0001
0000
0010
,
0100
0010
0000
0200
0020
0000
0000
0330
,
1000
0001
0000
0100
0010
1000
0001
1000
,
0110
0000
0010
0100
0000
0101
0000
1000
,
0001
0000
1000
0000
0010
0000
0001
0000
0000
0000
1000
0000
0000
0000
0010
0100
,
0010
0100
0000
0100
0010
0000
0000
0000
,
1000
0001
0000
0100
0010
0000
0000
0000
,
0011
0000
0100
0010
0000
0100
0000
1000
,
0001
0000
1000
0000
0010
0000
0100
0000
0000
0000
0001
0000
0000
0000
1000
0001
,
1000
0010
0000
0101
0110
0000
0000
0000
,
1001
0110
0000
1100
0011
0000
0010
0000
,
1000
0000
0010
0100
0010
0000
0100
0000
0010
0000
0100
0000
1000
0000
0100
0000
,
0010
0000
2200
0000
0000
0000
0000
0000
0000
3300
0000
0000
0000
0000
1000
0000
,
0001
0000
0000
0000
0000
0000
0000
0000
0020
0000
0000
0000
0000
0000
0000
0000
0000
0000
0000
0000
0000
0000
0000
0000
0000
0000
0000
0000
0000
0000
0000
0030
0010
0000
0000
0000
0000
0000
0000
0000
0000
0000
0000
0000
0000
0000
0000
0000
0001
0000
0000
0000
0000
0000
0000
0000
0000
0000
0000
0000
0000
0000
0000
0000
,
1010
0100
0010
0100
,
1000
0000
0001
0010
0100
0000
0010
0000
0001
0000
0010
0000
0010
0000
0100
0000
,
0001
0000
2000
0000
0000
0000
0000
0000
0100
0000
0000
3000
0000
0000
0100
0000
,
0010
0200
0000
0000
0000
0302
0000
0000
,
1000
0000
0000
0003
0001
0000
0000
0000
0100
0000
0000
0000
0010
0000
0000
0000
,
0000
0100
0001
1000
0010
1000
0000
0100
,
0000
0010
0000
0000
0100
0010
0001
1000
,
0100
0010
1000
0001
0100
0010
0000
1000
,
0000
0000
0000
0000
0000
0000
0020
0000
0000
0000
0000
0000
0000
0000
0000
0000
0000
0000
0000
0000
0000
0000
0000
0000
0002
0000
0000
0030
0000
0000
0000
0000
0000
0000
0003
0000
0010
0000
0000
0000
0000
0000
0100
0000
0000
0000
0000
0000
,
0001
0000
0010
1000
0001
0100
0000
0001
,
0000
1000
0000
0100
0100
0001
0000
1000
,
0100
0010
0000
0001
0100
0000
0000
0010
,
0001
1000
0000
0010
1000
0001
0100
0010
,
1001
0000
0100
0010
0000
1000
0000
0001
,
1000
0000
0010
0000
0100
0000
0010
0000
0000
0000
1001
0000
0000
0000
1000
0010
,
1000
0100
0000
0100
0010
0000
0000
0000
,
0001
1000
0000
0100
0010
0000
0000
0000
,
1010
0000
0100
0001
0000
1000
0000
0100
,
0001
0000
0001
0000
1000
0000
0001
0000
0000
0000
1000
0000
0000
0000
0010
0001
,
0100
0100
0000
0001
0100
0000
0000
0000
,
0000
0200
0000
0000
0020
0000
0000
0000
,
0000
0000
0000
0000
0000
0000
0000
0000
0000
0000
0000
0000
0000
0000
0000
0000
0000
0000
0000
0000
0000
0000
0000
0000
0000
0000
0000
0000
0000
0000
0000
0000
0300
0000
0030
0000
0000
0000
0000
0000
0000
0000
0000
0000
0000
0000
0000
0000
2002
0000
0000
0000
0000
0000
0000
0000
0000
0000
0000
0000
0000
0000
0000
0000
0000
0000
0000
0000
0000
0000
0000
0000
0000
0000
0000
0000
0000
0000
0000
0000
0000
0000
0000
0000
0000
0000
0000
0000
0000
0000
0000
0000
0000
0000
0000
0000
0000
0000
0000
0000
0000
0000
0000
0000
0000
0000
0000
0000
0000
0000
0000
0000
0000
0000
3003
0000
0000
0000
0000
0000
2020
0000
0000
0000
0000
0000
0000
0000
0000
0000
0000
0000
0000
0000
0000
0000
0000
0000
0000
0000
0000
0000
0000
0000
0000
0000
0000
0000
0000
0000
0000
0000
0000
0000
0000
0000
0000
0000
0000
0000
0000
0000
0000
0000
0000
0000
0000
0000
0000
0000
0000
0000
0000
0000
0000
0000
0000
0000
0000
0000
0000
0000
0000
0000
0000
0000
0000
0000
0000
3030
0000
0000
,
0220
0000
0000
0000
0000
0000
0000
0000
0000
0000
0000
0330
0101
0000
0000
0000
0000
0000
0000
0000
0100
0000
0000
0000
0001
0000
0000
0000
0010
0000
0000
0000
,
0001
1000
0010
0100
0002
0000
0100
0000
,
0010
1003
0100
0001
,
1000
0000
0000
0000
0010
0000
0000
0000
1000
0000
0000
0000
0010
0000
0000
0000
2000
0000
0000
0000
0000
0000
0000
0000
0000
0000
0000
0000
0000
0000
0000
0000
0000
0000
0000
0000
0000
0000
0000
3000
0022
0000
0000
0000
0000
0000
0000
0000
0000
0000
0000
0000
0000
0000
0000
0000
0000
0000
0000
0000
0000
0000
0000
0033
,
0220
0000
0000
0000
0000
0000
0000
0000
0000
0000
0000
0000
0000
0000
0000
0000
0000
0000
0000
0000
0000
0000
0000
0330
0022
0000
0000
0000
0000
0000
0000
0000
0000
0000
0000
0000
0000
0000
0000
0000
0000
0000
0000
0000
0000
0000
0000
0000
0000
0000
0000
0000
0000
0000
0000
0000
0000
0000
0000
0000
0000
0000
0000
0033
,
1000
0001
0000
0100
0010
0000
0000
0000
,
0100
0001
0000
0020
2000
0000
0000
0000
,
0000
3030
0000
0000
0000
0000
0000
0000
;
