#TITLE:Angus McFife;
#SUBTITLE:;
#ARTIST:Gloryhammer feat. Angus McFife I;
#TITLETRANSLIT:;
#SUBTITLETRANSLIT:;
#ARTISTTRANSLIT:;
#GENRE:;
#CREDIT:;
#MUSIC:Angus Mcfife.mp3;
#BANNER:banner.png;
#BACKGROUND:bg.png;
#CDTITLE:;
#SAMPLESTART:63.887;
#SAMPLELENGTH:21.333;
#SELECTABLE:YES;
#OFFSET:-0.220;
#BPMS:0.000=180.000;
#STOPS:;
#BGCHANGES:;
#FGCHANGES:;

//--------------- dance-single - ----------------
#NOTES:
     dance-single:
     :
     Easy:
     5:
     0,0,0,0,0:
1001
0000
0000
0000
,
1000
0000
0000
0000
0000
0000
0002
0000
0000
0000
0000
0000
0200
0000
0000
0000
0000
0000
0000
0000
0000
0000
0000
0303
,
1010
0000
0010
0000
,
0100
0000
0000
0000
0000
0000
0020
0000
0000
0000
0000
0000
0200
0000
0000
0000
0000
0000
0000
0000
0000
0000
0000
0330
,
0110
0000
1000
0000
,
0001
1000
0001
0000
,
1001
0000
1100
0000
,
0011
0000
0000
0000
1000
0001
1000
0001
,
1000
0000
0000
0100
0000
0000
0010
0000
,
0001
0000
0000
0010
0000
0000
0100
0000
,
0010
0000
0000
0001
0000
0000
1000
0000
,
0010
0000
0110
0001
,
0100
0000
0000
0010
0000
0000
1000
0000
,
0001
0000
0000
0010
0000
0000
0100
0000
,
1000
0000
0000
0010
0000
0000
0100
0000
,
0001
1000
0110
0100
,
0010
0000
0000
0001
0000
0000
1000
0000
,
0100
0000
0000
0010
0000
0000
0001
0000
,
0010
0000
0000
0100
0000
0000
1001
0000
,
0100
0000
0001
1000
,
0010
0000
0000
0100
0000
0000
1000
0000
,
0100
0000
0000
0001
0000
0000
0010
0000
,
1000
0000
0000
0001
0000
0000
0200
0000
,
0002
0000
0000
0000
0000
0000
0000
0000
0000
0000
0000
0000
0000
0000
0000
0000
0000
0000
0000
0000
0000
0000
0000
0303
,
0000
1000
0000
0001
,
0000
0010
0000
0000
0000
0000
0010
0000
,
0100
0000
0000
0000
0000
0002
0000
0000
,
2000
0000
0000
0000
0000
0000
0000
0000
0000
0000
0000
0000
0000
3003
0000
0000
,
0000
0000
0100
0000
0010
0000
0001
1000
,
0000
0000
1000
0001
0000
0010
0000
0000
,
0100
0000
0000
0000
0000
1001
0000
0000
,
2002
0000
0000
0000
,
3003
0000
1000
0000
0000
0000
0000
0010
,
0000
0100
0000
0000
0000
0000
0001
0000
,
0100
0000
0010
1000
0000
0020
0000
2000
,
0000
0000
0000
0000
0000
3030
0000
0000
,
0000
0000
0001
0000
0100
0000
0010
0100
,
0000
0010
0000
1000
0000
0000
0010
0000
,
0100
0000
1000
0001
0000
0200
0000
0020
,
0000
0000
0000
0000
,
0330
1000
0001
0100
,
0010
0100
0000
0001
0000
0000
1000
0000
,
0100
0000
0010
0100
0000
0020
0000
0200
,
0000
0000
0000
0000
0000
0000
0000
0000
0000
0330
0000
0000
0000
0000
0000
0000
,
1100
0000
0011
0000
2000
0000
0000
0020
,
0000
0000
0000
0000
0000
0000
0000
3030
0000
0000
0000
0000
0000
0000
0000
0000
,
0100
0000
0000
0001
0000
0020
0000
2000
,
0000
0000
0000
0000
0000
0000
0000
0000
0000
0000
0000
0000
0000
0000
0000
3030
,
1010
0000
0001
1000
,
0100
0010
0001
0000
,
0010
0000
0100
0000
,
1000
0001
1001
0000
,
0100
0000
0010
0000
,
1000
0100
1100
0000
,
0010
0000
0100
0010
0100
0000
1000
0002
,
2000
0000
0000
0000
0000
0000
0000
0000
0000
0000
0000
0000
0000
0000
0000
3003
,
0110
0000
0010
0100
,
0001
1000
0100
0000
,
1001
0000
0010
0100
,
0001
1000
0100
0000
,
0101
0000
0100
0010
,
1000
0001
0010
0000
,
1000
0000
0100
1000
0100
0000
0001
0020
,
0002
0000
0000
0000
0000
0000
0000
0033
,
1001
0010
0100
0000
,
0010
0000
0010
0000
,
1000
0001
1000
0000
,
0100
0010
0100
0000
,
1001
0000
0100
0001
,
1000
0000
0110
0000
,
1000
0001
0010
0000
,
1001
0000
0110
0000
,
1001
0000
0001
0100
,
0101
0000
0100
1000
,
1100
0000
0010
0000
,
0100
0000
0001
0000
,
0100
0000
1001
0000
,
0100
0010
1000
0001
,
0010
0100
1000
0001
,
0100
0010
0100
0010
0100
0010
0100
0010
,
0100
0000
0100
0010
,
0001
1000
0010
0000
,
0110
0000
0100
0010
,
0100
0001
1000
0000
,
1100
0000
0001
0100
,
0010
1000
0100
0000
,
1000
0000
0010
1000
0010
0000
0001
0200
,
0002
0000
0000
0000
0000
0000
0000
0000
0000
0000
0000
0000
0000
0000
0000
0000
0000
0000
0000
0000
0000
0000
0000
0303
,
1001
0000
0100
0000
,
0010
0000
0100
0000
,
1001
0000
0010
0000
,
0100
0000
1000
0000
,
0011
0000
0100
0000
,
0010
0000
1000
0000
,
1100
0000
0011
0000
,
2002
0000
0000
0000
0000
3003
0000
0000
;

//--------------- dance-single - ----------------
#NOTES:
     dance-single:
     :
     Medium:
     7:
     0,0,0,0,0:
1001
0000
0010
0000
,
1000
0000
0000
0000
0000
0000
0002
0000
0000
0000
0000
0000
0200
0000
0000
0000
0000
0000
0000
0000
0000
0000
0000
0303
,
1010
0000
0001
0000
,
0100
0000
0000
0000
0000
0000
0020
0000
0000
0000
0000
0000
0200
0000
0000
0000
0000
0000
0000
0000
0000
0000
0000
0330
,
0110
0000
1000
0000
,
0001
1000
0001
0000
,
1001
0000
1100
0000
,
0011
0000
0000
0000
1000
0001
1000
0001
,
1000
0000
0000
0100
0000
0000
0010
0000
,
0001
0000
0000
0010
0000
0000
0100
0000
,
0010
0000
0000
0001
0000
0000
1000
0000
,
0010
0000
0110
0001
,
0100
0000
0000
0010
0000
0000
1000
0000
,
0001
0000
0000
0010
0000
0000
0100
0000
,
1000
0000
0000
0010
0000
0000
0100
0000
,
0001
1000
0110
0100
,
0010
0000
0000
0001
0000
0000
1000
0000
,
0100
0000
0000
0010
0000
0000
0001
0000
,
0010
0000
0000
0100
0000
0000
1001
0000
,
0100
0000
0001
1000
,
0110
0000
0000
1001
0000
0000
1000
0000
,
0100
0000
0000
0001
0000
0000
0010
0000
,
1000
0000
0000
0001
0000
0000
0200
0000
,
0002
0000
0000
0000
0000
0000
0000
0000
0000
0000
0000
0000
0000
0000
0000
0000
0000
0000
0000
0000
0000
0000
0000
0303
,
0000
0000
1000
0000
0100
0000
0001
2000
,
0000
0000
0000
0020
0000
0000
0000
0000
0000
0000
0000
0000
0000
0000
0000
0000
0000
3030
0010
0000
0000
0000
0000
0000
,
0100
0000
0010
0100
0000
0002
0000
0000
,
2000
0000
0000
0000
0000
0000
0000
0000
0000
0000
0000
0000
0000
3003
0000
0000
,
0000
0000
0100
0000
0010
0000
0001
1000
,
0000
0000
1000
0001
0000
0010
0000
0000
,
0100
0000
0010
0100
0000
1001
0000
0000
,
2002
0000
0000
0000
,
3003
0000
1000
0000
0001
0000
0100
0010
,
0000
0200
0000
0000
1000
0000
0301
0000
,
0100
0000
0010
1000
0000
0020
0000
2000
,
0000
0000
0000
0000
0000
3030
0000
0000
,
0000
0000
0001
0000
0100
0000
0010
0100
,
0000
0010
0000
1000
0000
0000
0010
0000
,
0100
0000
1000
0001
0000
0200
0000
0020
,
0000
0000
0000
0000
,
0330
1000
0001
0100
,
0010
0100
0000
0001
0000
0000
1000
0000
,
0100
0000
0010
0100
0000
0020
0000
0200
,
0000
0000
0000
0000
0000
0000
0000
0000
0000
0330
0000
0000
0000
0000
0000
0000
,
1100
0000
0011
0000
1000
0001
0000
0220
,
0000
0000
0000
0000
0000
0000
0000
0330
0000
0000
0000
0000
0010
0000
0000
0000
,
0001
0000
1000
0001
0000
0020
0000
2000
,
0000
0000
0000
0000
0000
0000
0000
0000
0000
0000
0000
0000
0000
0000
0000
3030
,
1010
0000
0100
1000
0001
0000
0001
1000
,
0100
1100
0011
0001
,
0010
0000
0100
0001
1000
0000
0100
0010
,
0100
0000
0000
0000
0000
0000
0020
0000
0000
0000
0000
0000
0002
0000
0000
0000
0000
0000
0000
0000
0000
0000
0000
0033
,
0110
0000
0001
0100
0010
0000
1000
0001
,
0010
0000
0000
0000
0000
0000
0110
0000
0000
0000
0000
0000
2002
0000
0000
0000
0000
0000
0000
0000
0000
0000
0000
3003
,
1001
0000
0100
0010
0100
0000
1000
0100
,
0020
0000
0000
0000
0000
0000
0002
0000
0000
0000
0000
0000
0000
0000
0000
0000
0000
0000
0000
0000
0000
0000
0000
0033
,
0110
0000
0100
0010
0100
0000
0010
0001
,
0010
0000
0000
0000
0000
0000
2000
0000
0000
0000
0000
0000
0002
0000
0000
0000
0000
0000
0000
0000
0000
0000
0000
3003
,
0101
0000
0001
0100
0010
0000
0100
0001
,
0010
0000
0000
0000
0000
0000
0200
0000
0000
0000
0000
0000
0020
0000
0000
0000
0000
0000
0000
0000
0000
0000
0000
0330
,
0010
0000
1000
0001
0100
0000
0010
0100
,
0010
0000
0000
0000
0000
0000
0020
0000
0000
0000
0000
0000
2000
0000
0000
0000
0000
0000
0000
0000
0000
0000
0000
3030
,
0010
0000
0001
1000
0100
0000
0010
0200
,
0002
0000
0000
0000
0000
0000
0000
0000
0000
0000
0000
0000
0000
0000
0000
0000
0000
0000
0000
0000
0000
0000
0000
0303
,
1001
0010
0100
0001
,
0010
1000
0010
0100
,
1000
0001
1000
0001
,
0100
0010
0100
1000
,
1001
0010
0100
0001
,
1000
0001
0110
0001
,
1000
0001
0010
0100
,
1000
0001
0110
1000
,
0001
0000
0001
0100
,
0101
0000
0100
1000
,
1100
0001
0010
0100
,
1000
0001
0100
0010
,
1000
0001
0010
0001
,
0100
0010
0100
0001
,
1000
0100
0010
0001
,
0100
0001
0100
0010
1000
0001
0100
0010
,
1000
0000
0100
1000
0010
0000
0001
0100
,
0001
0000
0000
0000
0000
0000
2000
0000
0000
0000
0000
0000
0002
0000
0000
0000
0000
0000
0000
0000
0000
0000
0000
3003
,
0100
0000
0010
0001
1000
0000
0100
0001
,
1000
0000
0000
0000
0000
0000
0020
0000
0000
0000
0000
0000
0200
0000
0000
0000
0000
0000
0000
0000
0000
0000
0000
0330
,
0001
0000
1000
0010
0100
0000
0001
0100
,
0001
0000
0000
0000
0000
0000
0101
0000
0000
0000
0000
0000
2020
0000
0000
0000
0000
0000
0000
0000
0000
0000
0000
3030
,
0100
0000
0010
0100
0010
0000
1000
0001
,
0200
0000
0000
0000
0000
0000
0000
0000
0000
0000
0000
0000
0000
0000
0000
0000
0000
0000
0000
0000
0000
0000
0000
0300
,
1001
0000
0100
0000
,
0010
1000
0100
0000
,
1001
0000
0010
0001
,
0100
0010
1000
0000
,
0011
0000
0100
1000
,
0010
0001
1000
0000
,
0110
0000
0100
0010
0100
0000
1000
0002
,
2000
0000
0000
0000
0000
3003
0000
0000
;

//--------------- dance-single - ----------------
#NOTES:
     dance-single:
     :
     Hard:
     9:
     0,0,0,0,0:
1001
0000
0100
0010
0001
0000
0100
0010
,
1000
1010
0101
0100
,
0010
0000
1000
0100
1000
0000
0001
0010
,
0100
0000
0000
0000
0000
0000
0110
0000
0000
0000
0000
0000
2002
0000
0000
0000
0000
0000
0000
0000
0000
0000
0000
3003
,
1001
0000
1000
0001
0010
0000
0100
1000
,
0001
0011
1100
0110
,
1001
0000
0100
0010
1000
0000
0001
0100
,
0020
0000
0000
0000
1030
0001
1000
0100
,
0010
0000
0000
0000
0000
0000
0200
0000
0000
0020
0000
0000
0000
0000
0000
0000
0000
0330
1000
0000
0000
0000
0000
0000
,
0001
0000
0000
0000
0000
0000
2000
0000
0000
0200
0000
0000
0000
0000
0000
0000
0000
3300
0010
0000
0000
0000
0000
0000
,
1000
0000
0000
0000
0000
0000
2000
0000
0000
0002
0000
0000
0000
0000
0000
0000
0000
3003
1000
0000
0000
0000
0000
0000
,
0001
0010
0100
1000
,
0001
1000
0100
0010
0001
0100
0010
1000
,
0001
0010
0100
1000
0010
0100
0001
0010
,
0001
0000
1000
0100
0000
0000
0011
0000
,
1200
0000
0010
0000
0001
0000
1300
0001
,
0010
0100
1000
0010
0000
0000
0100
0001
,
1000
0001
0010
0200
0000
0000
1000
0000
,
0001
0000
0000
0000
0000
0000
0000
0000
0000
0010
0000
0000
0000
0000
0000
0000
0000
0300
0100
0000
0000
0000
0000
0000
,
2002
0000
0000
0000
0000
0000
0000
0000
0000
0000
0000
3003
1100
0000
0000
0000
0000
0000
0011
0000
0000
0000
0000
0000
,
0001
1000
0010
0100
0001
0010
0001
1000
,
0001
1000
0100
0010
0001
1000
0010
1000
,
0200
0000
0000
0000
0000
0000
0000
0000
0000
2000
0000
0000
0000
0000
0000
0000
0000
0300
3001
0000
0000
0000
0000
0000
,
0010
0001
0100
0010
1000
0100
1000
0001
,
0100
0000
1001
0000
1000
0000
0001
0200
,
0000
0020
0000
0330
0100
0001
1000
0100
,
0010
0000
0100
0010
0000
1000
0000
0210
,
0000
0001
1000
0010
,
0010
0000
0000
0000
0000
0300
0100
0000
0000
0000
0000
0000
1001
0000
0000
0000
0000
0000
0002
0000
0000
2000
0000
0000
,
0000
0000
0000
0000
0000
3003
0010
0000
0000
0200
0000
0000
0000
0000
0000
0002
0000
0000
0000
0000
0000
0000
0000
0300
,
0020
0000
0000
0000
0000
0033
0001
0000
0000
1000
0000
0000
0000
0000
0000
2002
0000
0000
0000
0000
0000
0000
0000
3003
,
0110
0000
010M
0000
0001
1000
0100
1000
,
0100
0000
0011
0000
1001
0000
0100
0020
,
0000
0000
0000
2000
0000
0000
0000
0000
0000
0000
0000
0000
0000
0000
0000
0000
0000
3030
0101
0000
0000
0000
0000
0000
,
0010
0000
0010
1000
0000
0001
0000
2000
,
0000
0010
0100
0001
,
0100
0000
0000
0000
0000
3000
1000
0000
0000
0100
0000
0000
0010
0000
0000
0100
0000
0000
0010
0000
0000
0001
0000
0000
,
0010
0001
1000
0010
0100
0010
1000
0010
,
1000
0001
1000
0100
0010
0100
0010
0000
,
0001
1000
0100
0010
0001
1000
0001
0010
,
0100
0110
1001
1001
,
010M
0010
0001
0100
0001
1000
0010
0100
,
0001
0000
1000
0001
0000
0020
0000
0200
,
0000
0000
0000
0000
0000
0000
0000
0000
0000
0000
0000
0330
0100
0000
0000
1000
0000
0000
0001
0000
0000
0000
0000
0000
,
0011
0000
1100
0000
0001
1000
0000
0100
,
0010
0001
1000
0100
0010
0001
1000
0100
,
0010
0000
0100
0010
0000
0001
1000
0000
,
0001
1000
0100
0010
0100
1000
0001
0010
,
0100
0000
1001
0100
0010
0000
0001
1000
,
0100
1100
0011
0001
,
1010
0000
0100
0001
1000
0000
0100
0010
,
0100
0000
0000
0000
0000
0000
0020
0000
0000
0000
0000
0000
0002
0000
0000
0000
0000
0000
0000
0000
0000
0000
0000
0033
,
0110
0000
0001
0100
0010
0000
1000
0001
,
0010
0000
0000
0000
0000
0000
0110
0000
0000
0000
0000
0000
2002
0000
0000
0000
0000
0000
0000
0000
0000
0000
0000
3003
,
1001
0000
0100
0010
0100
0000
1000
0100
,
0020
0000
0001
0000
1030
0010
1000
0001
,
0100
0000
0100
0010
0100
0000
0010
0001
,
0010
1100
0011
1010
,
0101
0000
0001
0100
0010
0000
0100
0001
,
0010
0110
1001
1000
,
0010
0000
1000
0001
0100
0000
0010
0100
,
0010
0011
1100
0001
,
0010
0000
0001
1000
0100
0000
0010
0100
,
0001
0000
0100
0000
0010
1000
0010
1000
,
0010
0100
0001
0010
0001
0010
0001
1000
,
0010
0100
0010
0100
0010
1000
0001
1000
,
0001
0100
0001
0100
0010
0100
0010
1000
,
0010
1000
0100
1000
0001
0010
0001
0010
,
0001
0100
0101
0000
0100
0010
1000
0000
,
0001
1000
0010
1000
0010
1000
0001
0100
,
0001
1000
0010
1000
0001
0100
0001
0010
,
0100
1000
0100
1000
0010
1000
0001
1000
,
1001
0000
0001
1000
0010
0000
0110
0000
,
1001
0000
0100
0010
1000
0000
1010
0000
,
0001
1000
0001
1000
0001
0010
0100
0010
,
0100
0010
0001
1000
0001
1000
0001
0010
,
0100
0010
0001
0010
0001
1000
0001
1000
,
0010
1000
0001
0010
0100
0010
0001
0010
,
0100
1000
0001
0100
0001
0100
0010
0100
,
0004
0000
0000
4000
0000
0000
0000
0000
0000
0000
0000
0000
0000
0000
0000
0000
0000
0000
0000
0000
0000
0000
0000
0000
0000
0000
0000
0000
0000
0000
0000
0000
0000
0000
0000
0000
0000
0000
0000
0000
0000
0000
0000
0000
0000
0000
3003
0000
,
1001
0000
0100
1000
0010
0000
0001
0100
,
0100
1100
0011
1000
,
0100
0000
0010
0001
1000
0000
0100
0001
,
1000
0010
1010
0100
,
0001
0000
1000
0010
0100
0000
0001
0100
,
0001
0101
1010
0001
,
0100
0000
0010
0100
0010
0000
1000
0001
,
0100
0000
0001
0000
0100
0001
1000
0100
,
1000
0000
0001
0100
0010
0000
0100
0001
,
1000
0010
0100
0110
,
0110
0000
0001
1000
0001
0000
0010
0100
,
1000
0000
0000
0000
0000
0000
1001
0000
0000
0000
0000
0000
2002
0000
0000
0000
0000
0000
0000
0000
0000
0000
0000
3003
,
1100
0000
0001
0010
0001
0000
1000
0100
,
0010
0001
0110
0100
,
1001
0000
1000
0010
0100
0000
0010
1000
,
0100
0010
0001
0200
0002
0000
0000
0000
,
0303
0000
0000
0000
;
