
//----- song ID: whey -----//
#TITLE:When You Look At Me;
#ARTIST:Christina Milian;
#BANNER:When You Look At Me.png;
#BACKGROUND:When You Look At Me-bg.png;
#CDTITLE:./CDTITLES/Dancing Stage MegaMiX.png;
#MUSIC:When You Look At Me.ogg;
#SAMPLESTART:10.965;
#SAMPLELENGTH:15;
#DISPLAYBPM:190;
#BPMS:0=109.1,72=109,76=109.1,88=108.5,92=109.1,98=108,100=109.1,106=111.5,108=109.1;
#STOPS:56=2.211;

//---------------dance-single - ----------------
#NOTES:
     dance-single:
     :
     Beginner:
     1:
     :
0000
0000
0000
0000
,
0000
0000
0000
0000
,
0000
0000
0000
0000
,
0000
0000
0000
0000
,
0000
0000
0000
0000
,
0010
0010
0000
0100
,
0000
0000
0000
0000
,
0001
0000
1000
0000
,
0001
0001
0000
0001
,
0000
0010
0000
0100
,
0000
0000
0000
0000
,
1000
0000
0001
0000
,
0010
0010
0010
0010
,
0010
0000
0100
0100
,
0100
0000
0000
0000
,
0001
0000
0100
0000
,
1000
0000
0000
0000
,
1000
0000
1000
0000
,
0001
0000
0000
0000
,
0010
0000
0001
0000
,
1000
0000
0100
0000
,
0100
0000
0001
0000
,
0001
0001
0001
0000
,
1000
1000
1000
0000
,
0100
0100
0100
0000
,
0010
0010
0010
0010
,
0000
0010
0000
0100
,
0000
0000
0000
0000
,
0001
0000
1000
0000
,
0001
0001
0000
0001
,
0000
0010
0000
0100
,
0000
0000
0000
0000
,
1000
0000
0001
0000
,
0010
0010
0010
0010
,
0010
0000
0100
0000
,
1001
0000
0000
0000
;

//---------------dance-single - ----------------
#NOTES:
     dance-single:
     :
     Easy:
     2:
     :
0000
0000
0000
0000
,
0000
0000
0000
0000
,
0000
0000
0000
0000
,
0000
0000
0000
0000
,
0000
0000
0000
0000
,
0020
0030
0000
0000
,
0100
0000
0000
0000
,
0001
0000
1000
0000
,
0001
0001
0001
0000
,
0200
0300
0000
0000
,
1000
0000
0001
0000
,
1000
1000
0100
0000
,
0001
0000
1000
0000
,
0000
0000
0020
0030
,
0100
0000
0000
0000
,
0002
0003
0100
0000
,
1000
0000
0000
0000
,
2000
3000
0100
0000
,
0010
0000
0000
0000
,
0010
0000
0001
0000
,
1000
0000
0100
0000
,
0100
0010
0000
0000
,
0020
0000
0030
0000
,
0200
0000
0300
0000
,
0001
0000
1000
0000
,
0010
0010
0010
0000
,
0020
0030
0000
0000
,
0200
0300
0000
0000
,
0001
0000
1000
0000
,
0001
0001
0100
0000
,
2000
3000
0000
0000
,
0002
0003
0000
0000
,
0010
0100
0010
0000
,
0001
0000
0100
0000
,
0001
0000
1000
0000
,
1001
0000
0000
0000
;

//---------------dance-single - ----------------
#NOTES:
     dance-single:
     :
     Medium:
     3:
     :
0000
0000
0000
0000
,
0000
0000
0000
0000
,
0000
0000
0000
0000
,
0000
0000
0000
0000
,
0000
0000
0000
0000
,
0000
0001
0000
0001
,
0000
1000
0000
1000
,
1001
0000
0200
0310
,
0001
1000
0001
0100
,
0000
0010
0000
0010
,
0000
0100
0000
1000
,
0002
0103
2000
3000
,
0010
0001
1000
0100
,
1001
0000
0001
1000
,
0110
0010
0000
0010
,
0000
1000
0001
0100
,
0000
1000
0100
0001
,
0010
1000
0100
0100
,
0000
0010
0000
0001
,
0000
1000
0000
0100
,
0000
0001
0100
0001
,
0000
0010
0010
1000
,
0000
0002
0000
0003
,
0000
0200
0000
0300
,
0000
0020
0100
1030
,
0000
0001
1000
1001
,
0010
0010
2000
3100
,
0001
0100
0002
1003
,
1001
0000
0110
0000
,
0100
0001
0100
1000
,
0000
0001
0000
1000
,
0000
0100
0000
0010
,
0220
0000
0330
1001
,
0100
0001
1000
0010
,
0110
0000
0001
1000
,
2002
3003
0000
0000
;

//---------------dance-single - ----------------
#NOTES:
     dance-single:
     :
     Hard:
     4:
     :
0000
0000
0000
0000
,
0000
0000
0000
0000
,
0000
0000
0000
0000
,
0000
0000
0000
0000
,
0000
0000
0000
0000
,
0001
0100
1000
0000
0001
0000
0100
0000
,
1000
0100
1000
0000
0100
0000
0001
0000
,
0202
0303
2200
3300
,
0001
0000
1000
0000
1000
0100
0010
0000
,
0001
0001
2000
3100
,
0010
0000
0001
0000
1000
0001
0100
0000
,
0020
0030
1000
0100
,
0001
0010
1000
0100
,
2002
0000
3003
0000
0001
0010
0100
1000
,
0001
0000
0100
1000
0000
0000
0100
0001
,
0000
2000
3002
0103
,
0010
1000
0010
0100
0000
0000
0100
0001
,
0000
0000
1000
0000
0001
1000
0100
0000
,
0010
0000
0001
0000
1000
0001
0100
0000
,
0100
0000
1000
0000
0001
0100
0010
0000
,
0020
1030
0002
0103
,
1000
0010
0001
0100
,
1000
2200
0000
3300
,
0001
0202
0000
0303
,
0001
0100
0010
0000
0010
1000
0100
0000
,
0001
0000
0100
0000
0001
0010
0100
0000
,
1000
0100
0001
0000
1000
0000
0100
0000
,
0001
0100
0001
0000
0100
0000
1000
0000
,
2200
3300
0220
0330
,
1000
0000
0001
0000
0001
0100
0010
0000
,
1000
1000
0002
0013
,
0100
0000
1000
0000
0001
1000
0100
0000
,
0010
0011
0100
1100
,
0001
1000
0100
0010
,
0001
0000
0000
0000
0001
0100
0010
1000
,
0100
0000
0000
0000
;

//---------------dance-double - ----------------
#NOTES:
     dance-double:
     :
     Easy:
     2:
     :
00000000
00000000
00000000
00000000
,
00000000
00000000
00000000
00000000
,
00000000
00000000
00000000
00000000
,
00000000
00000000
00000000
00000000
,
00000000
00000000
00000000
00000000
,
00000001
00000000
00000001
00000000
,
00001000
00001000
00001000
00000000
,
00000001
00000000
00000010
00000000
,
00000100
00000100
00001000
00000000
,
00000001
00000000
00000100
00000000
,
00001000
00001000
00010000
00010000
,
00001000
00000000
00010000
00000000
,
00022000
00000000
00000000
00033000
,
00000000
00000000
00010000
00100000
,
01000000
01000000
00000000
01000000
,
00000000
00010000
00000000
10000000
,
00000000
00100000
00000000
01000000
,
00000000
00010000
10000000
01000000
,
00000000
01000000
00000000
00010000
,
00000000
00001000
00000000
00010000
,
00000000
00001000
00001000
00000100
,
00000001
00000001
00001000
00000000
,
00002002
00000000
00000000
00003003
,
00000220
00000000
00000000
00000330
,
00000001
00000001
00001000
00001000
,
00000010
00000010
00000010
00000000
,
00001001
00000000
00000010
00000100
,
00000001
00000010
00001000
00001000
,
00010000
00000000
00001000
00000000
,
00010000
01000000
10000000
10000000
,
00010000
00010000
00100000
01000000
,
10000000
00000000
10000000
00010000
,
01000000
00000000
01000000
00000000
,
10010000
00000000
01000000
00000000
,
01000000
00000000
01000000
00010000
,
00001000
00000000
00000000
00000000
;

//---------------dance-double - ----------------
#NOTES:
     dance-double:
     :
     Medium:
     3:
     :
00000000
00000000
00000000
00000000
,
00000000
00000000
00000000
00000000
,
00000000
00000000
00000000
00000000
,
00000000
00000000
00000000
00000000
,
00000000
00000000
00000000
00000000
,
00010000
10000000
00100000
01000000
,
01000000
00000000
00010000
10000000
,
00100000
00000000
01000000
00000000
,
00010000
10000000
01000000
00010000
,
00010000
00001000
00001000
00010000
,
00001000
00000010
00000001
00000001
,
00000100
00000000
00000010
00000000
,
00001001
00000010
00000100
00000010
,
00001001
00000000
00000010
00000001
,
00000100
00001000
00010000
00010000
,
00100000
01000000
00010000
10000000
,
00010000
00010000
10000000
10000000
,
00100000
00100000
01000000
01000000
,
01000000
00010000
10000000
01000000
,
01000000
01000000
00010000
00001000
,
00001000
00000100
00000001
00001000
,
00000010
00000010
00000010
00000010
,
00000100
00000002
00001000
00001003
,
00000000
00000200
00000010
00000310
,
00000000
00000001
00000100
00001000
,
00010000
00001000
00010000
00000000
,
00022000
00033000
00010000
01000000
,
10000000
10000000
00010000
00010000
,
02000000
03000000
00200000
00300000
,
10000000
01000000
00010000
00001000
,
00001000
00000010
00000001
00001000
,
00000001
00000001
00001000
00001000
,
00000200
00000300
00000020
00000030
,
00001001
00000100
00001000
00010000
,
00011000
00000000
00000000
00000000
00010000
00000000
00100000
10000000
,
00010000
00000000
00000000
00000000
;

//---------------dance-double - ----------------
#NOTES:
     dance-double:
     :
     Hard:
     4:
     :
00000000
00000000
00000000
00000000
,
00000000
00000000
00000000
00000000
,
00000000
00000000
00000000
00000000
,
00000000
00000000
00000000
00000000
,
00000000
00000000
00000000
00000000
,
00010000
00000000
00001000
00000000
00001000
00000100
00000001
00000000
,
00000010
00000000
00000100
00000000
00001000
00000000
00001000
00000001
,
00001000
00000100
00000010
00000001
,
00001000
00000000
00001000
00000000
00000001
00000100
00001000
00000000
,
00010000
00000000
00100000
00000000
10000000
00010000
01000000
00000000
,
01000000
00000000
00100000
00000000
10000000
00000000
00010000
10000000
,
01000000
00000000
00000000
00010000
01000000
00000000
00000000
00000000
,
10010000
01000000
00110000
00001000
,
00011000
00000000
00000000
00000000
00001000
00010000
00000100
00000010
,
00000002
00001003
00000010
00000100
,
00000001
00000001
00001000
00001000
,
00000001
00000010
00001000
01000000
,
00100000
10000000
01000000
00000000
00100000
00010000
10000000
00000000
,
00100000
00100000
20000000
31000000
,
00100000
00100000
00020000
01030000
,
00000000
00000000
10000000
01000000
00010000
00001000
00000010
00000000
,
00000001
00001000
00001000
00000000
,
00000002
00000000
00001003
00000000
00000010
00000100
00000001
00000000
,
00002000
00000000
00003001
00000000
00000010
00000100
00001000
00000000
,
00000001
00000001
00001000
00001000
,
00000001
00000010
00000001
00000100
00001000
00000000
00010000
00000000
,
00100000
10000000
01000000
00000000
00100000
00010000
01000000
00000000
,
01000000
00000000
00100000
00000000
10000000
00000000
00010000
01000000
,
10000000
00000000
00000000
01000000
00010000
00000000
00000000
00000000
,
00010000
00000000
00000010
00000000
00000001
00001000
00000100
00000000
,
00000010
00000001
00001000
00000010
00000100
00000000
00000100
00000000
,
00002000
00003100
00000002
00000103
,
00001001
00000000
00000000
00000010
00000100
00000000
00000000
00000000
,
00001001
00000010
00001100
00010000
,
00022000
00000000
00033000
00000000
00010000
00100000
20000000
00000000
,
30010000
00000000
00000000
00000000
;
