
//----- song ID: lcat -----//
#TITLE:The Lovecats;
#ARTIST:The Cure;
#BANNER:The Lovecats.png;
#BACKGROUND:The Lovecats-bg.png;
#CDTITLE:./CDTITLES/Dancing Stage MegaMiX.png;
#MUSIC:The Lovecats.ogg;
#SAMPLESTART:50.333;
#SAMPLELENGTH:15;
#BPMS:0=180;

//---------------dance-single - ----------------
#NOTES:
     dance-single:
     :
     Beginner:
     1:
     :
0000
0000
0000
0000
,
0000
0000
0000
0000
,
0000
0000
0000
0000
,
0000
0000
0000
0000
,
0010
0000
0000
0000
,
0000
0000
0000
0000
,
0100
0000
0000
0000
,
0000
0000
0000
0000
,
1000
0000
0000
0000
,
0000
0000
0000
0000
,
0001
0000
0000
0000
,
0000
0000
0000
0000
,
0010
0000
0000
0000
,
0000
0000
0000
0000
,
0001
0000
0001
0000
,
0100
0000
0000
0000
,
1000
0000
1000
0000
,
0100
0000
0000
0000
,
0001
0000
0001
0000
,
0100
0000
0000
0000
,
1000
0000
1000
0000
,
0100
0000
0000
0000
,
0001
0000
0000
0000
,
1000
0000
0000
0000
,
0001
0000
0000
0000
,
0100
0000
0000
0000
,
0001
0000
0001
0000
,
0001
0000
0000
0000
,
0010
0000
0000
0000
,
0001
0000
0000
0000
,
1000
0000
0000
0000
,
0001
0000
0000
0000
,
1000
0000
0000
0000
,
0100
0000
0000
0000
,
1000
0000
1000
0000
,
1000
0000
0000
0000
,
0010
0000
0000
0000
,
1000
0000
0000
0000
,
0010
0010
0010
0000
,
0000
0000
0000
0000
,
1000
0000
0000
0000
,
0001
0000
0000
0000
,
0100
0000
0000
0000
,
0010
0000
0000
0000
,
1000
0000
0001
0000
,
1000
0000
1000
0000
,
0010
0000
0000
0000
,
0000
0000
0000
0000
,
0010
0000
0000
0000
,
0000
0000
0000
0000
,
0100
0000
0000
0000
,
0000
0000
0000
0000
,
1000
0000
0000
0000
,
0010
0000
0001
0000
,
0001
0000
0000
0000
,
0100
0000
0000
0000
,
0001
0000
0000
0000
,
0100
0000
0000
0000
,
1000
0000
1000
0000
,
0100
0000
0001
0000
,
1000
0000
0000
0000
,
0001
0000
0000
0000
,
1001
0000
0000
0000
;

//---------------dance-single - ----------------
#NOTES:
     dance-single:
     :
     Easy:
     3:
     :
0000
0000
0000
0000
,
0000
0000
0000
0000
,
0000
0000
0000
0000
,
0000
0000
0000
0000
,
0020
0030
0000
0000
,
0000
0000
0000
0000
,
0200
0300
0000
0000
,
0010
0000
0000
0000
,
2000
3000
0000
0000
,
0100
0000
0001
0000
,
0100
0000
0000
0000
,
0100
0000
0000
0000
,
0010
0000
0001
0000
,
0010
0000
0000
0000
,
2002
3003
0000
0000
,
0000
0000
0000
0000
,
0220
0330
0000
0000
,
0000
0000
0000
0000
,
0001
0000
0000
0000
,
0100
0000
0010
0000
,
1000
0000
0000
0000
,
0100
0000
0010
0000
,
0001
0000
0000
0000
,
1000
0000
0000
0000
,
0002
0003
0000
0000
,
0200
0300
0000
0000
,
0010
0000
0010
0000
,
0001
0000
1000
0000
,
0010
0000
0000
0000
,
0001
0000
1000
0000
,
1000
0000
0000
0000
,
0001
0000
0100
0000
,
2000
3000
0000
0000
,
0002
0003
0000
0000
,
0010
0000
0000
0000
,
0010
0000
1000
0000
,
0010
0000
0000
0000
,
0100
0000
0001
0000
,
2000
3000
0000
0000
,
0002
0003
0000
0000
,
1000
0000
0000
0000
,
0010
0000
0010
0000
,
0200
0300
0000
0000
,
0020
0030
0000
0000
,
1000
0000
0001
0000
,
1000
0010
1000
0000
,
0020
0030
0000
0000
,
2000
3000
0000
0000
,
1001
0000
0000
0000
,
0110
0000
0100
0000
,
0010
0000
0001
0000
,
0001
0000
1000
0000
,
1000
0000
0100
0000
,
0100
0000
0010
0000
,
0002
0003
0000
0000
,
0100
0000
0000
0000
,
0200
0300
0000
0000
,
0001
0000
0000
0000
,
1000
0000
1000
0000
,
0100
0000
0001
0000
,
2000
3000
0000
0000
,
0002
0003
0000
0000
,
1001
0000
0000
0000
,
0010
0010
0000
0000
0000
0000
0000
0000
;

//---------------dance-single - ----------------
#NOTES:
     dance-single:
     :
     Medium:
     3:
     :
0000
0000
0000
0000
,
0000
0000
0000
0000
,
0000
0000
0000
0000
,
0000
0000
0000
0000
,
0010
0000
1000
0000
,
0001
0000
0100
0000
,
1000
0000
0001
0000
,
1000
0100
0010
0001
,
1000
0000
0100
0000
,
0001
0100
1000
0100
,
0020
0000
0031
0100
,
0200
0000
1300
0010
,
0001
0000
1000
0000
,
0001
1000
0200
0300
,
0002
0003
0100
0000
,
2000
3000
0010
0000
,
0001
0000
1000
0000
,
0010
0001
0100
1000
,
0020
0030
0100
0000
,
2000
3000
0100
0001
,
0200
0300
0020
0030
,
1000
0100
0010
0001
,
1000
0000
1000
0100
,
0001
0000
0001
0010
,
1000
0000
0100
0000
,
0001
0000
0100
0010
,
1000
0000
0001
0000
,
0100
0001
0010
1000
,
0100
0000
0100
0000
,
0001
0010
1000
0000
,
0020
0030
1000
0000
,
0200
0300
0001
0000
,
0001
0001
1000
1000
,
0010
0100
0001
0000
,
0010
0010
0100
0000
,
0001
0001
0010
1000
,
0200
0300
0020
0030
,
0002
0003
2000
3000
,
0002
1003
0010
0000
,
0200
0310
1000
0000
,
0010
1000
0010
0001
,
0100
1000
0010
0001
,
2002
3003
0220
0330
,
0001
0100
0010
0000
,
0200
0000
0010
0300
,
0002
0000
1000
0103
,
1001
0000
0110
0000
,
0001
0001
0100
0000
,
1100
0000
0101
0000
,
0010
0100
0100
0000
,
0011
0000
1100
0000
,
0020
1000
0130
0000
,
1010
0000
0101
0000
,
2000
0100
3001
0000
,
0200
0300
0010
0000
,
0002
0003
0100
0000
,
0220
0000
0330
0000
,
2200
0000
3300
0000
,
0101
0000
0110
0000
,
0001
0100
0001
1000
,
0001
0010
0100
1000
,
0001
0100
0010
1000
,
0001
0000
0000
0000
,
1000
0001
0000
0000
0000
0000
0000
0000
;

//---------------dance-single - ----------------
#NOTES:
     dance-single:
     :
     Hard:
     4:
     :
0000
0000
0000
0000
,
0000
0000
0000
0000
,
0000
0000
0000
0000
,
0000
0000
0000
0000
,
0200
0000
0000
0300
,
0002
0100
1003
0100
,
0020
0030
0001
0001
,
1000
0100
0010
0001
,
2000
3000
0010
0000
,
0001
0000
1000
0000
0001
0100
0000
0000
,
0200
0300
1000
0000
,
1000
0010
0100
0001
,
0002
0003
1000
0000
,
0010
0000
1000
0000
0100
0010
0000
0000
,
0110
1000
0100
0001
,
0010
0000
1000
0000
0010
1000
0001
0000
,
2000
3000
0100
0000
,
0020
0000
0030
0000
0001
1000
0100
0000
,
0002
1003
0020
0031
,
0200
0301
2000
3001
,
1001
0001
0110
0100
,
0001
1000
0010
0100
,
0001
1000
0100
0000
1000
0000
0010
0000
,
0001
0100
1000
0010
,
0001
0100
0001
0000
2000
0000
3100
0000
,
0020
0030
0200
0300
,
1000
0001
0100
0000
0010
0000
0010
0000
,
1000
0100
0200
0310
,
0001
0100
0010
1000
,
0001
0100
0001
0000
1000
0000
1000
0000
,
0020
0030
0200
0300
,
0001
1000
0001
0000
1000
0000
1000
0000
,
0020
1000
0100
0030
,
0200
0010
0001
0300
,
1001
0001
0101
1000
,
1001
0010
1010
0100
,
0001
1000
0200
0300
,
0010
0001
1000
0100
,
1001
0000
0100
0000
1000
0001
0100
0000
,
0020
1030
0200
0300
,
0001
0000
0001
1000
0100
0000
0010
0000
,
0020
0000
0001
0130
,
0002
0003
0200
0300
,
0001
0000
1000
0000
0100
1000
0010
0000
,
2020
3030
0101
1000
,
0110
0110
2002
3003
,
0010
0200
0000
0000
0301
0000
1000
0000
,
0202
0303
1100
0000
,
2000
0002
3000
0000
1003
0000
0100
0000
,
0001
0000
0001
0000
1000
0100
0000
0000
,
1000
0002
0000
0000
0103
0000
0100
0000
,
0202
0303
1010
0000
,
0010
0010
1000
0100
,
0001
0001
0100
1000
,
0020
0000
1000
0030
,
0200
0000
0010
0301
,
0002
0000
0103
0000
,
2000
0000
3001
0000
,
0010
0001
0010
0000
1000
0100
1000
0000
,
0010
1000
0010
0000
0001
0100
0001
0000
,
0001
0010
1000
0100
,
0001
0100
1000
0010
,
1001
0000
0000
0000
,
0001
0200
0000
0000
0000
0000
0000
0000
,
0000
0000
0300
0000
;

//---------------dance-double - ----------------
#NOTES:
     dance-double:
     :
     Easy:
     3:
     :
00000000
00000000
00000000
00000000
,
00000000
00000000
00000000
00000000
,
00000000
00000000
00000000
00000000
,
00000000
00000000
00000000
00000000
,
00000000
00000000
00000000
00000000
,
00000000
00000000
00000000
00000000
,
10000000
00000000
00000000
00000000
,
00000000
00000000
00000000
00000000
,
00010000
00000000
00000000
00000000
,
00000000
00000000
00000000
00000000
,
01000000
00000000
00000000
00000000
,
00000000
00000000
00000000
00000000
,
10000000
00000000
01000000
00000000
,
00010000
00000000
00000000
00000000
,
00011000
00000000
00000000
00000000
,
00000000
00000000
00000000
00000000
,
00000010
00000000
00001000
00000000
,
00000001
00000000
00001000
00000000
,
00000020
00000000
00000000
00000030
,
00000200
00000000
00000000
00000300
,
00000001
00000000
00000100
00000000
,
00001000
00000000
00010000
00000000
,
00011000
00000000
00000000
00000000
,
00010000
00000000
01000000
00000000
,
10000000
00000000
00000000
00000000
,
00010000
00000000
00000000
00000000
,
10000000
00000000
01000000
00000000
,
01000000
00000000
00000000
00000000
,
00010000
00000000
00001000
00000000
,
00000010
00000000
00000000
00000000
,
00001000
00000000
00001000
00000000
,
00000001
00000000
00000001
00000000
,
00000100
00000000
00001000
00000000
,
00010000
00000000
00000000
00000000
,
01000000
00000000
00000000
00000000
,
10000000
00000000
00010000
00000000
,
20000000
00000000
00000000
30000000
,
00020000
00000000
00000000
00030000
,
10000000
10000000
00010000
00000000
,
00100000
00100000
01000000
00000000
,
10000000
00000000
00010000
00000000
,
01000000
00000000
00000000
00000000
,
00001000
00001000
00010000
00000000
,
00010000
00010000
00001000
00000000
,
00001000
00000000
00000100
00000000
,
00000001
00001000
00000100
00000000
,
00001001
00000000
00000100
00000000
,
00000000
00000000
00000000
00000000
,
00011000
00000000
01000000
00000000
,
00100000
00000000
10000000
00000000
,
10010000
00000000
00100000
00000000
,
00000000
00000000
00000000
00000000
,
10000000
00000000
00000000
00000000
,
01000000
00000000
00000000
00000000
,
00022000
00000000
00000000
00033000
,
00000200
00000000
00000000
00000300
,
00000020
00000000
00000000
00000030
,
00000002
00000000
00000000
00000003
,
00001000
00000000
00000010
00000000
,
00000100
00000000
00000001
00000000
,
00000001
00000100
00001000
00000000
,
00010000
00100000
10000000
00000000
,
10010000
00000000
00000000
00000000
,
00100000
01000000
00000000
00000000
00000000
00000000
00000000
00000000
;

//---------------dance-double - ----------------
#NOTES:
     dance-double:
     :
     Medium:
     3:
     :
00000000
00000000
00000000
00000000
,
00000000
00000000
00000000
00000000
,
00000000
00000000
00000000
00000000
,
00000000
00000000
00000000
00000000
,
00000000
00000000
00000000
00000000
,
00000000
00000000
00000000
00000001
,
00001000
00000000
00000100
00000000
,
00000100
00000000
00000100
00000010
,
00000001
00000000
00000100
00000000
,
00001000
00000000
00010000
00001000
,
00010000
00000000
00010000
00000000
,
00010000
00000000
00010000
01000000
,
10000000
00000000
00100000
00000000
,
01000000
00000000
00010000
00000000
,
00020000
00000000
00000000
00030000
,
00200000
00000000
00000000
01300000
,
20000000
00000000
00000000
30000000
,
00100000
00000000
00001000
00000000
,
00011000
00000000
00000100
00000000
,
00000010
00000000
00000001
00000000
,
00000000
00000010
00001000
00000100
,
00000100
00000000
00001001
00000000
,
00000010
00000000
00000001
00000000
,
00001000
00000010
00000100
00000000
,
00000001
00000000
00000001
00000000
,
00000001
00000010
00001000
00000000
,
00010000
00000000
00001000
00000000
,
00010000
00000000
01000000
00000000
,
10000000
00000000
10000000
00000000
,
10000000
00100000
01000000
00000000
,
10010000
00000000
01000000
00000000
,
10010000
00000000
01000000
00000000
,
00010000
00000000
00001000
00000000
,
00010000
00001000
00000100
00000000
,
00000001
00000000
00000001
00000000
,
00000010
00000100
00000100
00000000
,
00001000
00000000
00001000
00000000
,
00000010
00000000
00000100
00000000
,
00001000
00001000
00001000
00000000
,
00010000
00010000
00010000
00000000
,
00100000
00010000
01000000
01000000
,
00100000
10000000
01000000
00000000
,
10000000
00000000
10000000
00000000
,
00010000
00010000
00100000
00000000
,
00001000
00010000
00000100
00001000
,
00000001
00000010
00000100
00000000
,
00002002
00003003
00000200
00000000
,
00000000
00000300
00000000
00000000
,
00001000
00000000
00010000
00000000
,
00010000
01000000
10000000
00000000
,
20020000
30030000
02000000
00000000
,
00000000
03000000
00000000
00000000
,
10010000
00000000
01000000
00000000
,
00010000
00001000
00000100
00000000
,
00002002
00000000
00000000
00000003
,
00000200
00000000
00000000
00003300
,
00002002
00000000
00000000
00003000
,
00000200
00000000
00000000
00000303
,
00000010
00000000
00000100
00000000
,
00001000
00010000
00001000
00010000
,
00010000
01000000
10000000
10000000
,
01000000
00010000
00001000
00010000
,
00011000
00000000
00000000
00000000
,
00001000
00000100
00000000
00000000
00000000
00000000
00000000
00000000
;

//---------------dance-double - ----------------
#NOTES:
     dance-double:
     :
     Hard:
     6:
     :
00000000
00000000
00000000
00000000
,
00000000
00000000
00000000
00000000
,
00000000
00000000
00000000
00000000
,
00000000
00000000
00000000
00000000
,
00000000
00000000
00000000
00000000
,
00000000
00000000
00000000
10000000
,
00020000
00000000
00000000
00000000
,
00000000
00000000
00000000
00130000
,
02000000
00000000
00000000
00000000
,
00000000
00000000
00000000
03010000
,
00002000
00000000
00000000
00000000
,
00000000
00000000
00000000
00003010
,
00000002
00000000
00000100
00000000
,
00000100
00000000
00000100
00000003
,
00000001
00001000
00000100
00000100
,
00000010
00000001
00000100
00001000
,
00010000
00000000
00010000
00000000
,
01000000
10000000
00010000
00100000
,
00100000
00000000
01000000
00000000
,
00010000
10000000
01000000
00010000
,
00001000
00010000
00001000
00000010
,
00000100
00000000
00001001
00000000
,
00000010
00000001
00001000
00000000
00001000
00000000
00000100
00000000
,
00000100
00000100
00000010
00000001
,
00001000
00000001
00000100
00000000
00000100
00000000
00001000
00000000
,
00010000
00000000
00010000
00000000
00001000
00010000
00000000
00000000
,
00010000
00100000
10000000
01000000
,
01000000
10000000
00010000
01000000
,
01000000
00100000
00100000
00000000
,
10000000
00010000
10000000
00000000
,
00100000
00010000
01000000
00000000
00100000
00000000
10000000
00000000
,
01000000
00010000
00010000
00001000
,
00001000
00000100
00000001
00001000
,
00000010
00000000
00000100
00000000
00000100
00000010
00000100
00000000
,
00000001
00000010
00000100
00001000
,
00000001
00000000
00000100
00000000
00001000
00010000
00001000
00000000
,
00010000
00000000
00010000
00000000
00001000
00010000
00001000
00000000
,
00010000
01100000
10010000
00000000
,
10010000
00100000
01000000
00000000
,
00010000
00000000
10000000
00000000
01000000
00100000
01000000
00000000
,
00010000
00001000
00000100
00000001
,
00000010
00000000
00000100
00000000
00001000
00000001
00000000
00000000
,
00000001
00001000
00000100
00000100
,
00001000
00000001
00000100
00000100
,
00001000
00000000
00001000
00000000
00010000
00001000
00010000
00000000
,
00001000
00000000
01000000
00000000
00100000
01000000
00000000
00000000
,
10010000
00000000
01100000
00000000
,
01000000
00000000
00000000
00000000
01000000
00100000
00000000
00000000
,
01010000
00000000
00011000
00000000
,
00001010
00000000
00000000
00000000
00000100
00000010
00000000
00000000
,
00001001
00000000
00000110
00000000
,
00000100
00000000
00000000
00000000
00000100
00000010
00000000
00000000
,
00001000
00000000
00000001
00000000
,
00000100
00000000
00000100
00000000
00000010
00000100
00000000
00000000
,
00001100
00000000
00001000
00000000
,
00011000
00000000
00010000
00000000
,
01100000
00000000
01000000
00000000
,
10010000
00000000
00100000
00000000
,
12000000
00000000
03020000
00000000
,
00032000
00000000
00003020
00000030
,
00000001
00000100
00001000
00010000
,
00010000
00000000
00100000
00000000
10000000
00100000
01000000
00000000
,
10010000
00000000
00000000
00000000
,
00100000
01000000
00000000
00000000
00000000
00000000
00000000
00000000
;
