
//----- song ID: stea -----//
#TITLE:Stealin' Beats;
#ARTIST:Kid Galahad;
#BANNER:Stealin' Beats.png;
#BACKGROUND:Stealin' Beats-bg.png;
#CDTITLE:./CDTITLES/Dancing Stage MegaMiX.png;
#MUSIC:Stealin' Beats.ogg;
#SAMPLESTART:49.111;
#SAMPLELENGTH:15;
#DISPLAYBPM:122;
#BPMS:0=120.401,12=122.093,40=122.283,80=122.117,120=122.449;

//---------------dance-single - ----------------
#NOTES:
     dance-single:
     :
     Beginner:
     1:
     :
0000
0000
0000
0000
,
0000
0000
0000
0000
,
0000
0000
0000
0000
,
0000
0000
0000
0000
,
0000
0000
0000
0000
,
0010
0010
0010
0010
,
0010
0000
0100
0000
,
0001
0001
0001
0001
,
0001
0000
0100
0000
,
0000
1000
0000
0001
,
0000
1000
0000
0001
,
0000
0010
0000
0100
,
0000
0100
0100
0100
,
0000
0001
0000
1000
,
0000
0001
0000
1000
,
0000
0010
0000
0100
,
0000
0001
0001
0001
,
0001
0000
0000
0000
,
1000
0000
0000
0000
,
0001
0000
0001
0000
,
1000
0000
1000
1000
,
1000
0000
0000
0000
,
0000
0000
0000
0000
,
0001
0000
1000
0000
,
0001
0000
1000
0000
,
0001
0001
0001
0000
,
0001
0001
0001
0000
,
1000
1000
1000
0000
,
1000
1000
0000
1000
,
1000
1000
1000
0000
,
1000
1000
1000
0000
,
0001
0001
0001
0000
,
0001
0001
0000
0001
,
0000
0000
0000
0000
,
0000
0000
0000
0000
,
0100
0000
0001
0000
,
0100
0000
1000
0000
,
0100
0000
0001
0000
,
0100
0000
1000
0000
,
0100
0000
0001
0000
,
0100
0000
1000
0000
,
1001
0000
0000
0000
;

//---------------dance-single - ----------------
#NOTES:
     dance-single:
     :
     Easy:
     2:
     :
0000
0000
0000
0000
,
0000
0000
0000
0000
,
0000
0000
0000
0000
,
0000
0000
0000
0000
,
0000
0000
0000
0000
,
2000
3000
0000
0000
,
0001
0000
0000
0000
,
0002
0003
0000
0000
,
0100
0000
0000
0000
,
0001
0000
0001
0000
,
1000
1000
0100
0000
,
1000
0000
0001
0000
,
0001
0001
0100
0000
,
0200
0300
0000
0000
,
0020
0030
0000
0000
,
0010
0000
1000
0000
,
0100
0000
0001
0000
,
2000
3000
1000
0000
,
0002
0003
0001
0000
,
1000
0000
0001
0000
,
1000
0000
0100
0000
,
0010
0010
0000
0000
,
0100
0100
0100
0000
,
0001
0001
0000
0000
,
1000
0000
1001
0000
,
0001
0000
0001
0100
,
0100
0000
0110
0000
,
1000
0000
1000
0100
,
1000
0000
0001
0000
,
1000
0000
1000
0100
,
0100
0000
0110
0000
,
0001
0000
0001
0100
,
0001
0001
1000
0001
,
0000
0000
0000
0000
,
0100
0000
1000
0000
,
0100
0000
0001
0000
,
0010
0000
1000
0000
,
0002
0003
0000
0000
,
2000
3000
0000
0000
,
0001
0100
0000
0000
,
1000
0100
0100
0000
,
1001
0000
0000
0000
;

//---------------dance-single - ----------------
#NOTES:
     dance-single:
     :
     Medium:
     3:
     :
0000
0000
0000
0000
,
0000
0000
0000
0000
,
0000
0000
0000
0000
,
0000
0000
0000
0000
,
0000
0000
0000
0000
,
0001
0100
2000
3000
,
0001
1000
0001
0010
,
1000
0100
0002
0003
,
1000
0001
0100
0000
,
0010
0100
0100
0010
,
0001
0100
1001
0000
,
1000
0001
0001
1000
,
0001
0100
0110
0000
,
2000
3000
0200
0310
,
0002
0003
0020
0130
,
0100
1000
0000
0001
,
0010
1000
0001
0100
,
0200
0300
0010
0000
,
0002
0003
1000
0000
,
0002
0000
0103
0100
,
2000
0000
3010
0010
,
0001
0001
0010
0000
,
1000
1000
0100
0001
,
0020
0031
1000
0000
,
0200
1300
0001
0000
,
0001
1000
1001
0000
,
0010
0100
0220
0330
,
1000
1001
0001
1001
,
0010
1000
0100
0001
,
0100
1000
1001
0000
,
1000
0100
0220
0330
,
0001
0101
1000
0110
,
0010
1000
0100
0010
,
0002
0000
0103
0000
,
2000
0000
3100
0100
,
0020
0030
0200
0300
,
1000
0001
1000
0100
,
0001
0100
0001
0010
,
2000
3001
0200
0310
,
0001
0001
1000
1000
,
0010
0010
0001
0100
,
1001
0000
0000
0000
;

//---------------dance-single - ----------------
#NOTES:
     dance-single:
     :
     Hard:
     4:
     :
0000
0000
0000
0000
,
0000
0000
0000
0000
,
0000
0000
0000
0000
,
0000
0000
0000
0000
,
0000
0000
0000
0000
,
0010
0001
0100
0000
0002
0000
0103
0000
,
1000
0100
0001
0010
,
1000
0100
0010
0000
2000
0000
3100
0000
,
0001
0100
0002
1003
,
0100
0000
0000
1000
,
0001
0010
0010
0100
,
0002
1003
1000
0100
,
1000
0010
0100
0000
0001
0010
0100
0000
,
1000
0001
1000
0000
0001
0000
0100
0000
,
1000
0100
0001
0010
,
2000
3100
0002
0003
,
0000
0000
1000
0000
0010
1000
0001
0100
,
0020
1030
0200
0301
,
0010
0001
0100
1000
,
0001
0000
1000
0100
,
0001
0010
0100
0000
0010
0100
1000
0000
,
0002
1000
0003
0010
,
2000
0010
3000
0100
,
0002
0013
2000
3100
,
0001
0000
1000
0000
0001
0010
0100
1000
,
0001
0000
0001
0000
1000
0100
1000
0001
,
0010
0000
0010
0000
1000
0001
0100
0000
,
1000
0000
2000
0000
3001
0100
0001
0000
,
0010
0110
1000
1001
,
0010
0000
0100
0000
0010
1000
0100
1000
,
0001
0000
0001
0000
1000
0001
0100
0000
,
1000
2000
3001
0002
,
0013
0100
0010
0000
1000
0001
0100
0000
,
0000
0000
0002
0000
,
0100
0000
0103
0000
0010
1000
0100
0000
,
0000
0000
2000
0000
,
0010
0000
3010
0000
0100
0001
1000
0000
,
0002
0000
0100
0000
0103
0000
0000
0020
0000
0000
1000
0000
1030
0000
0000
0000
,
0001
0010
0100
0010
0001
0010
1000
0000
,
0001
1000
0100
0000
0002
0000
1003
0000
,
1000
0001
0100
0000
0020
0000
0031
0000
,
2002
0000
0000
0000
,
0000
0000
0000
3003
;

//---------------dance-double - ----------------
#NOTES:
     dance-double:
     :
     Easy:
     2:
     :
00000000
00000000
00000000
00000000
,
00000000
00000000
00000000
00000000
,
00000000
00000000
00000000
00000000
,
00000000
00000000
00000000
00000000
,
00000000
00000000
00000000
00000000
,
00000001
00000000
00000000
00000000
,
00001000
00000000
00000001
00000001
,
00000001
00000000
00000100
00000000
,
00001000
00010000
00001000
00000000
,
00011000
00000000
00010000
00000000
,
00010000
00100000
10000000
10000000
,
00000000
00010000
00000000
00010000
,
00100000
00100000
00100000
00100000
,
00000000
01000000
00000000
10000000
,
00000000
10000000
01000000
00010000
,
00001000
00000000
00010000
00000000
,
00001000
00001000
00000010
00000010
,
00000002
00000000
00001000
00000003
,
00002000
00000000
00000001
00003000
,
00000001
00000000
00000100
00000000
,
00001000
00010000
00010000
00100000
,
00200000
00000000
00000000
00300000
,
01000000
00000000
01000000
01000000
,
00010000
00000000
10000000
00000000
,
01000000
00010000
00001000
00001000
,
00011000
00000000
00000100
00000000
,
00000010
00000001
00000002
00000003
,
00000100
00000100
00000010
00000010
,
00001000
00001000
00000001
00000100
,
00001000
00000000
00001000
00000000
,
00010000
00010000
00010000
00000000
,
00001000
00000000
00010000
00010000
,
00100000
00100000
01000000
01000000
,
20020000
00000000
00000000
30030000
,
02000000
00000000
00000000
03000000
,
00020000
00000000
00002000
00033000
,
00001000
00000010
00000001
00000001
,
00002002
00003003
00000100
00000000
,
00000010
00000010
00000010
00000000
,
00000001
00000100
00001000
00010000
,
00010000
00100000
10000000
00010000
,
10010000
00000000
00000000
00000000
;

//---------------dance-double - ----------------
#NOTES:
     dance-double:
     :
     Medium:
     3:
     :
00000000
00000000
00000000
00000000
,
00000000
00000000
00000000
00000000
,
00000000
00000000
00000000
00000000
,
00000000
00000000
00000000
00000000
,
00000000
00000000
00000000
00000000
,
00010000
00000000
00010000
00000000
,
10000000
00000000
10000000
00000000
,
01000000
00010000
00001000
00000100
,
00000001
00000000
00000000
00000000
00001000
00000001
00001000
00000000
,
00001001
00000100
00000000
00000100
,
00000010
00000010
00000001
00000001
,
00000000
00000100
00001000
00010000
,
01000000
10000000
00010000
00010000
,
00000000
10010000
01000000
01000000
,
00100000
00000000
00100000
00000000
,
00010000
10000000
01000000
00010000
,
00001000
00000100
00000001
00000010
,
00000000
00001001
00000100
00000100
,
00000000
00000010
00000010
00000001
,
00000000
00000001
00000100
00001000
,
00001000
00000000
00010000
00000000
01000000
00000000
10000000
00010000
,
20000000
00000000
00000000
30010000
,
00100000
00000000
01000000
01000000
,
10000000
00000000
00100000
00010000
,
00001000
00000000
00001000
00000000
00010000
00001000
00000100
00000000
,
00001001
00000100
00000000
00000100
,
00000010
00000000
00000001
00000000
00001000
00000010
00000100
00000000
,
00000000
00001001
00000100
00000100
,
00000001
00000010
00001000
00010000
,
00011000
00100000
10000000
10000000
,
00010000
00000000
00010000
10000000
00010000
00000000
00000000
00000000
,
01100000
00010000
00010000
00010000
,
10000000
00000000
10000000
00000000
10000000
00100000
00010000
00000000
,
00002000
00000000
00000000
00013000
,
00001000
00000010
00000100
00000000
00002000
00000000
00000000
00000000
,
00000001
00000001
00000001
00003001
,
00000010
00000000
00000100
00001000
00000001
00000000
00001001
00000000
,
00000100
00000000
00010000
00000000
00010000
00001000
00100000
00000000
,
00100000
00000000
01000000
00000000
10000000
00010000
10000000
00000000
,
00100000
01000000
00010000
10000000
,
00100000
00010000
00001000
00000110
,
00001001
00000000
00000000
00000000
;

//---------------dance-double - ----------------
#NOTES:
     dance-double:
     :
     Hard:
     5:
     :
00000000
00000000
00000000
00000000
,
00000000
00000000
00000000
00000000
,
00000000
00000000
00000000
00000000
,
00000000
00000000
00000000
00000000
,
00000000
00000000
00000000
00000000
,
00010000
00001000
00010000
00000000
00001000
00000000
00001000
00000000
,
00010000
00000000
00010000
00000000
01000000
00000000
10000000
00010000
,
10000000
01000000
01000000
00100000
,
00010000
10000000
01000000
00000000
10000000
01000000
00010000
00000000
,
00011000
00000010
00000001
00000100
,
00000010
00000000
00001000
00000000
00000001
00000010
00000100
00000000
,
00001000
00001000
00000001
00000100
,
00001000
00010000
01000000
10000000
00100000
01000000
00100000
00000000
,
00000000
00010000
00010000
10000000
,
00100000
01000000
00100000
00000000
10000000
00000000
10000000
00000000
,
01000000
00100000
00010000
10000000
,
10000000
00100000
00010000
00000000
00001000
00000010
00000001
00000000
,
00002001
00000100
00003100
00000010
,
00000001
00000000
00000001
00000000
00000100
00001000
00010000
00000000
,
01000000
10000000
10000000
00010000
,
00100000
01000000
00100000
00000000
00010000
10000000
00010000
10000000
,
02000000
00000000
00000000
03000000
,
00100000
00000000
00100000
00000000
00010000
10000000
00010000
00000000
,
10000000
00100000
00010000
00001000
,
00000010
00000001
00000100
00000010
00001000
00000001
00000100
00000000
,
00001001
00000000
00000010
00000100
00000001
00000010
00000100
00000000
,
00001000
00001000
00001000
00000000
,
00000001
00000100
00001000
00010000
01000000
10000000
00100000
00000000
,
01000000
01000000
01000000
01000000
,
00010000
10000000
00010000
00000000
00100000
01000000
00100000
00000000
,
00010000
10000000
00100000
00010000
00001000
00000010
00000100
00000000
,
00001001
00000000
00000100
00000000
00000100
00000010
00000001
00000000
,
00001000
00000010
00000000
00000010
00000000
00000100
00000000
00000000
,
00002002
00000000
00000000
00003003
,
00000100
00001000
00010000
00000000
00010000
01000000
10000000
00000000
,
00100000
01000000
00010000
00000000
00100000
01000000
00100000
00000000
,
00010000
10000000
00100000
00000000
00100000
01000000
00100000
00000000
,
10000000
00010000
01000000
00000000
00010000
10000000
01000000
00000000
,
01000000
00010000
00001000
00010000
00000100
00000010
00000001
00000000
,
00001100
00000001
00000010
00000100
,
00001000
00000001
00000100
00000000
00001100
00000000
00000101
00000000
,
00002002
00000000
00000000
00000000
,
00000000
00000000
00000000
00003003
;
