
//----- song ID: urbo -----//
#TITLE:Shake UR Body;
#ARTIST:Shy FX & T-Power feat. Di;
#BANNER:Shake UR Body.png;
#BACKGROUND:Shake UR Body-bg.png;
#CDTITLE:./CDTITLES/Dancing Stage MegaMiX.png;
#MUSIC:Shake UR Body.ogg;
#SAMPLESTART:34.2;
#SAMPLELENGTH:15;
#DISPLAYBPM:175;
#BPMS:0=175;

//---------------dance-single - ----------------
#NOTES:
     dance-single:
     :
     Beginner:
     1:
     :
0000
0000
0000
0000
,
0000
0000
0000
0000
,
0000
0000
0000
0000
,
0000
0000
0000
0000
,
0000
0000
0000
0000
,
0000
0000
0000
0000
,
0000
0000
0000
0000
,
0000
0000
0000
0000
,
0000
0000
0000
0000
,
1000
0000
0000
0000
,
0010
0000
0000
0000
,
0100
0000
0000
0000
,
0010
0000
1000
0000
,
0001
0000
0000
0000
,
0010
0000
0000
0000
,
0100
0000
0000
0000
,
0010
0000
0001
0000
,
0001
0000
0000
0000
,
0100
0000
0000
0000
,
0001
0000
0010
0000
,
1000
0000
0010
0000
,
1000
0000
0000
0000
,
0010
0000
0000
0000
,
0100
0000
0000
0000
,
0010
0000
0000
0000
,
0001
0000
0001
0000
,
0001
0000
0001
0000
,
1000
0000
1000
0000
,
1000
1000
1000
0000
,
1000
0000
1000
0000
,
1000
0000
1000
0000
,
0010
0000
0100
0000
,
0010
0000
0100
0000
,
0010
0000
0000
0000
,
0010
0010
0010
0000
,
0010
0000
0000
0000
,
0000
0000
0000
0000
,
0001
0000
0000
0000
,
1000
0000
0000
0000
,
0001
0000
0000
0000
,
1000
0000
0000
0000
,
0001
0000
1000
0000
,
0001
0000
1000
0000
,
0001
0000
0000
0000
,
0000
0000
0000
0000
,
1000
0000
0000
0000
,
1000
0000
0000
0000
,
1000
0000
0000
0000
,
1000
0000
0000
0000
,
0010
0010
0010
0010
,
0010
0010
0000
0000
,
0001
0001
0001
0001
,
0001
0001
0000
0000
,
1000
1000
1000
1000
,
1000
1000
0000
0000
,
0010
0000
0000
0000
,
0000
0000
0000
0000
,
1000
0000
1000
0000
,
1000
0000
1000
0000
,
0001
0000
0001
0000
,
0001
0001
0001
0000
,
0001
0000
0001
0000
,
0001
0000
0001
0000
,
0010
0000
0100
0000
,
0010
0000
0100
0000
,
0010
0000
0000
0000
;

//---------------dance-single - ----------------
#NOTES:
     dance-single:
     :
     Easy:
     3:
     :
0000
0000
0000
0000
,
0000
0000
0000
0000
,
0000
0000
0000
0000
,
0000
0000
0000
0000
,
0000
0000
0000
0000
,
0000
0000
0000
0000
,
0000
0000
0000
0000
,
0000
0000
0000
0000
,
0000
0000
0000
0000
,
1000
0000
0000
0000
,
0001
0000
0000
0000
,
0010
0000
0001
0000
,
0100
0000
0001
0000
,
0100
0000
0000
0000
,
0010
0000
0000
0000
,
0100
0000
1000
0000
,
0010
0000
0001
0000
,
0010
0010
0000
0000
,
0100
0100
0000
0000
,
0002
0003
0010
0000
,
2000
3000
0100
0000
,
0200
0300
0000
0000
,
0220
0330
0000
0000
,
0001
0000
1000
0000
,
0010
0000
0000
0000
,
0002
0003
0010
0000
,
0020
0030
1000
0000
,
0001
0000
1000
0000
,
0001
0000
1000
0000
,
2000
3000
0010
0000
,
0020
0030
0001
0000
,
0100
0000
0000
0000
,
0020
0030
0100
0000
,
0110
0000
0000
0000
,
1001
0000
0100
0000
,
0010
0000
1000
0000
,
0001
0000
0100
0000
,
0001
0001
0000
0000
,
1000
1000
0000
0000
,
0010
0000
0001
0000
,
0100
0000
1000
0000
,
0002
0003
0000
0000
,
2000
3000
0000
0000
,
0010
0010
0000
0000
,
0100
0100
0000
0000
,
0010
0000
1000
0000
,
0001
0000
0100
0000
,
0010
0000
0002
0003
,
1000
0000
0200
0300
,
0000
0000
0000
0000
,
0000
0000
0000
0000
,
0000
0000
0000
0000
,
0000
0000
0000
0000
,
1000
0000
0001
0000
,
0001
0000
1000
0000
,
0010
0000
1000
0000
,
0001
0000
0000
0000
,
0020
0030
0001
0000
,
0200
0300
1000
0000
,
0001
0000
1000
0000
,
0001
0000
0100
0000
,
0020
0030
0010
0000
,
0200
0300
0100
0000
,
0010
0000
0001
0000
,
1000
0000
0100
0100
,
0010
0000
0000
0000
;

//---------------dance-single - ----------------
#NOTES:
     dance-single:
     :
     Medium:
     4:
     :
0000
0000
0000
0000
,
0000
0000
0000
0000
,
0000
0000
0000
0000
,
0000
0000
0000
0000
,
0000
0000
0000
0000
,
0000
0000
0000
0000
,
0000
0000
0000
0000
,
0000
0000
0000
0000
,
0000
0000
0000
0000
,
0020
0030
1000
0001
,
1000
0000
0100
0100
,
2000
3000
0002
0003
,
0100
1000
0001
0100
,
0020
0030
1000
0000
,
0001
0100
0100
1000
,
0020
0030
0200
0300
,
0010
1001
0200
0300
,
0010
0000
1000
0000
,
0100
0000
0001
0001
,
1000
1000
0001
0100
,
0010
0000
1000
0000
,
0010
0000
0001
0000
,
0100
0000
2000
3000
,
0020
0030
1000
0001
,
0010
1000
0200
0300
,
1000
0000
1001
0000
,
0010
0000
0110
0000
,
2000
0000
3001
0100
,
0002
0000
0013
1000
,
0010
0000
0110
0000
,
0001
0000
1001
0000
,
0002
0003
2000
3000
,
0001
1000
0100
0000
,
0010
0000
0000
0000
,
0000
0000
0000
0000
,
1000
0001
1000
0000
,
0010
0001
2000
3000
,
0100
0100
0001
0001
,
1000
0001
0100
0001
,
2000
3100
0002
0103
,
0020
0030
1000
0001
,
0200
0000
0000
0300
,
0000
0000
0000
0000
,
1000
0000
1000
0100
,
0001
0000
0100
0000
,
0010
0001
0100
0100
,
2000
3000
0002
0003
,
0010
1000
0200
0300
,
0010
0001
1000
0000
,
0001
0001
2000
3100
,
0010
1000
0002
0103
,
0010
0000
1000
0000
,
0100
0000
0001
0000
,
1000
0100
0001
0100
,
0010
1000
0100
0100
,
0010
0001
0200
0300
,
2002
3003
0000
1001
,
0002
0003
1001
0000
,
0020
0030
0110
0000
,
0020
0000
1030
0100
,
0200
0000
0310
0001
,
0020
0030
0110
0000
,
2000
3000
1001
0000
,
0200
0300
0020
0030
,
1000
0001
0100
0100
,
0010
0000
0000
0000
;

//---------------dance-single - ----------------
#NOTES:
     dance-single:
     :
     Hard:
     4:
     :
0000
0000
0000
0000
,
0000
0000
0000
0000
,
0000
0000
0000
0000
,
0000
0000
0000
0000
,
0000
0000
0000
0000
,
0000
0000
0000
0000
,
0000
0000
0000
0000
,
0000
0000
0000
0000
,
0000
0000
0000
0000
,
0010
0100
0001
0000
1000
0000
0100
0000
,
0010
0001
1000
0000
0001
0000
0001
0000
,
1000
0000
1000
0000
0001
0100
0010
0000
,
2000
3100
0020
0031
,
0200
0000
0300
0000
0001
0010
0100
0000
,
1000
1000
0001
0100
,
0020
0030
0001
1001
,
0100
0010
1000
0000
0001
0100
0001
0000
,
0020
0030
0002
0003
,
2000
3000
0200
0300
,
0010
1000
0100
0000
0010
0001
0100
0000
,
0001
0001
1000
0100
,
0001
1000
0001
0000
0100
0000
0010
0000
,
1000
0001
0100
0000
0010
0000
0001
0000
,
0010
1000
0100
0000
0010
0001
0100
0000
,
0002
2003
3200
0300
,
0001
0100
1000
0100
,
0020
1030
0200
0301
,
0000
0101
0000
1010
,
0001
0100
1000
0010
,
0002
0103
2000
3010
,
0001
0010
1000
0010
,
0001
0000
0001
0000
1000
0001
0100
0000
,
0020
0030
0200
0300
,
2002
0000
0000
3003
,
0000
0000
0000
1001
,
0000
0010
0000
0100
,
0000
0010
0000
0100
,
0000
0002
0000
0103
,
0010
0020
0000
1030
,
0001
0000
1000
0000
0010
0100
0001
0000
,
1000
0010
0100
0000
0001
0000
1000
0000
,
0200
0300
2000
3001
,
0020
0130
0002
1003
,
0100
0100
0010
0001
,
1000
0100
0020
0000
0030
0000
1001
0000
,
0010
0010
1000
0001
,
1000
0000
0100
0000
0010
0001
0100
0000
,
2000
3000
0002
0003
,
0010
1000
0100
0000
0001
0000
0110
0000
,
0010
0000
0100
0000
,
2000
0000
3100
0001
,
0002
0000
0103
1000
,
0020
0030
0200
0300
,
0020
0030
0002
1003
,
2000
3000
0020
0130
,
0001
0100
0001
1000
0100
0000
0100
0000
,
0020
0000
0130
0110
,
2000
3000
0001
0100
,
0020
1030
0200
0301
,
0000
1100
0000
0011
,
1000
0100
0001
0010
,
2000
3100
0002
0013
,
1000
0010
0001
0010
,
1000
0000
1000
0000
0001
1000
0100
0000
,
0010
0001
1000
0010
1000
0000
0100
0000
,
0220
0000
0330
0000
;

//---------------dance-double - ----------------
#NOTES:
     dance-double:
     :
     Easy:
     3:
     :
00000000
00000000
00000000
00000000
,
00000000
00000000
00000000
00000000
,
00000000
00000000
00000000
00000000
,
00000000
00000000
00000000
00000000
,
00000000
00000000
00000000
00000000
,
00000000
00000000
00000000
00000000
,
00000000
00000000
00000000
00000000
,
00000000
00000000
00000000
00000000
,
00000000
00000000
00000000
00000000
,
00010000
00000000
00000000
00000000
,
10000000
00000000
00000000
00000000
,
01000000
00000000
00000000
00000000
,
00010000
00000000
00001000
00000000
,
00010000
00000000
00000000
00000000
,
00001000
00000000
00000000
00000000
,
00000010
00000000
00000000
00000000
,
00000001
00000000
00000001
00000000
,
00000100
00000000
00000000
00000000
,
00001000
00000000
00001000
00000000
,
00010000
00000000
00010000
00000000
,
00100000
00100000
00100000
00000000
,
01000000
00000000
00000000
00000000
,
00010000
00000000
00000000
00000000
,
10000000
00000000
01000000
00000000
,
00010000
00010000
00000000
00000000
,
00002000
00000000
00000000
00003000
,
00020000
00030000
00001000
00000000
,
00020000
00000000
00000000
00030000
,
00001000
00001000
00010000
00000000
,
00011000
00000000
00000000
00000000
,
00001000
00000000
00000010
00000000
,
00000001
00000001
00001000
00000000
,
00001000
00001000
00000002
00000003
,
00000200
00000000
00000000
00000300
,
00000010
00000000
00000010
00000000
,
00001000
00000000
00000001
00000000
,
00000100
00000100
00001000
00000000
,
00010000
00000000
00001000
00000000
,
00010000
00100000
01000000
00000000
,
00010000
00010000
10000000
00000000
,
10000000
10000000
00010000
00000000
,
01000000
01000000
00100000
00100000
,
10000000
00010000
10000000
00000000
,
10000000
00000000
01000000
00000000
,
00010000
00000000
00010000
00001000
,
00000010
00000000
00000010
00000000
,
00000100
00000100
00000100
00000000
,
00001000
00000001
00000100
00000100
,
00000001
00001000
00000100
00000000
,
00001001
00000000
00000000
00000000
,
00000010
00000000
00000000
00000000
,
00000001
00000000
00000100
00000000
,
00001000
00001000
00010000
00000000
,
00010000
00000000
00100000
00000000
,
10000000
10000000
10000000
00000000
,
00010000
00010000
10000000
10000000
,
01000000
00000000
01000000
00000000
,
20020000
00000000
00000000
00000000
,
00000000
00000000
00000000
30030000
,
01000000
00000000
00010000
00000000
,
00000000
00001000
00010000
00001000
,
00001000
00000000
00000010
00000000
,
00000010
00000000
00000001
00000000
,
00001000
00000001
00000100
00000100
,
00001000
00001000
00010000
00001000
,
00011000
00000000
00000000
00000000
;

//---------------dance-double - ----------------
#NOTES:
     dance-double:
     :
     Medium:
     4:
     :
00000000
00000000
00000000
00000000
,
00000000
00000000
00000000
00000000
,
00000000
00000000
00000000
00000000
,
00000000
00000000
00000000
00000000
,
00000000
00000000
00000000
00000000
,
00000000
00000000
00000000
00000000
,
00000000
00000000
00000000
00000000
,
00000000
00000000
00000000
00000000
,
00000000
00000000
00000000
00000000
,
00010000
00010000
01000000
00100000
,
10000000
10000000
10000000
01000000
,
00010000
00010000
00001000
00001000
,
00000010
00000001
00000100
00000000
,
00000010
00000010
00001000
00000001
,
00000100
00001000
00010000
00010000
,
00100000
01000000
00010000
10000000
,
01000000
01000000
01000000
00000000
,
20010000
00000000
01000000
30000000
,
10000000
00100000
00010000
00001000
,
00010000
00010000
00000100
00001000
,
00000010
00000100
00000001
00000000
,
00001000
00000001
00000100
00000010
,
00001000
00000100
00000010
00000001
,
00000100
00000010
00001000
00000001
,
00000010
00001000
00010000
00000000
,
00020000
00000000
00000000
00030000
,
00200000
00000000
00000000
00300000
,
10000000
00010000
01000000
00000000
,
01000000
00100000
00100000
00000000
,
20000000
00000000
00000000
30000000
,
02000000
00000000
00000000
03000000
,
01000000
00010000
00001000
00001000
,
00010000
00000100
00000010
00000001
,
00002000
00000000
00000000
00003000
,
00000001
00000000
00000001
00000000
,
00000010
00000020
00000000
00000030
,
00000100
00000000
00000000
00001000
,
00000001
00000000
00000000
00000000
,
00000001
00000001
00000100
00001000
,
00001000
00010000
00010000
01000000
,
10000000
00000000
00010000
00010000
,
10000000
00000000
00100000
00000000
,
01000000
00000000
00010000
00000000
,
00100000
00000000
01000000
00000000
,
10000000
00000000
00100000
00000000
,
00010000
00010000
00001000
00001000
,
00000010
00000010
00000001
00000001
,
00001000
00000000
00000001
00000000
,
00000001
00000000
00000100
00000000
,
00002001
00000000
00000100
00003000
,
00000100
00000000
00010000
00000000
,
00002000
00000000
00010000
00003000
,
00010000
00100000
10000000
00000000
,
10020000
00000000
01000000
00030000
,
01000000
00000000
00100000
00000000
,
20020000
00000000
00000000
00000000
,
00000000
00000000
00000000
30030000
,
10000000
10000000
01000000
00010000
,
00001000
00001000
00000100
00000001
,
00000010
00000100
00001000
00001000
,
00000010
00000100
00000001
00001000
,
00000002
00000003
00002000
00003000
,
00000020
00000030
00000200
00000300
,
00001000
00010000
00010000
01000000
,
10000000
10000000
00010000
10000000
,
02200000
00000000
00000000
03300000
;

//---------------dance-double - ----------------
#NOTES:
     dance-double:
     :
     Hard:
     6:
     :
00000000
00000000
00000000
00000000
,
00000000
00000000
00000000
00000000
,
00000000
00000000
00000000
00000000
,
00000000
00000000
00000000
00000000
,
00000000
00000000
00000000
00000000
,
00000000
00000000
00000000
00000000
,
00000000
00000000
00000000
00000000
,
00000000
00000000
00000000
00000000
,
00000000
00000000
00000000
00000000
,
00000001
00001000
00000100
00000000
00000100
00000000
00000010
00000000
,
00000001
00000000
00001000
00000000
00000001
00000100
00001000
00000000
,
00000100
00000001
00000010
00001000
,
00010000
00000000
00001000
00010000
00001000
00000000
00000000
00000000
,
00010000
00000000
01000000
00000000
10000000
00000000
00010000
10000000
,
00010000
00100000
01000000
01000000
,
10000000
10000000
00010000
00010000
,
01100000
00010000
10000000
00000000
,
01000000
00000000
00100000
00010000
01000000
00000000
00001000
00000000
,
00010000
00001000
00010000
00000000
00001000
00000000
00000010
00000000
,
00000001
00000000
00001000
00000001
00001000
00000000
00001000
00000000
,
00000010
00000000
00000100
00000001
00000100
00000000
00000000
00000000
,
00000010
00000000
00001000
00000000
00000001
00000100
00001000
00000000
,
00001000
00000000
00010000
00000000
00010000
00100000
10000000
00000000
,
01000000
00000000
01000000
00000000
,
10010000
00000000
01100000
00000000
,
20000000
00000000
00200000
30000000
,
00020000
00300000
00002000
00033000
,
00001000
00000000
00001000
00000000
,
00010000
00000000
00001000
00000000
00000010
00000001
00000100
00000000
,
00000020
00000000
00002000
00000030
,
00000200
00003000
00000020
00000330
,
00000010
00000000
00000010
00000001
00000000
00001000
00000000
00001000
,
00000001
00000100
00001000
00010000
,
00022000
00000000
00000000
00033000
,
00010000
00100000
01000000
00010000
,
10000000
20000000
00000000
30000000
,
00100000
00000000
00000000
00000000
00000000
00100000
00000000
10000000
,
00020000
00000000
00000000
00030000
,
10000000
00000000
10000000
01000000
00010000
00000000
00010000
00000000
,
00001000
00001000
00000010
00000001
,
00000100
00000000
00000010
00000000
00001000
00000000
00001000
00000001
,
00000200
00000000
00000000
00000000
,
00000000
00000000
00000000
00000000
00000000
00000010
00000300
00000002
,
00000000
00000000
00000000
00000000
,
00000000
00000000
00000000
00000003
,
00000001
00000000
00000001
00000100
00000000
00001000
00000000
00010000
,
00000000
00010000
00000000
00100000
01000000
00000000
01000000
00000000
,
10010000
00000000
00100000
01000000
00000000
01000000
00000000
01000000
,
00000000
00100000
00000000
10000000
00010000
00000000
01000000
00000000
,
00200000
00000000
10300000
00000000
00010000
01000000
00010000
00000000
,
00100000
00001000
00000000
00000000
,
00002000
00000000
00013000
00000000
00000010
00001000
00000010
00000000
,
00000100
00000000
00000000
00000000
,
00002000
00000000
00003100
00000000
00000010
00000001
00000100
00000000
,
00000010
00001000
00000000
00000000
,
00000001
00000010
00001000
00010000
,
00001000
00000000
00010000
00000000
00010000
01000000
10000000
00000000
,
10000000
10000000
00010000
00010000
,
00100000
00100000
01000000
01000000
,
10000000
00010000
01000000
00000000
00100000
01000000
00100000
00000000
,
10000000
00000000
10000000
00010000
01000000
00000000
00100000
00000000
,
10000000
01000000
00010000
00010000
,
00001000
00001000
00000100
00000001
,
00001000
00000000
00000001
00000100
00000000
00000100
00000000
00000100
,
00000010
00000000
00001000
00000000
00000001
00000010
00000100
00000000
,
00001001
00000000
00000000
00000000
;
