
//----- song ID: oste -----//
#TITLE:One Step Closer;
#ARTIST:S Club Juniors;
#BANNER:One Step Closer.png;
#BACKGROUND:One Step Closer-bg.png;
#CDTITLE:./CDTITLES/Dancing Stage MegaMiX.png;
#MUSIC:One Step Closer.ogg;
#SAMPLESTART:43.73;
#SAMPLELENGTH:15;
#BPMS:0=126;

//---------------dance-single - ----------------
#NOTES:
     dance-single:
     :
     Beginner:
     1:
     :
0000
0000
0000
0000
,
0000
0000
0000
0000
,
0000
0000
0000
0000
,
0000
0000
0000
0000
,
0000
0000
0000
0000
,
1000
0000
1000
0000
,
0001
0000
1000
0000
,
0001
0000
0001
0000
,
1000
0000
0001
0000
,
1000
0000
0000
0000
,
0001
0000
0100
0000
,
1000
0000
0000
0000
,
0000
0010
0010
0000
,
0001
0000
0000
0000
,
1000
0000
0100
0000
,
0001
0000
0000
0000
,
0010
0010
0010
0000
,
0001
0000
1000
0000
,
0001
0001
0000
0000
,
1000
0000
0001
0000
,
1000
1000
0000
0000
,
0010
0000
0010
0000
,
0100
0100
0100
0000
,
1000
1000
1000
0000
,
0100
0000
0100
0000
,
0001
0001
0001
0000
,
0001
0000
0100
0000
,
0001
0001
0000
0000
,
0001
0000
1000
0000
,
0010
0000
0001
0000
,
0100
0000
1000
0000
,
0001
0001
0001
0000
,
0100
0000
0100
0000
,
1000
1000
1000
0000
,
1000
0000
0100
0000
,
1000
1000
0000
0000
,
1000
0000
0001
0000
,
0010
0000
1000
0000
,
0100
0000
0001
0000
,
1000
1000
1000
0000
,
0100
0000
0100
0000
,
0000
1000
0000
0001
,
0000
1000
0000
1001
;

//---------------dance-single - ----------------
#NOTES:
     dance-single:
     :
     Easy:
     2:
     :
0000
0000
0000
0000
,
0000
0000
0000
0000
,
0000
0000
0000
0000
,
0000
0000
0000
0000
,
0000
0000
0000
0000
,
2000
3000
0000
0000
,
0002
0003
0000
0000
,
0010
0000
0010
0000
,
0100
1000
0001
0000
,
0010
0000
0010
0000
,
0200
0300
0000
0000
,
1000
1000
0000
0000
,
0010
0010
0000
0000
,
0100
0000
0100
0000
,
0020
0030
0000
0000
,
2000
3000
0000
0000
,
0001
0000
0100
0000
,
0200
0300
0000
0000
,
0010
0001
0000
0000
,
0020
0030
0000
0000
,
1000
0100
0000
0000
,
0001
0000
0001
0000
,
1000
0001
1000
0000
,
1001
0000
0000
0000
,
0100
0001
0000
0000
,
0110
0000
0000
0000
,
0010
0000
1000
0000
,
0100
0000
0100
0000
,
0001
1000
0001
0000
,
0020
0030
0000
0000
,
0200
0300
0000
0000
,
1000
0100
0000
0000
,
0001
0000
1000
0000
,
0001
0100
0000
0000
,
0010
0000
0100
0000
,
2002
3003
0000
0000
,
0000
0000
0000
0000
,
0220
0330
0000
0000
,
0000
0000
0000
0000
,
0100
0000
0010
0000
,
0002
0003
0100
0000
,
0001
0000
1000
0000
,
2002
0000
3003
0000
;

//---------------dance-single - ----------------
#NOTES:
     dance-single:
     :
     Medium:
     3:
     :
0000
0000
0000
0000
,
0000
0000
0000
0000
,
0000
0000
0000
0000
,
0000
0000
0000
0000
,
0000
0000
0000
0000
,
0020
0030
1000
0000
,
0200
0300
0001
0000
,
0010
0000
0100
0000
,
1000
0010
0100
0000
,
2000
3100
0002
0013
,
1000
1000
0001
0100
,
0010
0000
0100
0000
,
0001
0000
1000
0100
,
0001
0001
1000
0000
,
0020
1030
0200
0300
,
1000
0001
0001
0010
,
0010
0002
1003
0100
,
0001
0001
0100
0000
0010
0000
0000
0000
,
1000
0000
1000
0000
,
0100
0100
0010
0000
1000
0000
0000
0000
,
0001
0000
0001
0000
,
0010
0001
0010
0001
,
0100
1000
0200
0300
,
0001
1001
0100
0000
,
0010
0002
1003
0001
,
1000
1001
0100
0000
,
1000
0002
1003
0100
,
0020
0030
0200
0300
,
1001
0100
1000
0100
,
0002
0003
2000
3000
,
0010
0001
0100
0000
,
0020
0030
0100
0110
,
0010
0001
0010
1000
,
0002
0003
1000
1001
,
0100
1000
0100
0001
,
2000
0000
0000
3000
,
0020
0000
0000
0030
,
0001
0001
0000
0000
1000
1000
0000
0000
,
1000
0100
0010
0001
,
1000
1001
0100
0000
,
0100
0001
0100
1000
,
0002
0000
0003
0000
0200
0000
0300
0020
,
0000
0030
1000
1001
;

//---------------dance-single - ----------------
#NOTES:
     dance-single:
     :
     Hard:
     4:
     :
0000
0000
0000
0000
,
0000
0000
0000
0000
,
0000
0000
0000
0000
,
0000
0000
0000
0000
,
0000
0000
0000
0000
,
0020
0030
0001
0100
,
2000
3000
0100
0001
,
0010
1000
0100
0000
0010
0001
0100
0000
,
1000
0000
0001
0000
0010
0100
0000
0000
,
2000
3001
0100
0000
,
0010
0010
0001
0000
1000
0000
0100
0000
,
0001
0100
0020
0030
,
2000
3000
0002
0003
,
1000
0020
0130
0000
,
1000
1000
0100
0000
0002
0000
0103
0000
,
1000
0001
0100
0000
0010
1000
0001
0000
,
0100
1000
0100
0001
,
2000
0010
0100
3000
,
0200
0010
1000
0300
,
0001
0001
1000
1000
,
0010
0002
2000
3003
,
0001
1000
0100
0000
1000
0000
1100
0000
,
0010
0001
0100
0000
0100
0000
0101
0000
,
0010
0100
0220
0330
,
0010
0001
0010
1000
,
0001
1000
2002
3003
,
0010
2000
3100
0002
,
0013
0200
1300
0010
,
0001
0100
0001
0000
1000
0000
0100
0000
,
0002
0003
0200
0300
,
0010
1000
0100
0010
0001
1000
0100
0000
,
0001
1000
2002
3003
,
0010
0001
0010
0000
0100
1000
0001
0000
,
0200
0001
0310
0100
,
0002
1000
0103
0010
,
0200
0000
0000
0300
,
0010
0011
1000
1001
,
0010
0001
1000
0100
,
0010
0001
0100
0010
1000
0100
0010
0000
,
0100
0010
0220
0330
,
2000
3010
0002
0103
,
0001
0100
0100
0000
1000
0000
0001
0200
,
0000
0300
0001
0000
0010
0000
0110
0000
;

//---------------dance-double - ----------------
#NOTES:
     dance-double:
     :
     Easy:
     2:
     :
00000000
00000000
00000000
00000000
,
00000000
00000000
00000000
00000000
,
00000000
00000000
00000000
00000000
,
00000000
00000000
00000000
00000000
,
00000000
00000000
00000000
00000000
,
00000000
00000000
00000000
00000000
,
00000000
00000000
00000000
00000000
,
00000000
00000000
00000000
00000000
,
00000000
00000000
00000000
00000001
,
00001000
00001000
00000000
00000000
,
00000001
00000000
00000001
00000000
,
00000001
00000001
00001000
00000000
,
00000000
00000000
00000000
00000000
,
00000001
00000100
00000000
00000000
,
00000100
00001000
00010000
00010000
,
00001000
00001000
00010000
00000000
,
00010000
00100000
01000000
00000000
,
10010000
00000000
01000000
00000000
,
01000000
01000000
00000000
00000000
,
10000000
00000000
00010000
00000000
,
01000000
01000000
01000000
00000000
,
10010000
00000000
01000000
00000000
,
00010000
00010000
00010000
00000000
,
00010000
00001000
00010000
00001000
,
00001000
00000000
00000000
00000000
,
00000001
00000001
00001000
00001000
,
00001001
00000000
00000000
00000000
,
00000020
00000030
00000200
00000300
,
00000002
00000003
00002000
00003000
,
00000001
00000001
00000100
00001000
,
00001000
00010000
00010000
00000000
,
00011000
00000000
00000000
00000000
,
00010000
00100000
10000000
01000000
,
01000000
00000000
01000000
00000000
,
00100000
00100000
00100000
00000000
,
10010000
00000000
01000000
00100000
,
00020000
00000000
01000000
01030000
,
00100000
00100000
10000000
01000000
,
10010000
10010000
10010000
00000000
,
02000000
03000000
00020000
00030000
,
00002000
00003000
00000000
00010000
,
00010000
00001000
00001000
00000010
,
00000100
00001000
00000001
00000100
;

//---------------dance-double - ----------------
#NOTES:
     dance-double:
     :
     Medium:
     3:
     :
00000000
00000000
00000000
00000000
,
00000000
00000000
00000000
00000000
,
00000000
00000000
00000000
00000000
,
00000000
00000000
00000000
00000000
,
00000000
00000000
00000000
00000000
,
00000000
00000000
00000000
00000000
,
00000000
00000000
00000000
00000000
,
00000000
00000000
00000000
00000000
,
00000000
00000000
00000000
00010000
,
10010000
00000000
01000000
00000000
,
00100000
10000000
00010000
01000000
,
01000000
00100000
10000000
01000000
,
00010000
00001000
00001000
00010000
,
00011000
00000000
00000100
00000000
,
00000010
00000001
00001000
00000100
,
00000010
00000010
00000001
00000000
,
00001000
00000010
00000100
00000000
,
00000001
00000001
00000100
00001000
,
00001000
00020000
00000000
00030000
,
00000000
00001000
00010000
00010000
,
00100000
01000000
00100000
01000000
,
00020000
00000000
10000000
10030000
,
01000000
01000000
01000000
01000000
,
10010000
00000000
01000000
01000000
,
00100000
00010000
01000000
10000000
,
10010000
00000000
01000000
00010000
,
00001000
00001000
00010000
00010000
,
00001000
00000100
00000001
00000010
,
00000200
00000300
00002000
00003001
,
00000010
00000000
00000010
00000010
,
00000001
00000001
00001000
00001000
,
00001001
00000001
00000100
00000100
,
00001000
00010000
00100000
01000000
,
10010000
10000000
00010000
01000000
,
00100000
00100000
10000000
01000000
,
00010000
00010000
00001000
00000010
,
00000001
00000100
00000010
00000010
,
00002000
00003000
00000002
00000003
,
00000010
00000010
00000200
00000300
,
00001001
00000010
00000100
00001000
,
00010000
00000000
00100000
00000000
01000000
00000000
00010000
10000000
,
00000000
00000000
00100000
01000000
00000000
00000000
10000000
00010000
,
00000000
00000000
00100000
01000000
10000000
00000000
00010000
00000000
;

//---------------dance-double - ----------------
#NOTES:
     dance-double:
     :
     Hard:
     4:
     :
00000000
00000000
00000000
00000000
,
00000000
00000000
00000000
00000000
,
00000000
00000000
00000000
00000000
,
00000000
00000000
00000000
00000000
,
00000000
00000000
00000000
00000000
,
00000000
00000000
00000000
00000000
,
00000000
00000000
00000000
00000000
,
00000000
00000000
00000000
00000000
,
00000000
00000000
00000000
00000010
,
00000010
00001001
00000000
00000000
,
00000001
00000000
00000001
00000000
00000001
00000100
00001000
00000000
,
00001000
00010000
00010000
00100000
,
01000000
00000000
01000000
00000000
00010000
10000000
00010000
00000000
,
00100000
10010000
00000000
00000000
,
10000000
00010000
01000000
00100000
,
10000000
00000000
10000000
00000000
00010000
10000000
01000000
00000000
,
01000000
00000000
00010000
00000000
00001000
00000100
00000001
00000000
,
00001100
00000000
00000001
00000000
00001000
00000001
00000100
00000000
,
00000010
00000000
00000010
00000000
00001000
00000001
00001000
00000000
,
00000010
00000100
00000001
00001000
,
00000001
00000010
00001000
00010000
,
00100000
01000000
00010000
00000000
10000000
01000000
00100000
00000000
,
00010000
01000000
00010000
01000000
00100000
10000000
01000000
00000000
,
10010000
01000000
01000000
00100000
,
20020000
00000000
00000000
30030000
,
00100000
00000000
00100000
00000000
10000000
01000000
00010000
00000000
,
00001000
00000000
00000010
00000000
00000001
00001000
00000001
00000000
,
00000020
00000100
00000001
00000130
,
00000002
00000100
00001000
00000103
,
00000010
00000010
00001000
00001000
,
00000001
00000100
00001000
00000000
00010000
00000000
01000000
00000000
,
10010000
00000000
00100000
00000000
01000000
00010000
10000000
00000000
,
00100000
00000000
00100000
00100000
,
10010000
01000000
00010000
00001000
,
00000100
00000000
00000001
00000000
00001000
00000001
00001000
00000000
,
00000020
00000100
00001000
00000130
,
00000200
00000001
00000010
00000301
,
00000010
00000010
00000001
00001000
,
00000020
00000100
00000100
00000130
,
00000001
00000000
00000100
00000000
00001000
00010000
01000000
00000000
,
10000000
00000000
00010000
00000000
00100000
00000000
00010000
01000000
,
10000000
00000000
10000000
01000000
00010000
00000000
00001000
00000010
,
00000000
00001000
00000001
00000000
00000110
00000000
00001001
00000000
;
