
//----- song ID: alit -----//
#TITLE:A Little Less Conversation (Elvis vs JXL);
#ARTIST:Elvis vs JXL;
#BANNER:A Little Less Conversation (Elvis vs JXL).png;
#BACKGROUND:A Little Less Conversation (Elvis vs JXL)-bg.png;
#CDTITLE:./CDTITLES/Dancing Stage MegaMiX.png;
#MUSIC:A Little Less Conversation (Elvis vs JXL).ogg;
#SAMPLESTART:62.609;
#SAMPLELENGTH:15;
#BPMS:0=115;

//---------------dance-single - ----------------
#NOTES:
     dance-single:
     :
     Beginner:
     1:
     :
0000
0000
0000
0000
,
0000
0000
0000
0000
,
0000
0000
0000
0000
,
0010
0000
0100
0000
,
0010
0000
0100
0000
,
0001
0001
0000
0000
,
0001
0001
0000
0000
,
1000
1000
0000
0000
,
0010
0000
0000
0000
,
0001
0000
0000
0001
,
0001
0000
0000
1000
,
1000
0000
0000
1000
,
0000
0000
0000
0000
,
0001
0000
1000
0000
,
0100
0100
0000
0000
,
1000
0000
0001
0000
,
0001
0001
0000
0000
,
1000
0000
0001
0000
,
0010
0000
0100
0000
,
0001
0001
0001
0000
,
1000
1000
1000
0000
,
0001
0000
1000
0000
,
1001
0000
0000
0000
,
0000
0000
0000
0000
,
0010
0000
0100
0000
,
0010
0000
0100
0000
,
0010
0010
0000
0000
,
0010
0010
0000
0000
,
0010
0010
0000
0000
,
0010
0010
0000
0000
,
0001
0000
0100
0000
,
0001
0000
0100
0000
,
1000
0000
0100
0000
,
1000
0000
0100
0000
,
1000
0000
0001
0000
,
0100
0100
0000
0000
,
0001
0000
1000
0000
,
1000
1000
0000
0000
,
0001
0000
1000
0000
,
0010
0000
0100
0000
,
1000
1000
1000
0000
,
0001
0001
0001
0000
,
1000
0000
0001
0000
,
1001
0000
0000
0000
;

//---------------dance-single - ----------------
#NOTES:
     dance-single:
     :
     Easy:
     2:
     :
0000
0000
0000
0000
,
0000
0000
0000
0000
,
0000
0000
0000
0000
,
0000
0000
0000
0000
,
0000
0000
0000
0000
,
0100
0000
0000
0000
,
0002
0003
0000
0000
,
0100
0000
0000
0000
,
2000
3000
0000
0000
,
0020
0030
0000
0000
,
1000
0001
0000
0000
,
0100
0100
0000
0000
,
0010
0000
1000
0000
,
1001
0000
0001
0000
,
1000
0001
0100
0000
,
0001
0001
0000
0000
,
1000
1000
0000
0000
,
0020
0000
0030
0000
,
0200
0000
0300
0000
,
0001
0000
1000
0000
,
1001
0000
0000
0000
,
0110
0000
0000
0000
,
0010
0000
0000
0000
,
0020
0030
0000
0000
,
1000
0000
0000
0000
,
0002
0003
0000
0000
,
1000
1000
0000
0000
,
0100
0100
0000
0000
,
0001
0001
0000
0000
,
0010
0010
0000
0000
,
2002
3003
0000
0000
,
0001
1000
0010
0000
,
0001
0001
0000
0000
,
1000
1000
0000
0000
,
0020
0030
0010
0000
,
0200
0300
0100
0000
,
0001
0000
1000
0000
,
1001
0000
0000
0000
,
0000
0000
0000
0000
,
1000
0000
0001
0000
,
0010
0010
1000
0000
,
0100
0100
0001
0000
,
0100
0000
0010
0000
,
0220
0330
0000
0000
;

//---------------dance-single - ----------------
#NOTES:
     dance-single:
     :
     Medium:
     3:
     :
0000
0000
0000
0000
,
0000
0000
0000
0000
,
0000
0000
0000
0000
,
0000
0000
0000
0000
,
0000
0000
0000
0000
,
0001
0001
0000
0010
,
1000
0100
0000
0001
,
1000
1000
0000
0100
,
0010
0001
1000
0001
,
2002
3003
0000
1001
,
0220
0330
0000
0110
,
0001
0100
1000
0010
,
0001
1000
1001
0000
,
0002
0103
1000
0100
,
1000
0010
0000
0000
,
0200
0301
0100
1000
,
0001
0010
0000
0000
,
0010
0001
0010
0100
,
0010
1000
0010
0100
,
0002
0003
0200
0300
,
1000
0001
1001
0000
,
2002
3003
0000
0000
,
1000
1000
0100
0010
,
0001
0001
0010
0100
,
1000
0100
0010
0001
,
0001
0010
0100
0000
,
0002
0103
0000
0100
,
0020
1030
0000
1000
,
0200
0301
0000
0001
,
0020
0130
0000
0000
,
0001
0001
1000
1000
,
0001
1000
0100
0000
,
0020
0130
2000
3100
,
0002
0013
2000
3100
,
0002
0003
1000
0100
,
2000
3000
0001
0100
,
0001
0000
1000
0000
,
1000
0010
0001
0000
,
2000
3001
0002
0013
,
0020
0130
0200
1300
,
1000
0100
0001
0100
,
1000
0100
0000
0010
,
0001
0100
0010
1000
,
0220
0000
0330
0000
;

//---------------dance-single - ----------------
#NOTES:
     dance-single:
     :
     Hard:
     4:
     :
0000
0000
0000
0000
,
0000
0000
0000
0000
,
0000
0000
0000
0000
,
0000
0000
0000
0000
,
0000
0000
0000
0000
,
2000
0000
3100
0000
0001
0100
0001
0000
,
0020
0000
1030
0000
0100
0010
0100
0000
,
0001
0002
1003
1000
,
0001
0010
0001
0000
1000
0010
0100
0000
,
2000
0000
3100
0000
0010
0100
0001
0000
,
0200
0301
0020
1030
,
0001
0001
0010
1000
,
2002
0000
3003
0000
,
1002
0003
0010
0100
,
0120
0030
1000
0001
,
0010
1000
0100
0001
,
0100
1000
0010
0001
,
2000
0000
3100
0000
0010
0001
0100
0000
,
0001
0001
0100
0000
1000
1000
0100
0000
,
0020
0031
0200
1300
,
0001
0010
0000
0001
,
2000
3002
2003
3002
,
0203
0000
0300
0000
,
0001
0010
0100
0000
1000
0000
0100
0000
,
1000
0001
0100
0000
0001
0010
0100
0000
,
1000
0100
1000
0000
0001
1000
0100
0010
,
0001
0100
0002
0000
0003
0000
0100
0000
,
1000
0010
0200
0000
0300
0000
1000
0000
,
0100
0010
0002
0000
0003
0000
0100
0000
,
1000
0002
2000
0000
3003
0000
0000
0000
,
1000
0010
0200
0000
0300
0001
0100
0000
,
0001
1000
0200
0000
0300
0010
0001
0000
,
1000
0000
0001
0000
1000
0001
0100
0000
,
0010
0010
0001
0000
0100
0100
1000
0000
,
2001
3000
0100
0010
,
0210
0300
0001
1000
,
0100
0100
0001
0000
0010
0000
1000
0000
,
0010
0010
1000
0000
0100
0000
0000
0000
,
0100
1001
0100
1001
,
0010
1001
0100
1001
,
0001
0100
0001
0010
0100
0000
0001
0000
,
0010
0010
1000
0001
,
2000
3010
0002
0103
,
0220
0000
0330
0000
;

//---------------dance-double - ----------------
#NOTES:
     dance-double:
     :
     Easy:
     2:
     :
00000000
00000000
00000000
00000000
,
00000000
00000000
00000000
00000000
,
00000000
00000000
00000000
00000000
,
00000000
00000000
00000000
00000000
,
00000000
00000000
00000000
00000000
,
00010000
00000000
00000000
00000000
,
10000000
00000000
00000000
00000000
,
10000000
00000000
10000000
00000000
,
00010000
00000000
00000000
00000000
,
10010000
00000000
01000000
00010000
,
00001000
00000000
00001000
00001000
,
00000010
00000000
00000001
00000000
,
00000100
00000100
00000100
00000000
,
00001001
00000000
00000100
00000100
,
00000010
00000000
00000001
00000000
,
00000100
00000100
00001000
00000000
,
00001000
00001000
00010000
00000000
,
00011000
00000000
00010000
00010000
,
00100000
01000000
00100000
00000000
,
01000000
00000000
00010000
10000000
,
02000000
00000000
03000000
00010000
,
00002000
00000000
00003000
00000000
,
00011000
00000000
00001000
00001000
,
00001000
00000000
00000010
00000010
,
00000010
00000000
00000100
00000000
,
00001000
00000001
00000100
00001000
,
00011000
00000000
00000000
00000000
,
00010000
00010000
00001000
00001000
,
00010000
01000000
10000000
10000000
,
00010000
00010000
00010000
00000000
,
10010000
00000000
01000000
00000000
,
01000000
00010000
00010000
00000000
,
00001000
00001000
00000100
00000100
,
00000001
00000001
00000001
00001000
,
00001000
00000000
00000001
00000000
,
00000010
00000010
00000100
00000000
,
00000001
00000100
00001000
00001000
,
00010000
00010000
00001000
00000000
,
00022000
00000000
00000000
00033000
,
00020000
00030000
00200000
00300000
,
02000000
00000000
00010000
03010000
,
00020000
00000000
00000000
10030000
,
20000000
00000000
00000000
30000000
,
01100000
00000000
00000000
00000000
;

//---------------dance-double - ----------------
#NOTES:
     dance-double:
     :
     Medium:
     3:
     :
00000000
00000000
00000000
00000000
,
00000000
00000000
00000000
00000000
,
00000000
00000000
00000000
00000000
,
00000000
00000000
00000000
00000000
,
00000000
00000000
00000000
00000000
,
00000001
00000001
00000001
00000001
,
00001000
00001000
00001000
00001000
,
00000010
00000010
00000100
00000100
,
00000001
00000000
00001000
00000000
00000001
00000100
00001000
00000000
,
00011000
00010000
01000000
10000000
,
01000000
00010000
01000000
10000000
,
00100000
00100000
00010000
00010000
,
00002000
00000000
00010000
00013000
,
00001100
00000010
00000001
00000001
,
00001000
00001000
00000010
00000000
,
00000100
00000100
00000001
00000001
,
00000010
00000100
00000000
00000000
,
00011000
00100000
01000000
00010000
,
10000000
10000000
00100000
01000000
,
00010000
00010000
00100000
01000000
,
10000000
10000000
10000000
10000000
,
00100000
00100000
00100000
00100000
,
10010000
00000000
00100000
00000000
10000000
01000000
00010000
00000000
,
00001000
00001000
00010000
00000100
,
00000010
00000010
00000001
00000001
,
00000100
00000000
00000010
00000000
00001000
00000001
00001000
00000000
,
00002002
00000000
00000000
00003003
,
00000010
00000010
00000010
00000010
,
00000100
00000100
00000001
00001000
,
00000001
00000000
00000100
00000000
00001000
00010000
00001000
00000000
,
00011000
00010000
00100000
10000000
,
00010000
00010000
10000000
10000000
,
00100000
01000000
00010000
00010000
,
00100000
01000000
10000000
10000000
,
00100000
00100000
00010000
00010000
,
00001000
00001000
00000010
00000000
,
00000001
00001000
00000010
00000100
,
00000001
00001000
00001000
00001000
,
00002002
00000003
00000200
00003300
,
00002002
00003000
00000200
00000303
,
00001000
00010000
01000000
10000000
,
00200000
01000000
01000000
01300000
,
20010000
01000000
31000000
00100000
,
20020000
00000000
00000000
30030000
;

//---------------dance-double - ----------------
#NOTES:
     dance-double:
     :
     Hard:
     7:
     :
00000000
00000000
00000000
00000000
,
00000000
00000000
00000000
00000000
,
00000000
00000000
00000000
00000000
,
00000000
00000000
00000000
00000000
,
00000000
00000000
00000000
00000000
,
00100000
10000000
01000000
00000000
01000000
00000000
01000000
00000000
,
00010000
00001000
00000100
00000000
00000001
00000000
00000001
00000000
,
00000010
00000100
00001000
00000001
,
00000010
00000100
00001000
00000001
00000100
00001000
00010000
00000000
,
01100000
00000000
10000000
00000000
00010000
00100000
01000000
00000000
,
10010000
00000000
00100000
00000000
01000000
00010000
00100000
00000000
,
11000000
00000000
00100000
00000000
00010000
00001000
00000010
00000000
,
00000001
00001000
00000010
00000100
00000001
00000010
00000100
00000000
,
00001100
00000000
00000001
00000000
00000001
00001000
00000001
00000010
,
00000100
00000100
00000100
00001000
,
00000001
00000100
00001000
00000000
00010000
01000000
10000000
00000000
,
10000000
00100000
01000000
00000000
00010000
00000000
00010000
00000000
,
20010000
00000000
31000000
00000000
00100000
00010000
01000000
00000000
,
10020000
00000000
01030000
00000000
00100000
10000000
01000000
00000000
,
00010000
00001000
00010000
00000100
00000010
00000001
00000100
00000010
,
00001000
00000020
00000000
00000100
,
00000200
00000000
00000000
00000330
,
00001100
00000000
00000001
00000010
00000100
00001000
00000010
00000000
,
00000101
00000000
00001000
00000001
00000100
00001000
00010000
00000000
,
01001000
00000000
00010000
00100000
01000000
10000000
00010000
00000000
,
01100000
00000000
01000000
00000000
01000000
00100000
01000000
00000000
,
10010000
00000000
00000000
00000000
00100000
01000000
00000000
00000000
00000000
00000000
00000000
00000000
00011000
00000000
00000000
00000000
,
00000000
00000000
00000000
00000000
00001000
00000100
00000000
00000000
00000000
00000000
00000000
00000000
00000110
00000000
00000000
00000000
,
00000000
00000000
00000000
00000000
00000001
00001000
00000000
00000000
00000000
00000000
00000000
00000000
00000110
00000000
00000000
00000000
,
00000001
00001000
00000010
00000100
00000001
00000010
00000100
00000000
,
00010100
00001000
01000000
00100000
,
10000000
00010000
10000000
00000000
01000000
00000000
01000000
00000000
,
00100000
00010000
01000000
00000000
00100000
10000000
01000000
00000000
,
00010000
00001000
00000100
00000001
00000010
00000001
00001000
00001001
,
00000000
00000100
00000010
00000000
00000010
00000001
00000100
00000000
,
00000001
00001000
00000001
00000000
00000001
00000000
00000001
00000000
,
00000001
00000100
00001000
00000000
00001000
00100000
01000000
00000000
,
10000000
00010000
00100000
01000000
00100000
00010000
10000000
00000000
,
02100000
03020000
00230000
02300000
,
23000000
30200000
00320000
00032000
,
00003010
00000001
00000100
00000000
00000010
00001000
00000001
00001000
,
00000010
00000100
00000000
00000000
00000000
00000000
00000001
00000100
,
00001000
00010000
01000000
00000000
10000000
00000000
10000000
00000000
,
02200000
00000000
00000000
03300000
;
