
//----- song ID: yous -----//
#TITLE:You Sexy Thing;
#ARTIST:Hot Chocolate;
#BANNER:You Sexy Thing.png;
#BACKGROUND:You Sexy Thing-bg.png;
#CDTITLE:./CDTITLES/Dancing Stage Max.png;
#MUSIC:You Sexy Thing.ogg;
#SAMPLESTART:35.441;
#SAMPLELENGTH:15;
#DISPLAYBPM:106;
#BPMS:0=106.35,24=106.47,40=106.51,56=106.01,88=106.51,104=106.49,136=106.55,152=106.31;
#BGCHANGES:5.75=You Sexy Thing.avi=1=1=0=0;

//---------------dance-single - ----------------
#NOTES:
     dance-single:
     :
     Beginner:
     1:
     :
0000
0000
0000
0000
,
0000
0000
0000
0000
,
0010
0000
0100
0000
,
0010
0000
0100
0000
,
0100
0000
0010
0000
,
0010
0000
0001
0000
,
1000
1000
1000
0000
,
0001
0000
0000
0000
,
0001
0001
0001
0000
,
1000
0000
0000
0000
,
0010
0000
0000
1000
,
1000
0000
0000
0100
,
0100
0000
0000
0001
,
0001
0000
0000
0000
,
1000
0000
0010
0000
,
0100
0000
0001
0000
,
1001
0000
0000
0001
,
0001
0000
0000
0000
,
0001
0000
0100
0000
,
0010
0000
1000
0000
,
1001
0000
0000
1000
,
1000
0000
0000
0000
,
0100
0000
0000
0001
,
0001
0000
0000
0010
,
0010
0000
0000
1000
,
1000
0000
0000
0000
,
0001
0000
0000
0100
,
0100
0000
0000
0010
,
0010
0000
0000
1000
,
1000
0000
0000
0000
,
0001
0000
1000
0000
,
0001
0000
1000
0000
,
0010
0000
1000
0000
,
0010
0000
0100
0000
,
0001
0000
0100
0000
,
0001
0000
1000
0000
,
0010
0000
0100
0000
,
0002
0000
0000
0003
,
0001
0000
0010
0000
,
0100
0000
1000
0000
,
1001
0000
0000
0001
,
0001
0000
0000
0000
,
1000
0000
0100
0000
,
0010
0000
0001
0000
,
1001
0000
0000
1000
,
1000
0000
0000
0000
,
1001
0000
0000
0000
;

//---------------dance-single - ----------------
#NOTES:
     dance-single:
     :
     Easy:
     3:
     :
0000
0000
0000
0000
,
0000
0000
0000
0000
,
1000
0001
1000
0001
,
1000
0100
0010
0000
,
1000
0001
1000
0001
,
0100
0010
1000
0000
,
1000
0000
0010
0000
,
1000
0100
1000
0100
,
0010
0000
0001
0000
,
0001
0100
0001
0100
,
0010
0000
1000
0001
,
1001
0000
0000
0010
,
0100
0000
0001
1000
,
1001
0000
0000
0000
,
0001
0010
0100
1000
,
0001
0000
0100
0010
,
0110
0000
0000
1000
,
1001
0000
0000
0000
,
1000
0100
0010
0001
,
1000
0000
0010
0100
,
0110
0000
0000
0001
,
1001
0000
0000
0100
,
0010
0000
0001
1000
,
1001
0000
0000
0010
,
0100
0000
1000
0001
,
1001
0000
0000
0000
,
1000
0100
0010
0000
,
0100
0010
0001
0000
,
0010
0001
0100
0000
,
0001
0100
1000
0000
,
0200
0000
0000
0300
,
0020
0000
0000
1030
,
2000
0000
0000
3000
,
0002
0000
0000
0103
,
0200
0300
0020
0030
,
2000
3000
0002
0003
,
1000
0001
1000
0001
,
0100
0010
0100
0000
,
1000
0100
0010
0001
,
1000
0000
0010
0100
,
0110
0000
0000
0001
,
1001
0000
0000
0000
,
0001
0010
0100
1000
,
0001
0000
0100
0010
,
0110
0000
0000
1000
,
1001
0000
0000
0000
,
0220
0000
0000
0330
;

//---------------dance-single - ----------------
#NOTES:
     dance-single:
     :
     Medium:
     5:
     :
0000
0000
0000
0000
,
0000
0000
0000
0000
,
0001
0100
0001
0010
,
0001
0000
1000
0000
0010
1000
0010
0000
,
0100
0001
0100
1000
,
0100
0000
0010
0000
1000
0100
1000
0000
,
0010
0001
0100
0000
0010
1000
0100
0000
,
1000
0100
0001
0100
,
1000
0010
0100
0000
0001
0100
0010
0000
,
1000
0010
0001
0010
,
1000
0000
0000
0000
0001
1000
0001
0000
,
0110
0000
0000
0101
,
1100
0000
0000
0000
0100
0010
0100
0000
,
1001
0000
0000
0000
,
0001
1000
0001
0000
0010
0000
0001
0000
,
1000
0000
0100
0000
0010
0000
0100
1000
,
0100
0000
0010
0000
0001
0000
0010
0001
,
0010
0100
0010
0001
,
0100
0010
0100
0000
0010
0000
1000
0000
,
0100
0000
0010
0000
0001
0000
1000
0001
,
1000
0000
0100
0000
1000
0000
0100
0001
,
0100
0000
0000
0000
,
0010
0000
0000
0000
0100
0010
0100
0000
,
1001
0000
0000
1100
,
0101
0000
0000
0000
0001
1000
0001
0000
,
0110
0000
0000
0000
,
0001
1000
0010
0100
,
0001
0000
1000
0000
0010
0100
0010
0000
,
0100
0001
0100
1000
,
0100
0000
0001
0000
1000
0010
1000
0000
,
0200
0000
0000
0000
0000
0000
0310
0001
,
0200
0000
0000
0000
0000
0000
0301
1000
,
0020
0000
0000
0000
0000
0000
1030
0001
,
0200
0000
0000
0000
0000
0000
0310
1000
,
0100
0010
0001
0000
,
0010
0100
1000
0000
,
0100
0100
0010
0000
0001
0000
0001
0000
,
0010
0010
0100
0000
1000
0000
0001
0000
,
1000
0100
1000
0000
0100
0000
0010
0000
,
0100
0000
0001
0000
0100
0000
1000
0010
,
1000
0000
0001
0000
0010
0000
0001
1000
,
0001
0010
0100
1000
,
0100
1000
0100
0000
0010
0000
0100
0000
,
0001
0000
0010
0000
1000
0000
0100
1000
,
0100
0000
1000
0000
0001
0000
1000
0001
,
1000
0000
0000
0000
,
0220
0000
0000
0330
;

//---------------dance-single - ----------------
#NOTES:
     dance-single:
     :
     Hard:
     7:
     :
0000
0000
0000
0000
,
0000
0000
0000
0000
,
0001
0000
0000
0000
1000
0000
0000
0100
0010
0000
0001
0000
1000
0000
1001
0000
,
1001
0000
0000
0000
0000
0000
0000
0001
1000
0000
0010
0000
0100
0000
0110
0000
,
0110
0000
0000
0000
0000
0000
0000
0010
0100
0000
0001
0000
1000
0000
1001
0000
,
1001
0110
0000
0000
,
1000
0010
0100
0000
0010
0010
0010
0000
,
1100
1010
0101
1001
,
0001
0100
0010
0000
0100
0100
0100
0000
,
0011
0101
1100
1001
,
0002
0000
0013
0000
0100
1000
0001
0010
,
0200
0010
0010
1300
,
2000
0000
3010
0000
0100
0001
1000
0100
,
0020
0100
0100
0031
,
0100
0000
0010
0000
1000
0000
0100
0000
0010
0001
0010
0000
0000
0000
0000
0000
,
0200
0000
0010
0000
0310
0000
1000
0100
,
0001
0000
0000
0000
0110
0000
0000
0000
0000
0000
0010
0000
0001
0000
1000
0001
,
0000
0100
0110
0110
,
1000
0000
0100
0000
0010
0000
0001
0000
0100
0010
0100
0000
0000
0000
0000
0000
,
0002
0000
0100
0000
0103
0000
0010
1000
,
0100
0000
0000
0000
1001
0000
0000
0000
0000
0000
1000
0000
0100
0000
0010
0100
,
0000
1000
0101
1100
,
0002
0000
0013
0000
0100
1000
0001
0010
,
0200
0010
0010
1300
,
2000
0000
3010
0000
0100
0001
1000
0100
,
0020
0100
0100
0031
,
1000
0010
0100
0000
0010
0100
0001
0000
,
0010
0001
0100
0000
1010
0000
0011
0000
,
0100
0010
0001
0000
0010
0001
0100
0000
,
0010
1000
0100
0000
0101
0000
1100
0000
,
0001
0010
1000
0010
0001
0100
0010
0001
,
0010
1000
0200
0000
0010
0000
0310
0000
,
0001
0100
0001
0010
1000
0010
0001
0100
,
0001
1000
0020
0000
0100
0000
0130
0000
,
1000
0010
0100
0001
1000
0100
0110
0000
,
0100
1000
0010
0001
0010
1000
0101
0000
,
0001
1000
1001
0000
0010
0100
0110
0000
,
1000
0100
0010
0001
1000
0101
1100
0000
,
0100
0000
1000
0000
0001
0000
0010
0000
0100
1000
0100
0000
0000
0000
0000
0000
,
0020
0000
0001
0000
0031
0000
1000
0100
,
0010
0000
0000
0000
1001
0000
0000
0000
0000
0000
0001
0000
0010
0000
0100
0010
,
0000
0100
1001
0110
,
0010
0000
0001
0000
0100
0000
1000
0000
0100
0010
0100
0000
0000
0000
0000
0000
,
0020
0000
1000
0000
1030
0000
0001
1000
,
0100
0000
0000
0000
1001
0000
0000
0000
0000
0000
1000
0000
0001
0000
0100
0001
,
0000
0010
1010
0110
,
2002
0000
0000
3003
;

//---------------dance-double - ----------------
#NOTES:
     dance-double:
     :
     Easy:
     4:
     :
00000000
00000000
00000000
00000000
,
00000000
00000000
00000000
00000000
,
00001000
00010000
01000000
00010000
,
01000000
00000000
00010000
00001000
,
00010000
00000000
00000100
00000001
,
00000010
00000000
00001000
00010000
,
01000000
00000000
10000000
00000000
,
00100000
00000000
10000000
01000000
,
00010000
00000000
00001000
00000000
,
00010000
00000000
00001000
00000100
,
00000001
00000000
00000100
00001000
,
00020000
00000000
00000000
00031000
,
00011000
00000000
00001000
00010000
,
02000000
00000000
00000000
03000000
,
10000000
01000000
10000000
01000000
,
00010000
00001000
00010000
00001000
,
00000100
00000000
00000001
00000000
,
00000100
00000000
00000110
00000000
,
00000001
00000100
00000001
00000100
,
00001000
00010000
00001000
00010000
,
01000000
00000000
10000000
00000000
,
00100000
00000000
00011000
00000000
,
00001000
00000000
00010000
00010000
,
00020000
00000000
00000000
00031000
,
00011000
00000000
00001000
00001000
,
00002000
00000000
00000000
00003000
,
00000100
00000001
00000010
00000000
,
00000010
00000001
00000100
00001000
,
00010000
01000000
10000000
00000000
,
00100000
00010000
10000000
01000000
,
00020000
00000000
00000000
00031000
,
00011000
00000000
00001000
00001000
,
00002000
00000000
00000000
00013000
,
00011000
00000000
00001000
00000100
,
00000001
00000000
00000100
00000000
,
00001000
00010000
00100000
00000000
,
10000000
01000000
00010000
00000000
,
00001000
00010000
01000000
00010000
,
00001000
00000100
00000001
00001000
,
00000100
00000010
00000100
00000010
,
00000002
00000000
00000000
00000103
,
00000101
00000000
00001000
00000000
,
00010000
01000000
10000000
00100000
,
00010000
00001000
00000010
00001000
,
00020000
00000000
00000000
00031000
,
00011000
00000000
00010000
01000000
,
20000000
00000000
00000000
30000000
;

//---------------dance-double - ----------------
#NOTES:
     dance-double:
     :
     Medium:
     5:
     :
00000000
00000000
00000000
00000000
,
00000000
00000000
00000000
00000000
,
00000110
00000001
00000100
00000001
,
00000100
00000000
00001000
00000000
00010000
00001000
00010000
00000000
,
01000000
10000000
01000000
00100000
,
00010000
00000000
01000000
00000000
00100000
01000000
00100000
00000000
,
10000000
01000000
00010000
00000000
01000000
00010000
00001000
00000000
,
00000100
00000001
00001000
00000001
,
00000001
00000100
00001000
00000000
00000100
00001000
00010000
00000000
,
01000000
10000000
00010000
10000000
,
01100000
00000000
00000000
00000000
01000000
00010000
00001000
00000000
,
00011000
00000000
00000000
00001100
,
00000110
00000000
00000000
00000000
00000010
00000001
00000100
00000000
,
00001001
00000000
00000000
00000000
,
00000010
00001000
00000001
00000100
00002000
00000000
00003000
00000000
,
00010000
00000000
00001000
00000000
00010000
00000000
01000000
10000000
,
01000000
00000000
00100000
00000000
00010000
00000000
00100000
10000000
,
00100000
01000000
00010000
01000000
,
00010000
00001000
00010000
00001000
00000200
00000000
00000300
00000000
,
00001000
00000000
00000100
00000000
00001000
00000000
00010000
00001000
,
00000100
00000000
00000001
00000000
00000010
00000000
00000001
00000100
,
00002000
00000000
00000000
00003000
,
00011000
00000000
00000000
00000000
00010000
01000000
10000000
00000000
,
10010000
00000000
00000000
01100000
,
00110000
00000000
00000000
00000000
00001000
00010000
00001000
00000000
,
00011000
00000000
00000000
00000000
,
00001000
00010000
01000000
10000000
,
01000000
00000000
00100000
00000000
01000000
00010000
00001000
00000000
,
00010000
00001000
00010000
00001000
,
00000100
00000000
00000001
00000000
00000100
00001000
00010000
00000000
,
00001000
00000000
00010000
00000000
01000000
00000000
00010000
00001000
,
00020000
00000000
00000000
00031000
,
00010000
00000000
01000000
00000000
10000000
00000000
00010000
10000000
,
02000000
00000000
00000000
03000000
,
00010000
00001000
00000100
00000000
00001000
00000000
00000100
00000000
,
00001000
00010000
01000000
00000000
00010000
00000000
01000000
00000000
,
00010000
00001000
00000100
00000000
00001000
00010000
01000000
00000000
,
01000000
00010000
00001000
00000100
00000010
00000000
00001001
00000000
,
00000100
00001000
00010000
00000000
01000000
00000000
00100000
00000000
,
00010000
00000000
10000000
00000000
01000000
00000000
10000000
00100000
,
10000000
00000000
00010000
00000000
00100000
00000000
01000000
00010000
,
00001000
00000100
00000001
00000010
,
00000100
00001000
00000100
00000000
00001000
00000000
00000001
00000000
,
00000100
00000000
00001000
00000000
00010000
00000000
01000000
10000000
,
01000000
00000000
00100000
00000000
00010000
00000000
10000000
01000000
,
00010000
00000000
00001000
00010000
,
00022000
00000000
00000000
00033000
;

//---------------dance-double - ----------------
#NOTES:
     dance-double:
     :
     Hard:
     7:
     :
00000000
00000000
00000000
00000000
,
00000000
00000000
00000000
00000000
,
01000000
00000000
00000000
00000000
00100000
00000000
00000000
01000000
10000000
00000000
00010000
00000000
01000000
00000000
00100000
00000000
,
00010000
00000000
00000000
00000000
00001000
00000000
00000000
00010000
01000000
00000000
00010000
00000000
00001000
00000000
00000010
00000000
,
00000001
00000000
00000000
00000000
00001000
00000000
00000000
00000001
00000010
00000000
00000100
00000000
00001000
00000000
00000010
00000000
,
00000100
00001000
00010000
01000000
,
10000000
00100000
01000000
00001000
00010000
00001000
00100000
00000000
,
00110000
00101000
00011000
00010100
,
00001000
00000010
00000100
00001000
00010000
00100000
01000000
00000000
,
11000000
01010000
01100000
10010000
,
20000000
00000000
30100000
00000000
01000000
00100000
10000000
01000000
,
00020000
01000000
00001000
01030000
,
00002000
00000000
00013000
00000000
00001000
00000010
00000001
00000100
,
00002000
00000100
00010000
00003100
,
00001000
00000000
00000100
00000000
00000001
00000000
00000010
00000000
00000001
00000010
00000001
00000000
00000000
00000000
00000000
00000000
,
00000002
00000010
00000100
00000013
,
00000010
00000100
00010000
00001000
01000000
00100000
10000000
10000000
,
00100000
01000000
00001000
00010000
00000100
00000010
00000001
00000000
,
00000100
00000000
00001000
00000000
00010000
00000000
01000000
00000000
10000000
01000000
10000000
00000000
00000000
00000000
00000000
00000000
,
00020000
01000000
10000000
01030000
,
01000000
00001000
00010000
00000010
00001000
00000100
00010000
00001000
,
01000000
00001000
00010000
00000010
00001000
00000100
00010000
00000000
,
02000000
00000000
13000000
00000000
00100000
00010000
00001000
00000010
,
00000002
00000100
00001000
00000103
,
00000200
00000000
00001300
00000000
00010000
00001000
00010000
01000000
,
00200000
00010000
01000000
00310000
,
10000000
00010000
01000000
00000000
00001000
00010000
00001000
00000000
,
00000100
00000001
00000010
00000000
00000001
00000000
00000100
00000000
,
00001000
00010000
00001000
00000000
00010000
00100000
10000000
00000000
,
00100000
10000000
01000000
00000000
00010000
00000000
01000000
00000000
,
10000000
01000000
00010000
00001000
00010000
01000000
10000000
00010000
,
01000000
00100000
00010000
00001000
00010000
00001000
00000100
00000000
,
00000001
00000100
00001000
00010000
00001000
00000100
00000001
00001000
,
00000100
00000010
00001000
00010000
00001000
00010000
01000000
00000000
,
10000000
00010000
10000000
01000000
00010000
00001000
00011000
00000000
,
00001000
00010000
00001000
00000100
00000001
00001000
00001001
00000000
,
00000100
00000010
00000110
00000000
00000010
00000100
00000110
00000000
,
00000010
00000001
00000100
00001000
00010000
00011000
00011000
00000000
,
00001000
00000000
00010000
00000000
01000000
00000000
10000000
00000000
00100000
10000000
00100000
00000000
00000000
00000000
00000000
00000000
,
20000000
00100000
01000000
30100000
,
00100000
01000000
00001000
00010000
00000100
00000010
00000001
00000001
,
00000010
00000100
00010000
00001000
01000000
00100000
10000000
00000000
,
01000000
00000000
00010000
00000000
00001000
00000000
00000100
00000000
00000001
00000100
00000001
00000000
00000000
00000000
00000000
00000000
,
00000020
00000100
00000001
00000130
,
00000100
00010000
00001000
00100000
00010000
01000000
00001000
00010000
,
00000100
00010000
00001000
00100000
00010000
01000000
00001000
00000000
,
00022000
00000000
00000000
00033000
;
