
//----- song ID: worl -----//
#TITLE:This Is The World We Live In;
#ARTIST:Alcazar;
#BANNER:This Is The World We Live In.png;
#BACKGROUND:This Is The World We Live In-bg.png;
#CDTITLE:./CDTITLES/Dancing Stage Max.png;
#MUSIC:This Is The World We Live In.ogg;
#SAMPLESTART:32.64;
#SAMPLELENGTH:15;
#DISPLAYBPM:126;
#BPMS:0=125;
#BGCHANGES:7.25=This Is The World We Live In.avi=1=1=0=0;

//---------------dance-single - ----------------
#NOTES:
     dance-single:
     :
     Beginner:
     1:
     :
0000
0000
0000
0000
,
0000
0000
0000
0000
,
0000
0000
0000
0000
,
0001
0000
0000
0000
,
1000
0000
0000
0000
,
0010
0000
0010
0000
,
0100
0000
0100
0000
,
0010
0000
0010
0000
,
0100
0000
0100
0000
,
0001
0000
0001
0000
,
1000
0000
1000
0000
,
0001
0000
0001
0000
,
1000
0000
1000
0000
,
1001
0000
0000
0000
,
0010
0000
0010
0000
,
0100
0000
0000
0000
,
1000
0000
1000
0000
,
1001
0000
1000
0000
,
1000
0000
1000
0000
,
0001
0000
0001
0000
,
0001
0000
0001
0000
,
0110
0000
0010
0000
,
0010
0000
0010
0000
,
0100
0000
0100
0000
,
0100
0000
0100
0000
,
1001
0000
1000
0000
,
0001
0001
0001
0000
,
0010
0000
0100
0000
,
0010
0010
0010
0000
,
0110
0000
0100
0000
,
0001
0001
0001
0000
,
1000
0000
0100
0000
,
1000
1000
1000
0000
,
0010
0000
1000
0000
,
0001
0000
1000
0000
,
0100
0000
0010
0000
,
0001
0000
0010
0000
,
0001
0000
1000
0000
,
0010
0000
1000
0000
,
0100
0000
0010
0000
,
0001
0000
0100
0000
,
0010
0000
0000
0000
,
0010
0000
0000
0000
,
0100
0000
0000
0000
,
0100
0000
0000
0000
,
0001
0000
1000
0000
,
0001
0000
1000
0000
,
0100
0000
0010
0000
,
0100
0000
0010
0000
,
0110
0000
0000
0000
;

//---------------dance-single - ----------------
#NOTES:
     dance-single:
     :
     Easy:
     4:
     :
0000
0000
0000
0000
,
0000
0000
0000
0000
,
0000
0000
0000
0000
,
0200
0300
0020
0030
,
1000
1000
0001
0001
,
2000
3000
0002
0003
,
1000
0010
0100
0001
,
2000
3000
0002
0003
,
0010
0100
1000
0010
,
0200
0300
0020
0030
,
1000
0001
0100
0001
,
0020
0030
0200
0300
,
0100
1000
0001
1000
,
1001
0000
1000
0000
,
0100
0000
0100
0000
,
0010
0000
0010
0000
,
0001
0001
1000
1000
,
2001
0000
3100
0000
,
0010
0001
0100
0010
,
2000
0000
3001
0000
,
0100
0010
1000
0100
,
0020
0000
0031
0000
,
0100
0001
1000
0010
,
0200
0000
0301
0000
,
0010
0010
1000
0010
,
1010
0000
0001
0000
,
1000
0100
0010
0001
,
0010
0000
0011
0000
,
1000
0100
0010
0001
,
1001
0000
0100
0000
,
1000
0100
0001
0100
,
0100
0000
1001
0000
,
0010
1000
0001
0100
,
1001
0000
0010
0000
,
1000
0001
0100
0001
,
1000
0000
1001
0000
,
0100
1000
0001
0100
,
0101
0000
0010
0000
,
0100
0001
1000
0100
,
1000
0000
1100
0000
,
1000
0001
1000
0001
,
1002
0003
2000
3000
,
0001
1000
0001
1000
,
0020
0030
0200
0300
,
0010
0100
0010
0100
,
0002
0003
0020
0030
,
0001
0010
0001
0010
,
2000
3000
0020
0030
,
1000
0010
1000
0010
,
1001
0000
0000
0000
;

//---------------dance-single - ----------------
#NOTES:
     dance-single:
     :
     Medium:
     5:
     :
0000
0000
0000
0000
,
0000
0000
0000
0000
,
0000
0000
0000
0000
,
1000
0000
1000
0001
0100
0000
1000
0000
,
0001
0000
0000
1000
0100
0000
1000
0000
,
1001
0100
0010
0001
,
2000
0000
3000
0001
0100
0000
0010
0000
,
1000
0000
1000
0100
0010
0000
0001
0000
,
2000
0000
3000
0010
0100
0000
0001
0000
,
1000
0001
0010
0100
,
2000
0000
3000
0001
0100
0000
1000
0000
,
0100
0000
0100
0001
0010
0000
1000
0000
,
0020
0000
0030
0001
0100
0000
0001
0000
,
1001
0000
1100
0000
,
0011
0000
0101
0000
,
2001
0100
3001
0020
,
0200
0000
0000
0330
,
1001
0000
0000
0010
0100
0000
0000
1000
,
0001
0010
0200
2300
,
3001
0000
0001
1000
0010
0000
0000
0100
,
0001
1000
0020
0230
,
0301
0000
0000
0010
0100
0000
0000
1000
,
0010
0000
0000
0000
0100
0000
0000
0000
0002
0000
0000
0003
2000
0000
0000
0000
,
3100
0000
0100
0010
0001
0000
0000
1000
,
0010
0100
0002
2003
,
3001
0000
0000
0100
0001
0000
0000
1000
,
0100
1000
1100
0101
,
0001
0000
0001
0010
0001
0000
0000
1000
,
0010
1000
1010
0011
,
0100
0000
0000
1000
0001
0000
0000
0100
,
0010
1000
1001
0110
,
1000
0000
1000
0010
0100
0000
0000
0001
,
1000
0100
0011
1100
,
0002
0000
0003
1000
0020
0000
0030
0100
,
0002
0000
0003
1000
0200
0000
0300
0010
,
0001
0000
0001
1000
0020
0000
0030
1000
,
0001
0101
1000
1100
,
2000
0000
3000
0001
0200
0000
0300
0010
,
2000
0000
3000
0001
0020
0000
0030
0100
,
1000
0000
1000
0001
0200
0000
0300
0001
,
1000
1010
0001
0011
,
1001
0100
0010
0001
,
2000
0000
3000
0001
0100
0000
0010
0000
,
1000
0000
1000
0100
0010
0000
0001
0000
,
2000
0000
3000
0010
0100
0000
0001
0000
,
1000
0001
0010
0100
,
2000
0000
3000
0001
0100
0000
1000
0000
,
0100
0000
0100
0001
0010
0000
1000
0000
,
0020
0000
0030
0001
0100
0000
1100
0000
,
2002
0000
3003
0000
;

//---------------dance-single - ----------------
#NOTES:
     dance-single:
     :
     Hard:
     7:
     :
0000
0000
0000
0000
,
0000
0000
0000
0000
,
0000
0000
0000
0000
,
0100
0100
1000
0002
0200
0003
0310
1000
,
0010
0000
0000
2000
0200
3000
0310
0001
,
0010
0000
0100
1000
0001
0000
0100
0001
,
1000
0010
0000
1000
0100
0000
0010
0100
,
1000
1000
0010
0100
0001
0000
1000
0100
,
0010
0001
0000
0100
0001
0000
1000
0001
,
1000
0000
0010
0100
0010
0000
1000
0010
,
0100
0001
0000
1000
0100
0000
0010
0001
,
0100
0100
1000
0100
0001
0000
0010
0001
,
1000
0010
0000
1000
0100
0010
0001
1000
,
0002
0000
0203
0000
,
0320
0000
0000
0000
1030
0001
1000
0000
,
0200
0010
0320
0001
,
0032
1000
2003
3001
,
1001
0000
1000
0001
0100
0000
0010
0100
,
0002
0023
0230
2300
,
3001
0001
0100
0010
1000
0000
0001
0100
,
0002
0023
0230
2300
,
3001
0000
0100
0001
0010
0000
0100
1000
,
0020
2030
3200
0302
,
0103
0100
1000
0010
0100
0000
0001
0010
,
0200
2300
3020
0230
,
0301
0000
1000
0001
0100
0000
0001
0100
,
0010
1010
0110
0101
,
0001
0001
0010
0100
1000
0000
0010
0100
,
0001
0101
1001
1010
,
1000
0000
0010
1000
0001
0000
1000
0001
,
0010
0011
0110
1100
,
1000
1000
0001
0010
0100
0000
0010
0100
,
1000
1100
1001
0011
,
2000
0000
0000
0000
3001
0000
0100
0000
0001
0000
0000
0010
0000
0000
0100
0000
,
0010
0000
0000
0001
0000
0000
0100
0000
0010
0000
0000
1000
0000
0000
0001
0000
,
1000
0000
1000
0000
0001
0000
0100
0000
0001
0000
0000
0010
0000
0000
1000
0000
,
0010
0000
0000
0001
0000
0000
0100
0000
0001
0000
0001
0000
1000
0000
0000
0000
,
0002
0000
0000
0000
1003
0000
0100
0000
1000
0000
0000
0010
0000
0000
0100
0000
,
0010
0000
0000
1000
0000
0000
0100
0000
0010
0000
0000
0001
0000
0000
1000
0000
,
0001
0000
0001
0000
1000
0000
0100
0000
1000
0000
0000
0010
0000
0000
0001
0000
,
0010
0000
0000
1000
0000
0000
0100
0000
1000
0000
1000
0000
0001
0000
0000
0000
,
1001
0000
1000
0100
0010
0000
0001
0000
,
1000
0200
0000
1300
0002
0000
0013
0001
,
0100
0100
0010
1000
0100
0000
0010
0000
,
0001
0200
0000
0301
2000
0000
3100
0010
,
0001
1000
0010
0100
0001
0000
1000
0000
,
0100
2000
0000
3001
0200
0000
0310
1000
,
0100
0100
0010
0001
0100
0000
0010
0000
,
1000
0002
0000
0103
0020
0000
0130
0010
,
2002
0000
3003
0000
;

//---------------dance-double - ----------------
#NOTES:
     dance-double:
     :
     Easy:
     4:
     :
00000000
00000000
00000000
00000000
,
00000000
00000000
00000000
00000000
,
00000000
00000000
00000000
00000000
,
00000002
00000003
00002000
00003000
,
00000100
00000100
00010000
00010000
,
00002000
00003000
00200000
00300000
,
00010000
00100000
00010000
00100000
,
02000000
03000000
20000000
30000000
,
01000000
10000000
01000000
10000000
,
00020000
00030000
00200000
00300000
,
00100000
00010000
00100000
00010000
,
00200000
00300000
00002000
00003000
,
00010000
00000100
00001000
00000001
,
00001001
00000000
00001000
00000000
,
00000100
00000000
00000100
00000000
,
00010000
00000000
00010000
00000000
,
00001000
00001000
00010000
00010000
,
00012000
00000000
00103000
00000000
,
00100000
00010000
01000000
00100000
,
20000000
00000000
30010000
00000000
,
10000000
01000000
00010000
00001000
,
00020000
00000000
00030100
00000000
,
00001000
00000010
00000100
00000001
,
00002000
00000000
00003100
00000000
,
00000010
00001000
00010000
00100000
,
10100000
00000000
01010000
00000000
,
10000000
01000000
00010000
00001000
,
00101000
00000000
00010100
00000000
,
00001000
00000100
00000010
00000001
,
00000101
00000000
00001010
00000000
,
00000001
00000100
00001000
00010000
,
00011000
00000000
01010000
00000000
,
01000000
00100000
10000000
00010000
,
00110000
00000000
00001000
00000000
,
00010000
00000010
00001000
00000001
,
00001001
00000000
00000100
00000000
,
00000010
00000100
00001000
00000100
,
00010100
00000000
00001000
00000000
,
00010000
00100000
10000000
00010000
,
10010000
00000000
01000000
00000000
,
10000000
01000000
00010000
00001000
,
00010200
00000300
00002000
00003000
,
00000001
00000010
00000001
00000010
,
00000200
00000300
00002000
00003000
,
00000100
00001000
00000100
00001000
,
00000200
00000300
00020000
00030000
,
00001000
00010000
00001000
00010000
,
00002000
00003000
00200000
00300000
,
00010000
00100000
00010000
00100000
,
10010000
00000000
00000000
00000000
;

//---------------dance-double - ----------------
#NOTES:
     dance-double:
     :
     Medium:
     5:
     :
00000000
00000000
00000000
00000000
,
00000000
00000000
00000000
00000000
,
00000000
00000000
00000000
00000000
,
10010000
00000000
00000000
00010000
01000000
00000000
00001000
00000000
,
00011000
00000000
00000000
00000100
00001000
00000000
00000001
00000000
,
00001001
00000001
00000100
00001000
,
00020000
00000000
00030000
00001000
00100000
00000000
00010000
00000000
,
10000000
00000000
10000000
01000000
00100000
00000000
00010000
00000000
,
02000000
00000000
03000000
00010000
00100000
00000000
00001000
00000000
,
00010000
00000010
00001000
00000001
,
00000200
00000000
00000300
00000010
00001000
00000000
00000100
00000000
,
00010000
00000000
00010000
00001000
01000000
00000000
00010000
00000000
,
00200000
00000000
00300000
01000000
10000000
00000000
00010000
00000000
,
10010000
00000000
00110000
00000000
,
00101000
00000000
00010100
00000000
,
00002001
00000100
00003001
00000020
,
00000200
00000000
00000000
00000330
,
00001001
00000000
00000000
00000100
00001000
00000000
00000000
00000100
,
00010000
00001000
02000000
03020000
,
10030000
00000000
10000000
00100000
01000000
00000000
00000000
00010000
,
01000000
00001000
00020000
00032000
,
00003100
00000000
00000000
00000001
00000010
00000000
00000000
00000100
,
00001000
00000010
00000200
00002300
,
00013000
00000000
00010000
00001000
00100000
00000000
00000000
00010000
,
01000000
00100000
20000000
30020000
,
10030000
00000000
00000000
10000000
01000000
00000000
00000000
00010000
,
00001000
00010000
00010100
00001100
,
00000010
00000000
00000010
00000001
00001000
00000000
00000000
00000010
,
00000100
00001000
00011000
00101000
,
00100000
00000000
00000000
00010000
10000000
00000000
00000000
01000000
,
00100000
00010000
10010000
01100000
,
01000000
00000000
01000000
00100000
00001000
00000000
00000000
00010000
,
00001000
00010000
00010010
00001010
,
00000002
00000000
00000003
00000100
00000020
00000000
00000030
00001000
,
00000002
00000000
00000003
00001000
00000200
00000000
00000300
00010000
,
00001000
00000000
00001000
00100000
00020000
00000000
00030000
10000000
,
01000000
11000000
10010000
01010000
,
20000000
00000000
30000000
00100000
02000000
00000000
03000000
00010000
,
20000000
00000000
30000000
00010000
00200000
00000000
00300000
00001000
,
00010000
00000000
00010000
00000100
00002000
00000000
00003000
00000001
,
00000010
00000011
00001001
00001010
,
00001001
00000001
00000100
00001000
,
00020000
00000000
00030000
00001000
00100000
00000000
00010000
00000000
,
10000000
00000000
10000000
01000000
00100000
00000000
00010000
00000000
,
02000000
00000000
03000000
00010000
00100000
00000000
00001000
00000000
,
00010000
00000010
00001000
00000001
,
00000200
00000000
00000300
00000010
00001000
00000000
00000100
00000000
,
00010000
00000000
00010000
00001000
01000000
00000000
00010000
00000000
,
00200000
00000000
00300000
01000000
10000000
00000000
01010000
00000000
,
20020000
00000000
30030000
00000000
;

//---------------dance-double - ----------------
#NOTES:
     dance-double:
     :
     Hard:
     7:
     :
00000000
00000000
00000000
00000000
,
00000000
00000000
00000000
00000000
,
00000000
00000000
00000000
00000000
,
00100000
00100000
10000000
00010000
02000000
00000000
03001000
00010000
,
01000000
00000000
00000000
00010000
00002000
00000000
00013000
00001000
,
00000100
00000000
00000001
00000100
00000010
00000000
00001000
00000100
,
00010000
00000100
00000000
00000100
00010000
00000000
00001000
00010000
,
00100000
00100000
10000000
00100000
01000000
00000000
00010000
00100000
,
00001000
00100000
00000000
00100000
00001000
00000000
00010000
00000100
,
00001000
00000000
00000010
00001000
00000100
00000000
00000010
00000100
,
00010000
00001000
00000000
00001000
00010000
00000000
00001000
00100000
,
00010000
00010000
01000000
00010000
00100000
00000000
01000000
00100000
,
00001000
00010000
00000000
00010000
00001000
00000100
00000010
00001000
,
00000002
00000000
00000203
00000000
,
00002300
00000000
00000000
00000000
00013000
01000000
10000000
00000000
,
02000000
23000000
30200000
00320000
,
00032000
00003200
00000302
00001003
,
00001001
00000000
00000001
00000100
00001000
00000000
00000100
00000010
,
00000002
00000023
00002030
00023000
,
01030000
01000000
00100000
10000000
01000000
00000000
00010000
01000000
,
20000000
32000000
03020000
00032000
,
00003010
00000000
00000100
00001000
00000010
00000000
00000001
00000010
,
00002000
00003200
00000320
00002030
,
00013000
00010000
01000000
10000000
00100000
00000000
00010000
00100000
,
20000000
30200000
00320000
00032000
,
00013000
00000000
00001000
00010000
00000100
00000000
00001000
00000100
,
00000001
00000101
00000110
00001100
,
00001000
00001000
00000001
00000100
00001000
00000000
00010000
01000000
,
10000000
11000000
01100000
01010000
,
01000000
00000000
00100000
00001000
00010000
00000000
00001000
00010000
,
00000010
00001010
00000110
00000011
,
00000010
00000010
00001000
00000100
00010000
00000000
00001000
00100000
,
00010000
00110000
01100000
10100000
,
00010000
00000000
00000000
00000000
00100000
00000000
00010000
00000000
01000000
00000000
00000000
00100000
00000000
00000000
10000000
00000000
,
00100000
00000000
00000000
00010000
00000000
00000000
00001000
00000000
00010000
00000000
00000000
00001000
00000000
00000000
00000100
00000000
,
00000010
00000000
00000010
00000000
00001000
00000000
00000100
00000000
00000010
00000000
00000000
00001000
00000000
00000000
00010000
00000000
,
00100000
00000000
00000000
00010000
00000000
00000000
00001000
00000000
00000100
00000000
00000100
00000000
00000001
00000000
00000000
00000000
,
00001000
00000000
00000000
00000000
00000010
00000000
00001000
00000000
00000100
00000000
00000000
00000010
00000000
00000000
00000001
00000000
,
00000010
00000000
00000000
00001000
00000000
00000000
00010000
00000000
00001000
00000000
00000000
00010000
00000000
00000000
01000000
00000000
,
00100000
00000000
00100000
00000000
00010000
00000000
01000000
00000000
00100000
00000000
00000000
00010000
00000000
00000000
00001000
00000000
,
00000010
00000000
00000000
00001000
00000000
00000000
00010000
00000000
01000000
00000000
01000000
00000000
10000000
00000000
00000000
00000000
,
10010000
00000000
00100000
00010000
00001000
00000000
00100000
00000000
,
01000000
20000000
00000000
30010000
02000000
00000000
03100000
00010000
,
00001000
00001000
00010000
01000000
00010000
00000000
00010000
00000000
,
00001000
00000020
00000000
00000031
00000200
00000000
00000310
00010000
,
00001000
00000000
00000010
00001000
00010000
00000000
00010000
00000000
,
00001000
00200000
00000000
01300000
20000000
00000000
31000000
00100000
,
00001000
00001000
00010000
00001000
00000100
00000000
00000100
00000000
,
00000001
00002000
00000000
00003100
00000020
00000000
00000130
00000000
,
00002002
00000000
00003003
00000000
;
