
//----- song ID: mixe -----//
#TITLE:Mixed Up World;
#ARTIST:Sophie Ellis-Bextor;
#BANNER:Mixed Up World.png;
#BACKGROUND:Mixed Up World-bg.png;
#CDTITLE:./CDTITLES/Dancing Stage Max.png;
#MUSIC:Mixed Up World.ogg;
#SAMPLESTART:64.211;
#SAMPLELENGTH:15;
#BPMS:0=114;
#BGCHANGES:3.25=Mixed Up World.avi=1=1=0=0;

//---------------dance-single - ----------------
#NOTES:
     dance-single:
     :
     Beginner:
     1:
     :
0000
0000
0000
0000
,
0000
0000
0000
0000
,
0000
0000
0000
0000
,
0010
0000
0000
0001
,
0001
0000
0000
1000
,
1000
0000
0000
0001
,
0001
0000
0000
0000
,
0100
0000
0100
0000
,
0001
0000
0001
0000
,
1000
0000
1000
0000
,
0010
0000
0010
0000
,
0020
0000
0000
0030
,
0000
0001
0001
0000
,
2000
0000
0000
3000
,
0000
0100
0100
0000
,
0010
0000
0010
0000
,
0100
0000
0100
0000
,
0000
1000
1000
1000
,
0000
0001
0001
0001
,
0000
0010
0010
0000
,
0000
0100
0100
0000
,
1000
0000
1000
0000
,
0001
0000
0001
0000
,
2000
0000
0000
3000
,
0000
1000
0000
0001
,
0002
0000
0000
0003
,
0000
0001
0000
1000
,
2000
0000
0000
3000
,
0000
0010
0010
0000
,
0100
0000
0100
0000
,
1001
0000
0000
0000
,
0000
1000
1000
1000
,
2000
0000
0000
3000
,
0000
0000
0001
0001
,
0002
0000
0000
0003
,
0000
0000
0010
0010
,
0020
0000
0000
0030
,
0000
0000
0100
0100
,
0200
0000
0000
0300
,
0000
0000
0001
0001
,
0001
0000
1000
1000
,
0000
0000
0010
0000
,
1000
0000
0001
0000
,
1001
0000
0000
0000
;

//---------------dance-single - ----------------
#NOTES:
     dance-single:
     :
     Easy:
     3:
     :
0000
0000
0000
0000
,
0000
0000
0000
0000
,
0000
0000
0000
0000
,
1001
0000
0010
0000
,
0100
0000
0010
0000
,
0001
0000
1000
0001
,
1000
0000
0100
0000
,
1001
0001
0000
0100
,
0001
1000
0001
0000
,
1000
0001
1000
0000
,
0010
0100
0010
0000
,
1001
1000
1000
0000
,
1001
0001
0001
0000
,
0001
0100
0001
0000
,
1000
0100
1000
0000
,
0001
0000
0001
0000
,
1000
0000
1000
0000
,
0010
0000
0010
0000
,
0100
0000
0100
0000
,
1000
0000
0001
0000
,
0100
0000
0100
0000
,
0001
1000
0000
1000
,
0001
0001
1000
1000
,
0002
0000
0000
0003
,
0010
0000
0010
0000
,
2000
0000
0000
3000
,
0100
0000
0100
0000
,
0020
0000
0000
0030
,
0001
0000
0001
0000
,
0010
1000
0001
0100
,
0002
0000
0000
0003
,
1000
1000
0001
0002
,
0000
0003
0000
0000
,
0001
0100
0001
0010
,
0020
0000
0030
0000
,
1000
0100
0010
0100
,
0200
0000
0300
0000
,
0100
0001
1000
1000
,
0020
0000
0030
0000
,
0010
0000
1000
0100
,
0010
0000
0001
0100
,
0010
0000
0010
0000
,
1000
0000
1000
0000
,
1001
0000
0000
0000
;

//---------------dance-single - ----------------
#NOTES:
     dance-single:
     :
     Medium:
     5:
     :
0000
0000
0000
0000
,
0000
0000
0000
0000
,
0000
0000
0000
0000
,
1001
0000
0010
0100
,
0001
0000
0010
0100
,
1000
0000
0001
0100
,
0010
0000
1000
0100
,
0010
0001
0010
0001
,
1000
0100
1000
0100
,
1000
0010
1010
0000
,
0100
0001
0101
0000
,
1000
0100
0001
0100
,
1000
0100
0001
0100
,
0001
0000
0101
1000
,
0100
0000
1100
0001
,
1000
1000
0100
0010
,
0001
0000
0001
0000
0100
0010
1000
0000
,
0100
1000
0001
0001
,
0100
0000
0001
0000
1000
0100
1000
0000
,
0010
0100
0001
0010
,
0001
0000
1000
0000
0100
1000
0001
0000
,
0010
1000
0000
0100
,
0010
0000
1000
0000
0100
0010
0100
0000
,
0110
0001
1000
0100
,
1000
0000
0010
0000
0100
0001
0100
0000
,
0110
1000
0001
1000
,
0010
0000
0100
0000
0001
0010
0100
0000
,
1001
0001
1000
0010
,
0100
0000
0001
0000
1000
0001
0100
0000
,
0100
0000
0001
0000
0010
0100
1000
0000
,
1100
0000
0000
0010
,
0100
0001
0100
0001
0200
0000
0320
0000
,
0000
0000
0030
0000
0000
0000
1000
0100
,
0010
0001
0010
0001
0020
0000
0230
0000
,
2300
0000
3000
0010
,
1000
0100
1000
0100
2000
0000
3002
0000
,
0203
0000
0000
0000
0300
0000
0001
0100
,
0010
1000
0010
1000
0200
0000
2300
0000
,
3002
0000
0003
0000
,
1000
0100
0010
0010
,
0001
0100
0010
0010
,
1000
0001
0100
0100
,
0001
0000
1000
0000
0100
1000
0001
0000
,
1001
0000
0000
0000
;

//---------------dance-single - ----------------
#NOTES:
     dance-single:
     :
     Hard:
     6:
     :
0000
0000
0000
0000
,
0000
0000
0000
0000
,
0000
0000
0000
0000
,
1001
0000
0000
0000
0010
1000
0100
0000
,
1001
0000
0000
0000
0010
0001
0100
0000
,
1001
0000
0000
0000
0010
1000
0100
0000
,
1001
0000
1000
0001
1000
0010
0100
0100
,
0001
1000
0010
0100
0010
1000
0001
0000
,
0010
0100
1000
0001
0100
0010
1000
0000
,
0100
0010
0001
1000
0000
0010
0100
0000
,
0010
0100
0001
1000
0000
0100
0010
0000
,
0010
0001
0100
0001
1000
0100
0010
0000
,
0001
0100
0010
0100
0001
1000
0100
0000
,
1000
0010
0100
0001
1000
0100
0010
0001
,
0010
0001
0010
0100
1000
0100
1000
0000
,
1100
0000
0101
0000
0100
0001
0100
0000
,
0010
0000
1000
0000
0010
0010
0100
0001
,
1000
0000
0001
0000
0010
0100
1000
0000
,
0100
0000
1000
0000
0010
0010
0001
0000
,
1100
0000
0101
0000
1000
0100
1000
0000
,
1000
0000
0010
0000
0100
0100
0001
1000
,
0100
1000
0000
1000
,
0010
0000
0100
0000
0001
1000
0001
0100
,
0020
0100
1000
0130
,
0001
0000
0100
0000
0010
1000
0002
0000
,
0023
0100
0001
0130
,
1000
0000
0001
0000
0100
0010
0200
0000
,
0302
0010
0100
0013
,
1000
0000
0001
0000
0001
0100
0001
0010
,
0100
0000
1000
0010
0100
0000
0001
0010
,
0100
0000
1000
0000
0001
0010
0100
0010
,
0100
1000
0001
0100
0002
0000
2003
0000
,
3200
0000
0000
0000
0300
0000
0001
0100
,
0010
1000
0001
1000
0200
0000
0320
0000
,
0032
0000
0000
0000
0003
0100
0100
0010
,
1000
0010
0100
0001
2000
0000
3002
0000
,
2003
0000
0000
0000
3000
0000
0100
0010
,
0001
0100
0010
1000
0020
0000
0230
0000
,
0302
0000
0003
0000
,
1001
0000
0100
0000
0010
1000
0100
0000
,
1001
0000
0100
0000
0010
0001
0100
0000
,
1100
0000
0001
0000
0100
0001
0100
0000
,
0101
0000
1100
0000
0010
1000
0010
0000
,
1001
0000
0000
0000
;

//---------------dance-double - ----------------
#NOTES:
     dance-double:
     :
     Easy:
     3:
     :
00000000
00000000
00000000
00000000
,
00000000
00000000
00000000
00000000
,
00000000
00000000
00000000
00000000
,
00100000
00000000
10000000
00000000
,
01000000
00000000
01000000
00010000
,
00001000
00000000
00000010
00000001
,
00000100
00000000
00000100
00001000
,
00010000
00001000
00010000
00001000
,
00100000
00100000
01000000
00000000
,
10000000
10000000
00010000
00000000
,
00100000
00100000
01000000
00000000
,
20000000
00000000
00000000
30000000
,
01000000
00010000
00001000
00010000
,
00001000
00000000
00000010
00000000
,
00000001
00000001
00001000
00001000
,
00000100
00000000
00000100
00000000
,
00000010
00000100
00000010
00000100
,
00001000
00000000
00010000
00000000
,
00100000
10000000
00100000
10000000
,
10000000
00000000
01000000
00010000
,
00001000
00000000
00000010
00000100
,
00000010
00000000
00001000
00000000
,
00010000
00001000
00010000
00001000
,
00020000
00000000
00000000
00030000
,
00010000
00000000
00100000
00000000
,
20000000
00000000
00000000
30000000
,
01000000
00000000
00010000
00000000
,
00002000
00000000
00000000
00003000
,
00000010
00000000
00000100
00000000
,
00000001
00000100
00000001
00000100
,
00002000
00000000
00000000
00003000
,
00010000
00001000
00010000
00002000
,
00000000
00000000
00003000
00010000
,
00100000
00100000
01000000
01000000
,
20000000
00000000
00000000
30000000
,
00010000
10000000
00010000
10000000
,
02000000
00000000
00000000
03000000
,
00010000
00001000
00000010
00000001
,
00000002
00000000
00000000
00000003
,
00000100
00000000
00000100
00001000
,
00010000
00000000
00001000
00010000
,
00000000
00010000
00010000
00010000
,
00000000
00100000
00100000
00100000
,
01000000
00000000
00000000
00000000
;

//---------------dance-double - ----------------
#NOTES:
     dance-double:
     :
     Medium:
     5:
     :
00000000
00000000
00000000
00000000
,
00000000
00000000
00000000
00000000
,
00000000
00000000
00000000
00000000
,
00000100
00000000
00000010
00000001
,
00001000
00000000
00000001
00001000
,
00000100
00000000
00010000
00001000
,
00010000
00000000
01000000
00010000
,
01000000
00000000
10000000
00000000
00100000
00100000
00100000
00000000
,
00100000
00000000
01000000
00000000
00010000
00010000
00010000
00000000
,
10000000
00000000
01000000
00010000
00001000
00000000
00001000
00000000
,
00000010
00000000
00000001
00001000
00000100
00000000
00000010
00000000
,
00000001
00000100
00001000
00010000
,
01000000
10000000
01000000
00100000
,
00010000
10000000
01000000
00010000
,
00001000
00000100
00000001
00000010
,
00000100
00000000
00001000
00000000
00000001
00000100
00001000
00000000
,
00010000
00000000
00001000
00000000
00010000
00100000
10000000
00000000
,
00010000
01000000
00100000
01000000
,
00010000
00000000
10000000
00000000
01000000
10000000
00100000
00000000
,
10000000
01000000
00010000
00001000
,
00010000
00000000
00001000
00000000
00010000
00001000
00010000
00000000
,
00001000
00000100
00000001
00000010
,
00000001
00000000
00001000
00000000
00001000
00000001
00000100
00000000
,
00000101
00000000
00001000
00000000
00010000
00010000
00010000
00000000
,
01000000
10000000
00100000
00100000
,
10010000
00000000
00010000
00000000
10000000
10000000
10000000
00000000
,
10000000
01000000
00010000
00001000
,
00011000
00000000
00010000
00000000
00001000
00001000
00001000
00000000
,
00000100
00000010
00000100
00000110
,
00001000
00001100
00000001
00000101
,
00000001
00000100
00001000
00010000
,
01000000
10000000
00100000
10000000
00100000
00000000
02000000
00000000
,
00000000
00000000
03000000
00100000
,
00010000
00001000
00010000
00001000
00000010
00000000
00000001
00000000
,
00000020
00000000
00000000
00000030
,
00000001
00000100
00000010
00001000
00000010
00000000
00001000
00000000
,
00000200
00000000
00000000
00000300
,
00001000
00000100
00010000
00001000
00010000
00000000
01000000
00000000
,
00200000
00000000
00000000
00300000
,
10000000
00000000
00000000
00000000
10000000
01000000
00010000
00000000
,
00001000
00000000
00000000
00000000
00001000
00000100
00000001
00000000
,
00000001
00000000
00000000
00000000
00000010
00001000
00000100
00000000
,
00001000
00000000
00000000
00000000
00000010
00000001
00000100
00000000
,
00000110
00000000
00000000
00000000
;

//---------------dance-double - ----------------
#NOTES:
     dance-double:
     :
     Hard:
     6:
     :
00000000
00000000
00000000
00000000
,
00000000
00000000
00000000
00000000
,
00000000
00000000
00000000
00000000
,
10010000
00000000
00000000
00000000
00100000
10000000
00010000
00000000
,
10010000
00000000
00000000
00000000
01000000
00010000
00001000
00000000
,
00011000
00000000
00000000
00000000
00010000
00000010
00001000
00000000
,
00001010
00000000
00000000
00000000
00000010
00000100
00000001
00000000
,
00000001
00000000
00000101
00000000
00000010
00000100
00001000
00000000
,
00000010
00000100
00000001
00000000
00000100
00001000
00010000
00000000
,
00001000
00000000
00011000
00000000
00100000
00001000
00010000
00000000
,
01000000
10000000
00010000
00000000
10000000
00010000
00100000
00000000
,
00010000
00000000
01010000
00000000
10000000
00010000
01000000
00000000
,
01001000
00000000
00011000
00000000
00001000
00010000
00001000
00000000
,
00010010
00000000
00001010
00000000
00000010
00001000
00000100
00000000
,
00000011
00000000
00001100
00000000
00000100
00001000
00000010
00000000
,
00000010
00001000
00000001
00000000
00000010
00001000
00010000
00000000
,
00010000
00000000
00001000
00000000
00010000
00001000
00010000
00000000
,
00001000
00000000
00100000
00000000
00010000
10000000
01000000
00000000
,
10000000
01000000
00010000
00000000
00100000
00010000
01000000
00100000
,
10000000
00000000
01000000
00000000
10000000
01000000
10000000
00000000
,
01000000
00000000
00010000
00000000
00001000
00010000
00001000
00001000
,
00000200
00000000
00000000
00000000
00000300
00000000
00000000
00000001
,
00000010
00000000
00000100
00000000
00000001
00000100
00000001
00000000
,
00000100
00000000
00001000
00010000
00000000
01000000
10000000
00000000
,
00100000
00000000
00010000
00001000
00000000
00010000
01000000
00000000
,
00001000
00000000
00010000
00001000
00000000
00000100
00000001
00000000
,
00000100
00000000
00001000
00010000
00000000
00001000
00000010
00000000
,
00010000
00000000
00000010
00000100
00000000
00001000
00010000
00000000
,
00010000
00000000
01000000
10000000
00000000
01000000
00010000
00000000
,
00001000
00010000
01000000
00000000
10000000
00000000
00000000
00000000
,
00010000
00000000
10000000
00000000
01000000
00010000
00001000
00001000
,
00010000
00000010
00000100
00000010
00002000
00000000
00003002
00000000
,
00000000
00000000
00000003
00000000
00000000
00000000
00000010
00001000
,
00010000
00001000
00010000
00100000
20000000
00000000
32000000
00000000
,
03020000
00000000
00000000
00000000
00030000
00001000
00001000
00010000
,
01000000
00100000
00010000
01000000
00020000
00000000
20030000
00000000
,
32000000
00000000
00000000
00000000
03000000
00000000
00010000
00001000
,
00000010
00000001
00000100
00001000
00000200
00000000
00000320
00000000
,
00002030
00000000
00000000
00003000
,
00001001
00000000
00000000
00000000
00000010
00000001
00000100
00000000
,
00000110
00000000
00000000
00000000
00000100
00001000
00010000
00000000
,
00001000
00000000
00010000
00000000
01000000
10000000
01000000
00000000
,
10000000
00000000
00100000
00000000
00010000
00001000
00010000
00000000
,
00011000
00000000
00000000
00000000
;
