
//----- song ID: lady -----//
#TITLE:Lady Marmalade;
#ARTIST:LaBelle;
#BANNER:Lady Marmalade.png;
#BACKGROUND:Lady Marmalade-bg.png;
#CDTITLE:./CDTITLES/Dancing Stage Max.png;
#MUSIC:Lady Marmalade.ogg;
#SAMPLESTART:50.607;
#SAMPLELENGTH:15;
#DISPLAYBPM:114;
#BPMS:0=113.924,4=109.091,8=111.111,12=113.924,20=113.565,28=115.385,32=110.429,36=115.385,40=111.111,44=113.804,56=112.853,64=114.286,68=113.565,72=114.286,76=114.65,80=115.016,88=119.601,92=117.647,96=112.5,100=115.756,104=114.65,112=115.385,116=115.2,124=116.129,128=114.286,132=116.129,136=115.385,140=115.016,144=113.565,148=118.033,152=115.756,156=116.129,160=117.647,164=122.034,168=121.212,172=113.924,176=116.129;
#BGCHANGES:3.75=Lady Marmalade.avi=1=1=0=0;

//---------------dance-single - ----------------
#NOTES:
     dance-single:
     :
     Beginner:
     1:
     :
0000
0000
0000
0000
,
0000
0000
0000
0000
,
0000
0000
0000
0000
,
1000
0000
1000
0000
,
0001
0000
0100
0100
,
0100
0000
1000
0000
,
0001
0000
1000
0000
,
0001
0000
1000
0000
,
0001
0000
1000
0000
,
0100
0100
0000
0000
,
1000
1000
0000
0000
,
0001
0001
0000
0000
,
0010
0010
0000
0000
,
0100
0000
0100
0000
,
1000
0000
1000
0000
,
0100
0100
0100
0000
,
0100
0000
0100
0000
,
0010
0010
0010
0000
,
0010
0000
0010
0000
,
0001
0001
0001
0000
,
0001
0000
0000
0000
,
1001
0000
0000
0000
,
0000
0000
0001
0000
,
1000
0000
0001
0000
,
1000
1000
1000
0000
,
1000
0000
1000
0000
,
0001
0001
0001
0000
,
0001
0000
0000
0000
,
0100
0100
0100
0100
,
0000
0100
0000
0000
,
0100
0000
0001
0000
,
0001
0000
0010
0000
,
0010
0000
1000
0000
,
1000
0000
0100
0000
,
1000
1000
1000
0000
,
1000
0000
1000
0000
,
0001
0001
0001
0000
,
0001
0000
0001
0000
,
1000
1000
1000
0000
,
1000
0000
1000
0000
,
1001
0000
0000
0000
,
0000
0000
1000
0000
,
0001
0000
1000
0000
,
0001
0001
0001
0000
,
0001
0000
0001
0000
,
1000
1000
1000
0000
,
0100
0000
0001
0000
,
1001
0000
0100
0000
,
0100
0000
0000
0000
;

//---------------dance-single - ----------------
#NOTES:
     dance-single:
     :
     Easy:
     3:
     :
0000
0000
0000
0000
,
0000
0000
0000
0000
,
0000
0000
0000
0000
,
0010
0000
1000
0000
,
0001
0000
0100
0100
,
0002
0003
2000
3000
,
0002
0003
2000
3000
,
0200
0300
0020
0030
,
0200
0300
0020
0030
,
0001
0100
0001
0000
,
1000
0100
1000
0000
,
0010
1000
0010
0000
,
0001
0010
0001
0000
,
0001
0000
0001
0001
,
1000
0000
1000
1000
,
0100
0010
0100
0010
,
0001
0000
0100
0000
,
0010
0100
0010
0100
,
0010
0000
1000
0000
,
0100
0010
0100
0010
,
0001
0000
1000
0000
,
1001
0000
0000
0000
0000
0000
0000
1001
,
0000
0000
1000
0000
,
0001
0000
0100
0010
,
1000
1000
0001
0001
,
1000
0000
0001
0000
,
1000
1000
0001
0001
,
1000
0000
1000
0000
,
0001
0100
0001
0100
,
0001
0001
0010
0000
,
1000
0100
1000
0100
,
0010
0000
0001
0000
,
0100
0000
0100
0000
,
0010
0000
0010
0000
,
1000
0001
1000
0001
,
1000
1000
0000
0000
,
0001
1000
0001
1000
,
0001
0000
0000
0000
,
1000
0100
1000
0001
,
0100
0000
0000
0000
,
1001
0000
0000
0000
0000
0000
0000
1001
,
0000
0000
0001
0000
,
1000
0000
0001
0000
,
1000
0100
1000
0100
,
0010
0000
0010
0000
,
0001
0100
0001
0100
,
0010
0000
0010
0000
,
1001
0000
0010
0010
,
0100
0000
0000
0000
;

//---------------dance-single - ----------------
#NOTES:
     dance-single:
     :
     Medium:
     5:
     :
0000
0000
0000
0000
,
0000
0000
0000
0000
,
0000
0000
0000
0000
,
0010
1000
0010
1000
,
0001
0100
0001
0100
,
0010
1000
0100
0110
,
0001
0101
1000
1100
,
0010
0100
0001
0011
,
0100
1100
0001
0101
,
1000
0000
0100
0000
1000
0001
0100
0000
,
0010
0000
0100
0000
0001
0010
0100
0000
,
1000
0000
0010
0000
1000
0001
0100
0000
,
0010
0000
0100
0000
0001
1000
0001
0000
,
1001
0100
1100
0001
,
0101
0010
0011
0100
,
1000
0100
1000
0000
0010
0100
0010
0000
,
0001
0000
0000
1000
,
0001
1000
0001
0000
1000
0001
1000
0000
,
0010
0000
0100
0000
,
0010
0100
0010
0000
0100
0010
0100
0000
,
0001
0000
1000
0000
,
0110
0000
0000
0000
0000
0000
0000
1001
,
0000
0000
0000
1000
0001
0000
0000
0010
,
0100
0000
0000
1000
0010
0000
0100
0000
,
0001
0100
0001
0000
0100
0001
0100
0000
,
0010
0010
1000
0000
,
1000
0100
1000
0000
0100
1000
0100
0000
,
0010
0000
0001
0000
,
0100
0000
0001
0000
0010
0100
1000
0000
,
0001
0000
0010
0000
0001
0010
0001
0000
,
0010
0000
0100
0000
1000
0010
0100
0000
,
0010
0100
0010
0000
1000
0001
1000
0000
,
0011
0001
0101
1000
,
1100
0001
1001
0100
,
0010
0100
0010
0000
0001
1000
0001
0000
,
1000
0000
0001
0000
,
0010
0001
0010
0000
0100
0010
0100
0000
,
1000
0000
0010
0000
,
0100
0010
0100
0000
0001
0100
0001
0000
,
0010
0000
0100
0000
,
1001
0000
0000
0000
0000
0000
0000
1001
,
0000
0000
0000
0001
1000
0000
0000
0010
,
0100
0000
0000
0001
0010
0000
0100
0000
,
1000
0100
1000
0000
0001
0100
0001
0000
,
0010
0010
0100
0000
,
1000
0010
1000
0000
0001
0010
0001
0000
,
0100
0000
1000
0001
,
1001
0001
0100
1000
,
0100
0000
0000
0000
;

//---------------dance-single - ----------------
#NOTES:
     dance-single:
     :
     Hard:
     6:
     :
0000
0000
0000
0000
,
0000
0000
0000
0000
,
0000
0000
0000
0000
,
1000
0001
1000
0100
,
0010
0001
1010
0011
,
1001
0000
0100
0001
1000
0000
0100
1000
,
0010
0000
0100
0001
1000
0000
1100
0000
,
1001
0000
0100
0010
0100
0000
0001
0010
,
1000
0000
0010
0001
0100
0000
1010
0000
,
0010
0100
0001
1000
0000
0100
1000
0001
,
0000
0001
1000
0010
0000
0000
1000
0000
,
0001
0010
0100
1000
0000
0001
0100
0010
,
1000
0100
1000
0000
0010
0100
0001
0000
,
1000
0001
0100
0000
0100
0001
0010
0000
,
0001
0010
0001
0000
0100
0010
1000
0000
,
0010
0001
0010
0100
1000
0010
0000
0100
,
0000
1000
0000
0100
0000
0010
0000
0001
,
1000
0010
0100
0001
0010
0001
0000
0010
,
0000
0000
0000
0000
0000
0100
0000
1000
,
0010
0100
0001
1000
0100
1000
0000
0101
,
0000
1100
0000
0000
0000
0000
0000
0000
,
1001
0100
1000
0001
0010
0001
0000
1001
,
0000
0000
0000
0010
1000
0000
0000
0100
,
0001
0000
0000
0010
1000
0000
0100
0000
,
0010
1000
0001
0100
1000
0100
0001
1000
,
0000
0000
0100
0001
0000
0000
0000
0000
,
0010
0001
0100
0010
1000
0100
0001
0100
,
0000
0010
0001
0100
,
1000
0100
0001
1000
0000
0100
0010
0001
,
0010
0000
0100
1000
0010
0000
0100
0001
,
1000
0010
1000
0100
0010
0000
0001
0010
,
0100
0000
1000
0001
0100
0000
0010
0100
,
1000
0100
0001
0100
1000
0100
0010
0000
,
0001
0100
1000
0100
0001
0100
1000
0000
,
0010
1000
0100
0010
0001
0100
0000
0001
,
0000
0010
0000
0010
0000
0100
0000
1000
,
0001
0010
1000
0010
0001
1000
0000
0100
,
0000
0000
0000
0000
0000
0010
0000
0001
,
1000
0100
0010
0001
0100
0001
0000
0001
,
0000
1000
0000
0000
0000
0000
0000
0000
,
1001
0100
0001
1000
0010
0100
0000
1001
,
0000
0000
0000
0010
0001
0000
0000
0100
,
1000
0000
0000
0010
0001
0000
0100
0000
,
1000
0001
0100
1000
0001
0010
0001
1000
,
0000
0000
0001
0010
0000
0000
1000
0000
,
0010
0001
1000
0100
0010
0001
0100
1000
,
0000
0100
0001
1000
,
1001
0000
0001
0010
0100
0000
1000
0010
,
0100
0000
0000
0000
;

//---------------dance-double - ----------------
#NOTES:
     dance-double:
     :
     Easy:
     3:
     :
00000000
00000000
00000000
00000000
,
00000000
00000000
00000000
00000000
,
00000000
00000000
00000000
00000000
,
00100000
00000000
10000000
00000000
,
01000000
00000000
00010000
00010000
,
00002000
00003000
00000200
00000300
,
00000002
00000003
00000020
00000030
,
00002000
00003000
00020000
00030000
,
00200000
00300000
20000000
30000000
,
10000000
01000000
10000000
00000000
,
00010000
01000000
00010000
00000000
,
00001000
00010000
00001000
00000000
,
00000100
00001000
00000100
00000000
,
00000001
00000000
00000100
00000100
,
00000010
00000000
00001000
00001000
,
00000001
00000100
00001000
00010000
,
00010000
00000000
01000000
00000000
,
10000000
00010000
10000000
00010000
,
10000000
00000000
01000000
00000000
,
00100000
01000000
00100000
01000000
,
00010000
00000000
10000000
00000000
,
10010000
00000000
00000000
00000000
00000000
00000000
00000000
00011000
,
00000000
00000000
00000100
00000000
,
00000001
00000000
00001000
00000001
,
00001000
00001000
00000001
00000001
,
00000100
00000000
00001000
00000000
,
00010000
00010000
00001000
00001000
,
00010000
00000000
01000000
00000000
,
10000000
00100000
10000000
00100000
,
10000000
01000000
10000000
00000000
,
01000000
00010000
01000000
00010000
,
00001000
00000000
00000010
00000000
,
00000100
00000000
00000010
00000000
,
00000001
00000000
00001000
00000000
,
00000010
00000100
00000010
00000100
,
00001000
00010000
00000000
00000000
,
00100000
01000000
00100000
01000000
,
00010000
00000000
00000000
00000000
,
00001000
00010000
00001000
00000010
,
00000001
00000000
00000000
00000000
,
00001001
00000000
00000000
00000000
00000000
00000000
00000000
00011000
,
00000000
00000000
00100000
00000000
,
10000000
00000000
00010000
10000000
,
00010000
00010000
10000000
10000000
,
00100000
00000000
00010000
00000000
,
00001000
00001000
00010000
00010000
,
00001000
00000000
00000010
00000000
,
00001001
00000000
00000010
00001000
,
00010000
00000000
00000000
00000000
;

//---------------dance-double - ----------------
#NOTES:
     dance-double:
     :
     Medium:
     5:
     :
00000000
00000000
00000000
00000000
,
00000000
00000000
00000000
00000000
,
00000000
00000000
00000000
00000000
,
00000010
00000001
00000010
00000001
,
00000100
00001000
00000100
00001000
,
00010000
01000000
10000000
10100000
,
01000000
01010000
00010000
11000000
,
00010000
00001000
00000010
00000011
,
00001000
00001100
00000010
00000110
,
00010000
00000000
00001000
00000000
00010000
00000010
00001000
00000000
,
00000100
00000000
00010000
00000000
00001000
00100000
01000000
00000000
,
10000000
00000000
00100000
00000000
01000000
00010000
10000000
00000000
,
00100000
00000000
10000000
00000000
01000000
00010000
00001000
00000000
,
00011000
00001000
00000010
00000001
,
00000101
00001000
00000001
00000100
,
00000010
00001000
00000010
00000000
00010000
00001000
00010000
00000000
,
00100000
00000000
10000000
00000000
,
00010000
10000000
00010000
00000000
10000000
01000000
10000000
00000000
,
00100000
00000000
00010000
00000000
,
00010000
00001000
00010000
00000000
00000010
00001000
00000010
00000000
,
00001000
00000000
00000001
00000000
,
00000110
00000000
00000000
00000000
00000000
00000000
00000000
00011000
,
00000000
00000000
00000000
00001000
00010000
00000000
00000000
00100000
,
01000000
00000000
00000000
00010000
00100000
00000000
01000000
00000000
,
10000000
01000000
10000000
00000000
00100000
00010000
00100000
00000000
,
00001000
00001000
00010000
00000000
,
00001000
00010000
00001000
00000000
00010000
00001000
00010000
00000000
,
00000010
00000000
00000100
00000000
,
00000010
00000000
00001000
00000000
00000001
00000100
00001000
00000000
,
00010000
00000000
00100000
00000000
10000000
00100000
01000000
00000000
,
00100000
00000000
01000000
00000000
00010000
00100000
01000000
00000000
,
10000000
01000000
00100000
00000000
01000000
00010000
00001000
00000000
,
00011000
00010000
01000000
10000000
,
10100000
00100000
10000000
01000000
,
01000000
00010000
01000000
00000000
00001000
00010000
00001000
00000000
,
00000100
00000000
00000001
00000000
,
00001000
00000001
00001000
00000000
00000001
00000010
00000001
00000000
,
00000100
00000000
00001000
00000000
,
00001000
00010000
00001000
00000000
01000000
00010000
01000000
00000000
,
00010000
00000000
10000000
00000000
,
10010000
00000000
00000000
00000000
00000000
00000000
00000000
00011000
,
00000000
00000000
00000000
00010000
00001000
00000000
00000000
00000100
,
00000010
00000000
00000000
00001000
00000100
00000000
00000010
00000000
,
00000001
00000010
00000001
00000000
00000100
00001000
00000100
00000000
,
00010000
00010000
00001000
00000000
,
00010000
00001000
00010000
00000000
00001000
00010000
00001000
00000000
,
01000000
00000000
10000000
00010000
,
10010000
01000000
00010000
00001000
,
00000100
00000000
00000000
00000000
;

//---------------dance-double - ----------------
#NOTES:
     dance-double:
     :
     Hard:
     6:
     :
00000000
00000000
00000000
00000000
,
00000000
00000000
00000000
00000000
,
00000000
00000000
00000000
00000000
,
00001000
00000010
00000100
00000001
,
00000100
00001000
00010000
00100000
,
10000000
00000000
01000000
00000000
01010000
00000000
10000000
00100000
,
00010000
00000000
00001000
00000010
00000001
00000000
00000100
00000000
,
00001000
00000000
00000100
00000001
00001000
00000000
00000100
00010000
,
00001000
00000000
00001000
00100000
00010000
00000000
10000000
00000000
,
01000000
00000000
00010000
00000000
00001000
00000010
00000001
00000000
,
00001000
00000000
00000100
00000000
00000010
00000001
00000010
00000000
,
00000100
00000000
00001000
00000000
00000010
00000100
00001000
00000000
,
00010000
00100000
10000000
01000000
,
00100000
01000000
00100000
00000000
00010000
00001000
00010000
00000000
,
00001000
00000100
00001000
00000000
00000010
00000100
00000010
00000000
,
00000100
00001000
00010000
00000000
00001000
00010000
00100000
00000000
,
00100000
10000000
01000000
00010000
,
00001000
00010000
00000010
00000000
00010000
00001000
00100000
00000000
,
00010000
01000000
10000000
01000000
,
00010000
10000000
01000000
00000000
00010000
00001000
00000010
00000000
,
00000001
00000010
00000001
00000000
00001000
00000000
00000010
00000000
,
00001010
00000000
00000000
00000000
00000000
00000000
00000000
00010000
,
00000000
00000000
00000000
00001000
00100000
00000000
00000000
00010000
,
10000000
00000000
00000000
01000000
00010000
00000000
00001000
00000000
,
00000010
00000001
00000010
00001000
00000010
00000001
00000100
00001000
,
00000000
00000000
00010000
00100000
00000000
00000000
10000000
00000000
,
01000000
00010000
01000000
10000000
01000000
00010000
00001000
00000010
,
00000000
00000001
00000100
00001000
,
00010000
00000000
00001000
00010000
00100000
00000000
10000000
01000000
,
10000000
00100000
01010000
10000000
,
11000000
00000000
00010000
00001000
00000010
00000000
00001000
00000010
,
00000100
00000000
00000100
00000010
00000001
00000000
00001000
00000000
,
00000010
00000000
00000100
00000000
00001000
00010000
00100000
00000000
,
10000000
00000000
01000000
00000000
10000000
00100000
10000000
00000000
,
00010000
00100000
10000000
00100000
00010000
00001000
00000100
00000000
,
00000100
00000000
00000001
00000000
00001000
00000000
00000001
00000100
,
00000010
00000001
00000010
00001000
00000010
00000001
00000010
00000000
,
00000100
00000000
00001000
00000000
00010000
00000000
00010000
00001000
,
01000000
00100000
10000000
01000000
10000000
00100000
00010000
00000000
,
00100000
10000000
01000000
00010000
,
00011000
00000000
00000000
00000000
00000000
00000000
00000000
00001000
,
00000000
00000000
00000000
00000010
00000001
00000000
00000000
00000100
,
00000010
00000000
00000000
00000100
00001000
00000000
00010000
00000000
,
00100000
10000000
01000000
10000000
00100000
01000000
00010000
10000000
,
00000000
00000000
01000000
00010000
00000000
00000000
00001000
00000000
,
00000010
00000001
00000010
00000001
00001000
00000001
00000100
00001000
,
00000000
00010000
00001000
00010000
,
00011000
00000000
00001000
00010000
01000000
00000000
10000000
00010000
,
01000000
00000000
00000000
00000000
;
