
//----- song ID: kunc -----//
#TITLE:KUNG FU FIGHTING;
#ARTIST:Carl Douglas;
#BANNER:KUNG FU FIGHTING.png;
#BACKGROUND:KUNG FU FIGHTING-bg.png;
#CDTITLE:./CDTITLES/Dancing Stage Max.png;
#MUSIC:KUNG FU FIGHTING.ogg;
#SAMPLESTART:42.713;
#SAMPLELENGTH:15;
#DISPLAYBPM:102;
#BPMS:0=102.857,4=100.953,24=101.695,28=101.124,32=101.408,36=101.695,40=99.448,44=100.418,52=102.564,56=100.559,60=101.408,64=102.273,68=100,72=101.983,76=101.408,80=102.857,84=102.273,88=101.695,100=102.564,104=101.695,108=101.124,112=102.857,116=100.982,124=101.983,132=101.599,144=103.152,148=101.983,152=103.448,156=102.273,160=102.857,164=101.408,168=102.662;
#BGCHANGES:8.25=KUNG FU FIGHTING.avi=1=1=0=0;

//---------------dance-single - ----------------
#NOTES:
     dance-single:
     :
     Beginner:
     1:
     :
0000
0000
0000
0000
,
0000
0000
0000
0000
,
1000
0000
0000
0000
,
0001
0000
0000
0000
,
0100
0000
0000
0000
,
0010
0000
0000
0000
,
1000
0000
1000
0000
,
0001
0000
0001
0000
,
0100
0000
0100
0000
,
0200
0000
0000
0300
,
0100
0100
0000
0000
,
1000
1000
0000
0000
,
0001
0001
0000
0000
,
0010
0010
0000
0000
,
0001
0001
0000
0000
,
1000
1000
0000
0000
,
0100
0100
0000
0000
,
1001
0000
0000
0000
,
1000
0000
0001
0000
,
1001
0000
0000
0000
,
0010
0000
0100
0000
,
0110
0000
0000
0000
,
1000
0000
0001
0000
,
1001
0000
0000
0000
,
0100
0000
0010
0000
,
0110
0000
0000
0000
,
1000
1000
0000
0000
,
0001
0000
0000
0000
,
1000
0000
0000
0000
,
0001
0000
0000
0000
,
0100
0100
0000
0000
,
1000
0000
0000
0000
,
0001
0000
0000
0000
,
0010
0000
0000
0000
,
0001
0000
1000
0000
,
1001
0000
0000
0000
,
0100
0000
0010
0000
,
0110
0000
0000
0000
,
0001
0000
1000
0000
,
1001
0000
0000
0000
,
0010
0000
0100
0000
,
0110
0000
0000
0000
,
1001
0000
0000
0000
;

//---------------dance-single - ----------------
#NOTES:
     dance-single:
     :
     Easy:
     3:
     :
0000
0000
0000
0000
,
0000
0000
0000
0000
,
0001
0001
0100
0000
,
1000
1000
0100
0000
,
0100
0100
0010
0000
,
0010
0010
0100
0000
,
1000
0100
1000
0000
,
0001
0100
0001
0000
,
1000
0100
1000
0000
,
0200
0300
0020
0030
,
0001
1000
0001
0001
,
0002
0003
2000
3000
,
1000
0100
1000
1000
,
0200
0300
0020
0030
,
0010
0001
0010
0010
,
0002
0003
2000
3000
,
1000
0001
1000
1000
,
0002
0003
2000
3000
,
1000
1000
0100
0000
,
2002
0000
3003
0000
,
0001
0001
0100
0000
,
0220
0000
0330
0000
,
0100
0100
0010
0000
,
2002
0000
3003
0000
,
0010
0010
0100
0000
,
2002
0000
3003
0000
,
0001
0100
0001
0000
,
1000
0100
1000
0000
,
0001
0100
0001
0000
,
1000
0100
1000
0000
,
1000
0010
1000
1000
,
0020
0030
0200
0300
,
0001
0100
0001
0001
,
0200
0300
0002
0003
,
0001
0001
0100
0000
,
2002
0000
3003
0000
,
1000
1000
0100
0000
,
0220
0000
0330
0000
,
0010
0010
0100
0000
,
2002
0000
3003
0000
,
0100
0100
0010
0000
,
0220
0000
0000
0330
,
0110
0000
0000
0000
;

//---------------dance-single - ----------------
#NOTES:
     dance-single:
     :
     Medium:
     5:
     :
0000
0000
0000
0000
,
0000
0000
0000
0000
,
0110
0000
0000
0010
0000
0100
0100
0000
,
1001
0000
0000
1000
0000
0001
0001
0000
,
1010
0000
0000
0010
0000
1000
1000
0000
,
0101
0000
0000
0100
0000
0001
0001
0000
,
1100
0000
0000
1000
0000
0001
0001
0000
,
0101
0000
0000
0010
0000
1000
1000
0000
,
0110
0000
0000
0001
0000
0100
0100
0000
,
1001
0000
0000
0000
0010
0000
1000
0001
,
1000
0000
0100
0000
0010
0001
0100
0000
,
0001
0000
1000
2000
0000
0001
3001
0000
,
0010
0000
0001
0000
0010
0001
0100
0000
,
0100
0000
0001
0002
0000
0100
0103
0000
,
1000
0000
0100
0000
1000
0001
0100
0000
,
0010
0000
0100
0200
0000
0010
0310
0000
,
0010
0000
1000
0000
0010
1000
0001
0000
,
0100
0000
0001
0000
0010
0000
0100
1000
,
0002
0000
0000
2003
0000
0000
3000
0000
,
0010
1000
0001
0000
0100
0010
0001
0000
,
0020
0000
0000
0230
0000
0000
0300
0000
,
1000
0100
0001
0100
1000
0000
1001
0000
,
2000
0000
0000
3002
0000
0000
0003
0000
,
0010
0001
1000
0000
0010
0100
1000
0000
,
0200
0000
0000
0320
0000
0000
0030
0000
,
0001
0100
1000
0100
0001
0000
1001
0000
,
0001
0000
0100
0000
0010
1000
0100
0000
,
0001
0000
0001
0002
0000
1000
1003
0000
,
0010
0000
1000
0000
0010
1000
0001
0000
,
0100
0000
1000
2000
0000
0100
3100
0000
,
0001
0000
0100
0000
0001
1000
0100
0000
,
0010
0000
0100
0200
0000
0010
0310
0000
,
0010
0000
0001
0000
0010
0001
1000
0000
,
0001
0000
0100
0000
0010
0001
0010
0100
,
2000
0000
0000
3002
0000
0000
0003
0000
,
1001
0000
0000
0001
1000
0100
1000
0000
,
0200
0000
0000
0320
0000
0000
0030
0000
,
0110
0000
0000
1000
0001
0100
0001
0000
,
2000
0000
0000
3002
0000
0000
0003
0000
,
1100
0000
0000
0001
0010
0100
1000
0000
,
0020
0000
0000
0230
0000
0000
0300
0000
,
0101
0000
0000
1000
0010
0100
0001
0000
,
0220
0000
0000
0000
,
0330
0000
0000
0000
;

//---------------dance-single - ----------------
#NOTES:
     dance-single:
     :
     Hard:
     7:
     :
0000
0000
0000
0000
,
0000
0000
0000
0000
,
1001
0000
0110
0000
0010
1000
0100
0000
,
1100
0000
0101
0000
0001
1000
0100
0000
,
0110
0000
1001
0000
0010
0001
0100
0000
,
0101
0000
1100
0000
1000
0001
0100
0000
,
0010
1000
0100
0000
0100
1000
0010
0000
,
1000
0100
1000
0010
0100
0001
0010
0000
,
0001
0100
0001
0000
0010
0100
1000
0000
,
2000
0000
0000
3000
,
0010
1000
0100
0010
0100
0010
0001
0100
,
0010
0001
0010
1000
2020
0000
3030
0000
,
0010
0001
0100
0010
0100
0010
1000
0100
,
0010
0001
0100
0001
0202
0000
0303
0000
,
0010
0100
1000
0100
1000
0001
0100
0010
,
1000
0100
0001
0100
2002
0000
3003
0000
,
0100
0010
0001
0010
0001
1000
0010
0100
,
0001
1000
0100
0000
0001
0010
0100
0000
,
1000
1100
1001
0000
,
1000
0100
1000
0100
1000
0000
0100
0000
0010
0000
0001
0000
0100
0000
0000
0000
,
0001
0000
0000
0000
0101
0000
0000
0000
1001
0000
0000
0000
0000
0000
1000
0100
,
1000
0000
0001
0100
0001
0000
1000
0100
1000
0000
0100
0000
0010
0000
0000
0000
,
0001
0101
1001
0000
,
0001
0100
0001
0100
0001
0000
0100
0000
0010
0000
1000
0000
0100
0000
0000
0000
,
1000
0000
0000
0000
1100
0000
0000
0000
1001
0000
0000
0000
0000
0000
0001
0100
,
0001
0000
1000
0100
1000
0000
0001
0100
0001
0000
0100
0000
0010
0000
0000
0000
,
0100
0001
0010
0100
0010
0100
1000
0010
,
0100
0001
1000
0100
2200
0000
3300
0000
,
0100
1000
0010
0100
0010
0100
0001
0010
,
0100
1000
0001
0010
0022
0000
0033
0000
,
0100
0010
0001
0010
0001
1000
0010
0100
,
0001
0100
1000
0100
2002
0000
3003
0000
,
0010
0100
1000
0100
1000
0001
0100
0010
,
1000
0001
0010
0000
1000
0010
0100
0000
,
1000
1010
1001
0000
,
1000
0100
1000
0100
1000
0000
0100
0000
0010
0000
0001
0000
0100
0000
0000
0000
,
0001
0000
0000
0000
0101
0000
0000
0000
1001
0000
0000
0000
0000
0000
1000
0100
,
1000
0000
0001
0100
0001
0000
1000
0100
1000
0000
0100
0000
0010
0000
0000
0000
,
0001
0101
1001
0000
,
0001
0100
0001
0100
0001
0000
0100
0000
0010
0000
1000
0000
0100
0000
0000
0000
,
1000
0000
0000
0000
1100
0000
0000
0000
1001
0000
0000
0000
0000
0000
0001
0100
,
0001
0000
1000
0100
1000
0000
0001
0100
0001
0000
0100
0000
0010
0000
0000
0000
,
2002
0000
0000
0000
,
3003
0000
0000
0000
;

//---------------dance-double - ----------------
#NOTES:
     dance-double:
     :
     Easy:
     3:
     :
00000000
00000000
00000000
00000000
,
00000000
00000000
00000000
00000000
,
00022000
00033000
00010000
00001000
,
00000100
00000000
00001000
00010000
,
01000000
00000000
00010000
00001000
,
00000100
00000000
00001000
00010000
,
01000000
00000000
10000000
01000000
,
00010000
00000000
00001000
00000100
,
00000001
00000000
00000001
00000100
,
00001000
00000000
00010000
01000000
,
10000000
00000000
00100000
00010000
,
00002000
00000000
00000000
00003000
,
00010000
00001000
00000010
00000001
,
00000200
00000000
00000000
00000300
,
00001000
00010000
01000000
10000000
,
00200000
00000000
00000000
00300000
,
00010000
00001000
00000010
00001000
,
00020000
00000000
00000000
00030000
,
00001000
00001000
00010000
00000000
,
00022000
00000000
00000000
00033000
,
00000100
00000100
00000010
00000000
,
00000220
00000000
00000000
00000330
,
00000001
00000001
00001000
00000000
,
00022000
00000000
00000000
00033000
,
01000000
01000000
00100000
00000000
,
02200000
00000000
00000000
03300000
,
10000000
01000000
00010000
00000000
,
00001000
00000100
00000001
00000000
,
00000001
00000100
00001000
00000000
,
00010000
01000000
10000000
00000000
,
01000000
00010000
00001000
00000000
,
00000010
00001000
00010000
00000000
,
00010000
00001000
00000100
00000000
,
00001000
00010000
01000000
00000000
,
10000000
00100000
00010000
00001000
,
00022000
00000000
00000000
00033000
,
00001000
00000100
00000001
00000010
,
00000220
00000000
00000000
00000330
,
00000001
00000010
00001000
00010000
,
00022000
00000000
00000000
00033000
,
00010000
01000000
10000000
00100000
,
02200000
00000000
00000000
03300000
,
01100000
00000000
00000000
00000000
;

//---------------dance-double - ----------------
#NOTES:
     dance-double:
     :
     Medium:
     4:
     :
00000000
00000000
00000000
00000000
,
00000000
00000000
00000000
00000000
,
00000001
00000010
00000100
00010000
,
00001000
00100000
01000000
10000000
,
00100000
00010000
00001000
00000010
,
00001000
00010000
01000000
00000000
,
00001000
00000100
00000010
00001000
,
00000010
00010000
01000000
10000000
,
01000000
00010000
00000100
00010000
,
00001000
00000100
00000010
00000000
,
00010000
00010000
01000000
00000000
00100000
00000000
00001000
00000000
,
00010000
00010000
01000000
00000000
00100000
00000000
00001000
00000000
,
00000010
00000010
00000100
00000000
00001000
00000000
00000010
00000000
,
00000100
00000100
00001000
00000000
00010000
00000000
01000000
00000000
,
10000000
10000000
00100000
00000000
00010000
00000000
00100000
00000000
,
00010000
00010000
00001000
00000000
00000010
00000000
00000001
00000000
,
00001000
00001000
00000100
00000000
00010000
00000000
00001000
00000000
,
00011000
00000000
00000100
00000000
00001000
00000000
00000010
00001000
,
00001010
00000000
00000000
00000101
00000000
00000000
00000000
00000000
,
00000010
00000100
00001000
00000000
00010000
01000000
10000000
00000000
,
10010000
00000000
00000000
11000000
00000000
00000000
00000000
00000000
,
00100000
10000000
00010000
00000000
01000000
00001000
00010000
00000000
,
00011000
00000000
00000000
01010000
00000000
00000000
00000000
00000000
,
00100000
01000000
00010000
00000000
00001000
00000100
00000001
00000000
,
00001001
00000000
00000000
00000101
00000000
00000000
00000000
00000000
,
00000010
00000001
00001000
00000000
00000100
00010000
00001000
00000000
,
00001000
00001000
01000000
00000000
00100000
00000000
10000000
00000000
,
01000000
01000000
00010000
00000000
00001000
00000000
00010000
00000000
,
00001000
00001000
00000100
00000000
00000001
00000000
00000010
00000000
,
00000001
00000001
00000100
00000000
00001000
00000000
00010000
00000000
,
01000000
01000000
10000000
00000000
00010000
00000000
00100000
00000000
,
00001000
00001000
00010000
00000000
00000100
00000000
00000010
00000000
,
00000001
00000001
00000100
00000000
00001000
00000000
00010000
00000000
,
00001000
00000000
01000000
00000000
00010000
00000000
10000000
01000000
,
11000000
00000000
00000000
01010000
00000000
00000000
00000000
00000000
,
00100000
10000000
01000000
00000000
01000000
00010000
00001000
00000000
,
00011000
00000000
00000000
00010100
00000000
00000000
00000000
00000000
,
00010000
00001000
00000100
00000000
00001000
00000100
00000010
00000000
,
00000110
00000000
00000000
00001001
00000000
00000000
00000000
00000000
,
00000010
00000001
00000100
00000000
00000100
00001000
00010000
00000000
,
00011000
00000000
00000000
01001000
00000000
00000000
00000000
00000000
,
00001000
00010000
01000000
00000000
01000000
00010000
00001000
00000000
,
00022000
00000000
00000000
00000000
,
00033000
00000000
00000000
00000000
;

//---------------dance-double - ----------------
#NOTES:
     dance-double:
     :
     Hard:
     6:
     :
00000000
00000000
00000000
00000000
,
00000000
00000000
00000000
00000000
,
00001000
00000000
00000000
00010000
00001000
00000000
00010000
00000000
00000000
00000000
01000000
00000000
10000000
00000000
00000000
00000000
,
01000000
00000000
00000000
00100000
01000000
00000000
00100000
00000000
00000000
00000000
00001000
00000000
00010000
00000000
00000000
00000000
,
00000100
00000000
00000000
00000010
00000100
00000000
00000010
00000000
00000000
00000000
00000001
00000000
00001000
00000000
00000000
00000000
,
00000001
00000000
00000000
00000010
00000001
00000000
00000010
00000000
00000000
00000000
00000100
00000000
00010000
00000000
00000000
00000000
,
00010000
00000000
00000000
00001000
00010000
00000000
00001000
00000000
00000000
00000000
00000100
00000000
00000001
00000000
00000000
00000000
,
00000100
00000000
00000000
00000010
00000100
00000000
00000010
00000000
00000000
00000000
00010000
00000000
00001000
00000000
00000000
00000000
,
01000000
00000000
00000000
00100000
01000000
00000000
00100000
00000000
00000000
00000000
10000000
00000000
00010000
00000000
00000000
00000000
,
10000000
00000000
00000000
00100000
10000000
00000000
00100000
00000000
00000000
00000000
00000000
00000000
00010000
00000000
00001000
00000000
,
00010000
01000000
10000000
01000000
00020000
00000000
00030100
00000000
,
00000010
00000001
00001000
00000001
00000200
00000000
00001300
00000000
,
00010000
00001000
00000100
00001000
00020000
00000000
00130000
00000000
,
01000000
00010000
10000000
00100000
02000000
00000000
03010000
00000000
,
00100000
10000000
01000000
00000000
10000000
00100000
00010000
00001000
,
00000010
00000001
00000100
00000010
00002002
00000000
00003003
00000000
,
00000010
00000001
00000100
00000000
00000001
00000010
00001000
00000000
,
00010000
00100000
10000000
01000000
00010000
01000000
10000000
00010000
,
01000000
00001000
00100000
00000000
,
00001000
00010000
00001000
00010000
00001000
00000000
00100000
00000000
00001000
00000000
00010000
00000000
00000100
00000000
00000000
00000000
,
00000100
00000000
00000000
00000000
00010000
00000000
00000000
00000000
00000010
00000000
00000000
00000000
00000000
00000000
00000001
00000100
,
00000001
00000000
00000100
00001000
00000100
00000000
00001000
00010000
00001000
00000000
00000100
00000000
00000001
00000000
00000000
00000000
,
00000100
00000010
00001000
00000000
,
00010000
00001000
00010000
00001000
00010000
00000000
00000010
00000000
00010000
00000000
00001000
00000000
01000000
00000000
00000000
00000000
,
01000000
00000000
00000000
00000000
00010000
00000000
00000000
00000000
00100000
00000000
00000000
00000000
00000000
00000000
10000000
01000000
,
10000000
00000000
01000000
00010000
01000000
00000000
00010000
00001000
00010000
00000000
00001000
00000000
00011000
00000000
00000000
00000000
,
00010000
00001000
00000100
00000001
00002000
00000000
00003100
00000000
,
00000010
00000001
00001000
00000001
00000200
00000000
00001300
00000000
,
00010000
00001000
00000100
00001000
00010000
00000000
01000000
01000000
,
00010000
01000000
10000000
00100000
02000000
00000000
03010000
00000000
,
00100000
10000000
01000000
00000000
10000000
00100000
00010000
00001000
,
00000010
00000001
00000100
00000010
00002002
00000000
00003003
00000000
,
00000010
00000001
00000100
00000000
00000001
00000010
00001000
00000000
,
00010000
00100000
10000000
01000000
00100000
00010000
01000000
00001000
,
00010000
00100000
01000000
00000000
,
10000000
01000000
10000000
01000000
10000000
00000000
01000000
00000000
00010000
00000000
00001000
00000000
00000100
00000000
00000000
00000000
,
00000001
00000000
00000000
00000000
00001000
00000000
00000000
00000000
00000010
00000000
00000000
00000000
00000000
00000000
00000001
00000100
,
00000001
00000000
00000100
00001000
00000100
00000000
00001000
00010000
00001000
00000000
00010000
00000000
00011000
00000000
00000000
00000000
,
00010000
00001000
00000100
00000000
,
00001000
00000001
00001000
00000001
00001000
00000000
00000001
00000000
00000100
00000000
00001000
00000000
00010000
00000000
00000000
00000000
,
00010000
00000000
00000000
00000000
01000000
00000000
00000000
00000000
10000000
00000000
00000000
00000000
00000000
00000000
10000000
01000000
,
10000000
00000000
01000000
00010000
01000000
00000000
00010000
00001000
00010000
00000000
00001000
00000000
00011000
00000000
00000000
00000000
,
02002000
00000000
00000000
03003000
;
