
//----- song ID: hipt -----//
#TITLE:Hip To Hip;
#ARTIST:V;
#BANNER:Hip To Hip.png;
#BACKGROUND:Hip To Hip-bg.png;
#CDTITLE:./CDTITLES/Dancing Stage Max.png;
#MUSIC:Hip To Hip.ogg;
#SAMPLESTART:48.611;
#SAMPLELENGTH:15;
#BPMS:0=108;
#BGCHANGES:7=Hip To Hip.avi=1=1=0=0;

//---------------dance-single - ----------------
#NOTES:
     dance-single:
     :
     Beginner:
     1:
     :
0000
0000
0000
0000
,
0000
0000
0000
0000
,
0000
0000
0000
0000
,
0000
0000
0000
0000
,
1000
0000
1000
0000
,
0001
0001
0000
0000
,
1001
0000
0001
0000
,
0001
0001
0000
0000
,
0010
0000
0100
0000
,
1000
1000
0000
0000
,
0100
0000
0010
0000
,
0100
0100
0000
0000
,
0010
0000
0100
0000
,
0010
0010
0000
0000
,
0000
0001
0001
0000
,
0000
1000
1000
0000
,
0000
0010
0010
0000
,
0000
0100
0100
0000
,
0000
1000
1000
0000
,
0000
0001
0001
0000
,
1000
1000
1000
0000
,
0001
0001
0001
0000
,
1000
0000
0001
0001
,
0000
1000
0000
1000
,
1000
0000
0001
0001
,
0000
0001
0000
0000
,
0010
0000
0100
0100
,
0000
0010
0000
0000
,
0100
0000
0010
0010
,
0000
0100
0000
0100
,
0100
0000
1000
0000
,
0001
0000
0010
0000
,
0001
0000
1000
0000
,
0001
0001
0000
0000
,
1000
0000
0001
0000
,
1000
1000
0000
0000
,
0010
0000
0100
0000
,
0010
0010
0000
0000
,
0100
0000
0010
0000
,
0100
0100
0000
0000
,
1001
0000
0000
0000
;

//---------------dance-single - ----------------
#NOTES:
     dance-single:
     :
     Easy:
     3:
     :
0000
0000
0000
0000
,
0000
0000
0000
0000
,
0000
0000
0000
0000
,
0000
0000
0000
0000
,
1000
0000
0001
0000
,
1000
0000
0001
0000
,
1001
0000
0010
0000
,
0100
0010
0100
0000
,
0010
0000
0100
0000
,
1000
1000
0001
0001
,
0010
0000
0100
0000
,
1000
0001
1000
0000
,
1001
0000
0110
0000
,
0010
1000
0001
0100
,
0001
0000
0001
0000
,
1000
1000
1000
0000
,
0010
0000
0010
0000
,
0100
0100
0100
0000
,
1001
0001
0001
0000
,
1001
1000
1000
0000
,
0001
1000
0001
1000
,
0100
0100
0010
0000
,
1001
0000
0010
0001
,
1000
0000
0001
0000
,
1001
0000
0010
1000
,
0001
0001
2000
3000
,
1001
0000
0010
1000
,
0001
0000
1000
0000
,
1001
0000
0010
0001
,
1000
1000
0002
0003
,
0010
0000
0100
0000
,
1000
0001
1000
0000
,
1001
0000
0001
0000
,
1000
0001
1000
0000
,
1000
0000
0001
0000
,
1000
1000
0001
0001
,
0100
0000
0010
0000
,
0001
1000
0001
0000
,
0010
0100
0010
0100
,
0001
1000
0001
1000
,
1001
0000
0000
0000
;

//---------------dance-single - ----------------
#NOTES:
     dance-single:
     :
     Medium:
     5:
     :
0000
0000
0000
0000
,
0000
0000
0000
0000
,
0000
0000
0000
0000
,
0000
0000
0000
0000
,
0001
0000
0010
0000
,
0100
1000
0001
1000
,
1001
0000
0100
0000
1000
0100
1000
0000
,
0100
0000
1000
0000
1000
0000
0001
1000
,
0010
0000
1000
0001
0100
0000
0000
0000
,
0001
0000
1000
0000
0001
1000
0001
0000
,
0010
1000
0001
0100
,
0010
0000
0010
0000
0100
0000
0001
1000
,
0010
0000
1000
0001
0100
0001
0010
0000
,
0100
1000
1000
0000
0100
0100
0100
0000
,
0010
0100
1000
1000
,
0010
0000
0100
0000
0001
0001
0001
0000
,
1000
0001
0100
0100
,
0001
0000
1000
0000
0010
0010
0010
0000
,
1000
0100
0010
0001
,
0010
0000
0100
0000
1000
0100
1000
0000
,
0001
0100
0010
1000
,
0010
0100
0001
0010
0100
0000
0000
0000
,
1001
0000
0010
1000
0001
1000
0100
0000
,
0010
0001
0001
1000
,
1001
0000
0010
0001
1000
0001
0100
0000
,
0010
0100
0002
0003
,
1001
0000
0010
1000
0001
0010
0100
0000
,
1000
0001
0010
0100
,
1001
0000
0010
0001
1000
0010
0100
0000
,
0001
1000
0010
0100
,
0001
0000
0010
0000
,
0100
1000
0001
1000
,
1001
0000
0001
0000
1000
0001
1000
0000
,
0001
0000
0010
0000
0100
0000
0010
0100
,
1000
0000
0010
0100
0001
0000
0000
0000
,
0010
0000
0100
0000
0010
0100
0010
0000
,
0100
1000
0001
0010
,
0010
0001
0100
0001
,
1000
0001
0100
0010
1000
0100
0010
0000
,
0001
0100
1000
0010
,
1001
0000
0000
0000
;

//---------------dance-single - ----------------
#NOTES:
     dance-single:
     :
     Hard:
     7:
     :
0000
0000
0000
0000
,
0000
0000
0000
0000
,
0000
0000
0000
0000
,
0000
0000
0000
0000
,
0001
1000
0100
0010
,
0100
0000
1000
0000
0001
0000
0001
0100
,
0010
1000
0001
0100
0010
1000
0010
1000
,
1000
0000
0100
0000
0010
0000
0001
0000
1000
0000
0001
0000
0010
0001
1000
0001
,
0010
0000
0000
0000
0100
1000
0001
1000
0100
0000
0010
0000
0100
0000
1000
0000
,
0000
0001
0100
0010
0000
1000
0100
0000
,
0010
0001
0100
0001
0010
0100
1000
0000
,
0010
0000
1000
0000
0100
0000
0010
0000
0001
0000
0000
0000
0001
1000
0010
1000
,
0001
0000
0000
0000
0100
0001
0100
0010
0100
0000
0001
0000
0100
0000
1000
0000
,
0100
0001
0010
0100
0010
0001
1000
0000
,
1001
0000
0000
0000
1000
0000
0001
0100
0000
0000
0020
0000
0000
0000
0000
0000
,
0000
0000
0000
0000
0130
0000
0001
1000
0000
0000
0001
0000
0100
0000
0001
0000
,
1000
0000
0000
0000
0001
0000
1000
0010
0000
0000
0200
0000
0000
0000
0000
0000
,
0000
0000
0000
0000
0310
0000
1000
0001
0000
0000
1000
0000
0100
0000
1000
0000
,
0001
0000
0000
0000
1000
0000
0010
0100
0000
0000
0002
0000
0000
0000
0000
0000
,
0000
0000
0000
0000
1003
0000
0001
0200
0000
0000
0000
0000
0000
0000
0000
0000
,
0301
1000
0010
0001
1000
0100
0001
0000
,
0001
0100
0010
1000
0100
0000
0000
0010
,
0001
0000
0100
0010
0000
0100
0000
0001
0000
1000
0100
0000
0000
0000
0000
0000
,
1000
0100
0010
0001
0100
1000
0100
0001
,
1000
0000
0010
0100
0000
0001
0000
0010
0000
0100
1000
0000
0000
0000
0000
0000
,
1000
0100
0001
0010
0100
0000
0000
0010
,
1000
0000
0100
0010
0000
0100
0000
1000
0000
0001
0100
0000
0000
0000
0000
0000
,
0001
0100
0010
1000
0100
0001
0100
1000
,
0001
0000
0010
0100
0000
1000
0000
0010
0000
0100
0001
0000
0000
0000
0000
0000
,
0001
1000
0010
0100
0001
0000
0000
0000
,
1000
0001
0100
0010
,
0100
0000
0001
0000
1000
0000
1000
0100
,
0010
0001
1000
0100
0001
0100
0010
0001
,
0100
0000
0010
0000
1000
0000
0100
0000
0001
0000
0000
0000
1000
0010
0100
0010
,
1000
0000
0000
0000
0001
0100
0010
0100
0001
0000
0010
0000
0100
0000
1000
0000
,
0000
0010
0100
0010
0001
1000
0100
0000
,
0001
1000
0100
1000
0010
0100
0001
0010
,
0001
1000
0010
0100
0010
1000
0001
0001
,
0100
0010
1000
0001
1000
0100
1000
0000
,
0010
1000
0100
0001
0010
0000
0100
0000
,
1001
0000
0000
0000
;

//---------------dance-double - ----------------
#NOTES:
     dance-double:
     :
     Easy:
     3:
     :
00000000
00000000
00000000
00000000
,
00000000
00000000
00000000
00000000
,
00000000
00000000
00000000
00000000
,
00000000
00000000
00000000
00000000
,
00100000
00000000
10000000
00000000
,
01000000
00000000
00010000
00000000
,
00011000
00000000
00001000
00000000
,
00000010
00000100
00001000
00000000
,
00000010
00000000
00000100
00000000
,
00001000
00001000
00010000
00010000
,
00100000
00000000
00010000
00000000
,
10000000
01000000
00100000
00000000
,
01100000
00000000
10010000
00000000
,
00100000
10000000
01000000
00010000
,
00001000
00000000
00010000
00000000
,
00001000
00001000
00010000
00000000
,
00000100
00000000
00000100
00000000
,
00000010
00000010
00000100
00000000
,
00000100
00000100
00001000
00000000
,
00000001
00000001
00000100
00000000
,
00000100
00001000
00010000
00001000
,
00010000
00010000
00001000
00000000
,
00011000
00000000
00010000
01000000
,
10000000
00000000
00010000
00000000
,
10010000
00000000
00100000
00010000
,
10000000
01000000
00020000
00030000
,
00011000
00000000
00001000
00000100
,
00000001
00000000
00001000
00000000
,
00001001
00000000
00000010
00001000
,
00000001
00000100
00002000
00003000
,
00000100
00000000
00000001
00000000
,
00000010
00000000
00001000
00000000
,
00011000
00000000
00010000
00000000
,
00100000
01000000
00010000
00000000
,
00010000
00000000
00001000
00000000
,
00010000
00010000
00001000
00001000
,
00000010
00000000
00001000
00000000
,
00000001
00000100
00000010
00000000
,
00000001
00000100
00001000
00000000
,
00001000
00010000
01000000
10000000
,
10010000
00000000
00000000
00000000
;

//---------------dance-double - ----------------
#NOTES:
     dance-double:
     :
     Medium:
     5:
     :
00000000
00000000
00000000
00000000
,
00000000
00000000
00000000
00000000
,
00000000
00000000
00000000
00000000
,
00000000
00000000
00000000
00000000
,
00010000
00000000
00001000
00000000
,
00010000
00001000
00000100
00000001
,
00001001
00000000
00000010
00000000
00000001
00000100
00000001
00000000
,
00000100
00000000
00001000
00000000
00010000
00000000
01000000
10000000
,
00100000
00000000
10000000
00010000
01000000
00000000
00100000
00000000
,
10000000
00000000
01000000
00000000
00010000
00001000
00010000
00000000
,
00001000
00000010
00000001
00000100
,
00000010
00000000
00000010
00000000
00000100
00000000
00000010
00001000
,
00000001
00000000
00001000
00000001
00000100
00001000
00010000
00000000
,
00010000
00001000
00001000
00000000
00100000
00100000
00100000
00000000
,
00100000
01000000
10000000
10000000
,
00100000
00000000
01000000
00000000
00010000
00010000
00010000
00000000
,
10000000
01000000
00010000
00010000
,
00001000
00000000
00000100
00000000
00000010
00000010
00000010
00000000
,
00001000
00000001
00000001
00001000
,
00000010
00000000
00000100
00000000
00001000
00010000
00001000
00000000
,
00010000
01000000
10000000
01000000
,
00100000
00010000
10000000
01000000
00010000
00000000
00000000
00000000
,
00011000
00000000
00010000
00001000
00000100
00000001
00000100
00000000
,
00001000
00010000
01000000
10000000
,
10010000
00000000
10000000
01000000
00010000
01000000
10000000
00000000
,
10000000
01000000
00020000
00030000
,
00011000
00000000
00001000
00010000
01000000
10000000
01000000
00000000
,
00010000
00001000
00000100
00000001
,
00001001
00000000
00000001
00000100
00001000
00000100
00000001
00000000
,
00000001
00000100
00002000
00003000
,
00001000
00000000
00010000
00000000
,
00001000
00010000
01000000
10000000
,
10010000
00000000
00100000
00000000
10000000
01000000
10000000
00000000
,
01000000
00000000
00010000
00000000
00001000
00000000
00000100
00000001
,
00001000
00000000
00000100
00001000
00000001
00000000
00000010
00000000
,
00000001
00000000
00000100
00000000
00001000
00010000
00001000
00000000
,
00010000
00100000
10000000
01000000
,
00100000
00100000
01000000
00100000
,
00010000
01000000
00010000
10000000
01000000
00010000
00001000
00000000
,
00010000
00001000
00000100
00000001
,
00001001
00000000
00000000
00000000
;

//---------------dance-double - ----------------
#NOTES:
     dance-double:
     :
     Hard:
     6:
     :
00000000
00000000
00000000
00000000
,
00000000
00000000
00000000
00000000
,
00000000
00000000
00000000
00000000
,
00000000
00000000
00000000
00000000
,
00012000
00000000
01000000
00013000
,
00201000
00000000
00010000
00301000
,
00110000
00000000
10000000
00000000
10000000
01000000
00010000
00000000
,
00001000
00000000
00010000
00000000
00001000
00000000
00000100
00000000
00001000
00000000
00000000
00000000
00010000
00001000
00010000
00000000
,
00000010
00000000
00000000
00000000
00001000
00000010
00001000
00000000
00000100
00000000
00000000
00000000
00000100
00000000
00001000
00000000
,
00000000
00000001
00000100
00001000
00000000
00010000
00001000
00000000
,
00010000
00000000
00100000
00000000
10000000
01000000
00100000
00000000
,
00010000
00000000
00000000
00000000
10000000
00000000
00000000
00000000
01000000
00000000
00010000
00000000
00001000
00010000
00001000
00000000
,
00010000
00000000
00000000
00000000
00001000
00010000
00001000
00000000
00000100
00000000
00000010
00000000
00000100
00000000
00000000
00000000
,
00000001
00000010
00000100
00001000
00000001
00000100
00001000
00000000
,
00010000
00000000
00100000
00000000
10000000
01000000
00100000
00010000
,
10000000
00000000
01000000
00000000
00010000
00001000
00000100
00000001
,
00000100
00000000
00000010
00000000
00000010
00001000
00000001
00000100
,
00000001
00000000
00000100
00000000
00001000
00010000
00100000
00010000
,
00001000
00000000
00010000
00000000
01000000
00100000
00010000
10000000
,
01000000
00000000
00100000
00000000
01000000
10000000
00100000
00000000
,
00010000
00000000
00001000
00000000
00001000
00000100
00000001
00000000
,
00000100
00000010
00001000
00000100
00000010
00000000
00000000
00000010
,
00000001
00000000
00001000
00000100
00000000
00010000
00000000
01000000
00000000
10000000
01000000
00000000
00100000
00000000
00000000
00000000
,
01000000
00010000
01000000
10000000
00010000
00100000
01000000
00000000
,
10000000
00000000
00010000
01000000
00000000
00001000
00000000
00000100
00000000
00000001
00000100
00000000
00000010
00000000
00000000
00000000
,
00000100
00001000
00010000
00100000
10000000
01000000
00100000
00000000
,
10000000
00000000
00010000
01000000
00000000
00001000
00000000
00000100
00000000
00000001
00000100
00000000
00000010
00000000
00000000
00000000
,
00001000
00000001
00000100
00000010
00001000
00000001
00000100
00000000
,
00000001
00000000
00001000
00000100
00000000
00010000
00000000
01000000
00000000
10000000
01000000
00000000
00100000
00000000
00000000
00000000
,
00010000
10000000
00100000
01000000
10000000
01000000
00010000
00000000
,
00021000
00000000
00000010
00031000
,
00001200
00000000
00010000
00001300
,
00001010
00000000
00000001
00000000
00000001
00000100
00001000
00000000
,
00010000
00000000
00001000
00000000
00010000
00000000
01000000
00000000
00010000
00000000
00000000
00000000
00001000
00010000
00001000
00000000
,
00100000
00000000
00000000
00000000
00010000
00100000
00010000
00000000
01000000
00000000
00000000
00000000
01000000
00000000
00010000
00000000
,
00000000
10000000
01000000
00010000
00000000
00001000
00010000
00000000
,
00001000
00000000
00000010
00000000
00000001
00000100
00000010
00000000
,
00001000
00000000
00000001
00000000
00000100
00001000
00010000
00010000
,
00001000
00001000
00010000
00010000
01000000
00100000
01000000
00000000
,
10000000
00100000
01000000
00010000
10000000
01000000
00010000
00000000
,
00011000
00000000
00000000
00000000
;
