
//----- song ID: oody -----//
#TITLE:Goody Two Shoes;
#ARTIST:Adam Ant;
#BANNER:Goody Two Shoes.png;
#BACKGROUND:Goody Two Shoes-bg.png;
#CDTITLE:./CDTITLES/Dancing Stage Max.png;
#MUSIC:Goody Two Shoes.ogg;
#SAMPLESTART:61.367;
#SAMPLELENGTH:15;
#DISPLAYBPM:190;
#BPMS:0=190.981,16=193.548,20=191.489,24=191.829,36=193.548,40=189.974,48=192.513,60=190.981,68=192,76=190.476,80=190.981,88=194.595,92=193.548,96=192.513,100=188.482,104=192.513,108=186.528,112=195.652,116=191.489,120=192.513,124=189.474,128=194.595,132=190.476,136=192.513,140=188.482,144=196.721,148=187.5,152=192.171,164=190.476,168=191.489,176=193.548,180=188.482,184=193.548,188=192,196=196.721,200=188.482,204=190.476,208=192.513,212=189.474,216=192,240=191.489,244=188.482,248=194.595,252=192.171,264=188.482,268=192.513,276=191.489,280=193.548,288=191.489,292=190.476,296=191.489,300=190.981,308=192.513,312=191.489,316=190.476,320=193.029,328=190.981,336=191.489,340=194.595,344=187.5,348=195.122,356=187.5,360=190.476,368=190.981;
#BGCHANGES:3.5=Goody Two Shoes.avi=1=1=0=0;

//---------------dance-single - ----------------
#NOTES:
     dance-single:
     :
     Beginner:
     2:
     :
0000
0000
0000
0000
,
0000
0000
0000
0000
,
0000
0000
0000
0000
,
0000
0000
0000
0000
,
0000
0000
0000
0000
,
1000
0000
0000
0000
,
0000
0000
0000
0000
,
0001
0000
0000
0000
,
0000
0000
0000
0000
,
1000
0000
0000
0000
,
0000
0000
0000
0000
,
0001
0000
0000
0000
,
1000
0000
0000
0000
,
0001
0000
0000
0000
,
1000
0000
0000
0000
,
0010
0000
0000
0000
,
0100
0000
0000
0000
,
0010
0000
0000
0000
,
0100
0000
0000
0000
,
0001
0000
0000
0000
,
1000
0000
0000
0000
,
0001
0000
0001
0000
,
0001
0000
0000
0000
,
1000
0000
1000
0000
,
1000
0000
0000
0000
,
0100
0000
0100
0000
,
0100
0000
0000
0000
,
0010
0000
0010
0000
,
0010
0000
0000
0000
,
0001
0000
0000
0000
,
0001
0000
0000
0000
,
1000
0000
0000
0000
,
1000
0000
0000
0000
,
0001
0000
0001
0000
,
0000
0000
0000
0000
,
1000
0000
1000
0000
,
0000
0000
0000
0000
,
0100
0000
0000
0000
,
0100
0000
0000
0000
,
0010
0000
0000
0000
,
0010
0000
0000
0000
,
0100
0000
0100
0000
,
0000
0000
0000
0000
,
0010
0000
0010
0000
,
0000
0000
0000
0000
,
0001
0000
0000
0000
,
1000
0000
0000
0000
,
0001
0000
0000
0000
,
1000
0000
0000
0000
,
1001
0000
0000
0000
,
1001
0000
0000
0000
,
0010
0000
0000
0000
,
0100
0000
0000
0000
,
0001
0000
0001
0000
,
0000
0000
0000
0000
,
1000
0000
1000
0000
,
0000
0000
0000
0000
,
0010
0000
0010
0000
,
0010
0000
0000
0000
,
0100
0000
0100
0000
,
0100
0000
0000
0000
,
0001
0000
0000
0000
,
0100
0000
0000
0000
,
0001
0000
0000
0000
,
0100
0000
0000
0000
,
0010
0000
0010
0000
,
0000
0000
0000
0000
,
1000
0000
1000
0000
,
0000
0000
0000
0000
,
0100
0000
0000
0000
,
0010
0000
0000
0000
,
0001
0000
0000
0000
,
1000
0000
0000
0000
,
0010
0000
0010
0000
,
0000
0000
0000
0000
,
0100
0000
0100
0000
,
0000
0000
0000
0000
,
0001
0000
0000
0000
,
1000
0000
0000
0000
,
0010
0000
0000
0000
,
0100
0000
0000
0000
,
1001
0000
0000
0000
,
1001
0000
0000
0000
,
0100
0000
0000
0000
,
0010
0000
0000
0000
,
0001
0000
0001
0000
,
0000
0000
0000
0000
,
1000
0000
1000
0000
,
0000
0000
0000
0000
,
0010
0000
0000
0000
,
0100
0000
0000
0000
,
0110
0000
0000
0000
;

//---------------dance-single - ----------------
#NOTES:
     dance-single:
     :
     Easy:
     5:
     :
0000
0000
0000
0000
,
0000
0000
0000
0000
,
0000
0000
0000
0000
,
0000
0000
0000
0000
,
0000
1000
0000
0001
,
0000
1000
0000
0000
,
0000
0010
0000
0100
,
0000
0010
0000
0000
,
0000
0100
0000
0001
,
0000
0100
0000
0000
,
0000
0001
1000
0001
,
1000
0000
1000
0000
,
0001
0000
0001
0000
,
0010
0000
0100
0000
,
0010
0000
0100
0000
,
1000
0000
1000
0000
,
0001
0000
0001
0000
,
0100
0000
0010
0000
,
0100
0000
0010
0000
,
1000
0000
0001
0000
,
1000
0000
0001
0000
,
0100
0100
0100
0000
,
0001
0000
1000
0000
,
0010
0010
0010
0000
,
1000
0000
0100
0000
,
1000
1000
1000
0000
,
0001
0000
1000
0000
,
0001
0001
0001
0000
,
1000
0000
0001
0000
,
1000
0001
1000
0000
,
0100
0000
0010
0000
,
0001
1000
0001
0000
,
1000
0000
0001
0000
,
0101
0000
0101
0000
,
0001
0000
1000
0000
,
1100
0000
1100
0000
,
1000
0000
0001
0000
,
0010
0100
0010
0000
,
0001
0000
1000
0000
,
0010
0100
0010
0000
,
1000
0000
0001
0000
,
0011
0000
0011
0000
,
0001
0000
1000
0000
,
1010
0000
1010
0000
,
1000
0000
0001
0000
,
0100
0100
0100
0000
,
0001
0000
1000
0000
,
0010
0010
0010
0000
,
1000
0000
0001
0000
,
1000
0010
1000
0000
,
0001
0100
0001
0000
,
0010
0001
0010
0000
,
0100
1000
0100
0000
,
1000
1000
0001
0001
,
0000
0000
1000
0000
,
0010
0010
0100
0100
,
0000
0000
0010
0000
,
2000
0000
3000
0000
,
0002
0000
0003
0000
,
2002
0000
3003
0000
,
0001
1000
0001
1000
,
0100
0000
1000
0000
,
0010
0000
0100
0000
,
0001
0000
0100
0000
,
0010
0000
1000
0000
,
1001
0000
1001
0000
,
0001
0000
0010
0000
,
0110
0000
0110
0000
,
0100
0000
1000
0000
,
0010
0000
0100
0000
,
0001
0000
0100
0000
,
0010
0000
1000
0000
,
0001
0000
0010
0000
,
0110
0000
0110
0000
,
0100
0000
1000
0000
,
1001
0000
1001
0000
,
0001
0000
1000
0000
,
0010
0010
0010
0000
,
1000
0000
0001
0000
,
0100
0100
0100
0000
,
0001
0000
1000
0000
,
0001
0100
0001
0000
,
1000
0010
1000
0000
,
0100
1000
0100
0000
,
0010
0001
0010
0000
,
0001
0001
1000
1000
,
0000
0000
0001
0000
,
0100
0100
0010
0010
,
0000
0000
0100
0000
,
0002
0000
0003
0000
,
2000
0000
3000
0000
,
2002
0000
3003
0000
;

//---------------dance-single - ----------------
#NOTES:
     dance-single:
     :
     Medium:
     7:
     :
0000
0000
0000
0000
,
0000
0000
0000
0000
,
0000
0000
0000
0000
,
0000
0000
0000
0000
,
0000
1000
0000
0100
0000
1000
0000
0100
,
1000
0000
0000
0000
,
0000
0001
0000
0100
0000
0001
0000
0100
,
0001
0000
0000
0000
,
0000
0000
1000
0100
0000
0001
0000
0100
,
1000
0000
0000
0000
,
0000
0001
1000
0001
,
1000
0010
1000
0001
,
0010
0001
1000
0000
,
0001
0010
1000
0001
,
0100
1000
0100
0000
,
1000
0100
1000
0001
,
0100
0001
1000
0000
,
0001
0100
1000
0001
,
0100
1000
0100
0000
,
1000
0010
0100
0001
,
1000
0010
0100
0000
,
1000
0100
0010
0001
,
0100
1000
0100
0000
,
0100
0001
0100
0010
,
1000
0100
0010
0000
,
0010
0001
0100
1000
,
0100
0010
0001
0000
,
1000
0100
0010
0100
,
1000
0010
0100
0000
,
1000
0001
0200
0300
,
0001
1000
0200
0300
,
0010
0001
2000
3000
,
0010
1000
0002
0003
,
2100
3001
0102
1003
,
0000
0001
0100
0010
,
2010
3001
0012
1003
,
0000
0010
0001
1000
,
0001
0010
2000
3000
,
0010
0001
0200
0300
,
1000
0100
0002
0003
,
0010
0100
2000
3000
,
0012
0013
2100
3100
,
0000
0000
0001
0100
,
2010
3010
0102
0103
,
0000
0001
0000
1000
0000
0001
0000
1000
,
0010
0100
0001
1000
,
0010
0001
1000
0000
,
0001
0100
0010
1000
,
0100
0010
0001
0000
,
0001
1000
0001
0000
1000
0001
1000
0000
,
0002
1003
2000
3001
,
0010
0100
0010
0000
0100
0010
0100
0000
,
0020
0130
0200
0310
,
0001
0101
1000
1100
,
0000
0010
0001
1000
,
0010
1010
0001
0011
,
0000
0001
1000
0001
,
0010
0100
0000
0010
0000
0100
0000
1000
,
0000
0001
0000
1000
0000
0001
0000
0000
,
0100
0001
0010
0100
,
1000
0010
0100
0000
,
0001
1000
0020
0030
,
1000
0001
0020
0030
,
0100
1000
0002
0003
,
0100
0001
2000
3000
,
0012
1003
2010
3001
,
0000
1000
0010
0100
,
0102
1003
2100
3001
,
0000
0100
1000
0001
,
1000
0100
0002
0003
,
0100
1000
0020
0030
,
0001
0010
2000
3000
,
0100
0010
0002
0003
,
2100
3100
0012
0013
,
0000
0000
1000
0010
,
0102
0103
2010
3010
,
0000
1000
0000
0001
0000
1000
0000
0001
,
0100
0010
1000
0001
,
0100
1000
0001
0000
,
1000
0010
0100
0001
,
0010
0100
1000
0000
,
1000
0001
1000
0000
0001
1000
0001
0000
,
2000
3001
0002
1003
,
0100
0010
0100
0000
0010
0100
0010
0000
,
0200
0310
0020
0130
,
1000
1010
0001
0011
,
0000
0100
1000
0001
,
0100
0101
1000
1100
,
0000
1000
0001
1000
,
0100
0010
0000
0100
0000
0010
0000
0001
,
0000
1000
0000
0001
0000
1000
0000
0000
,
0200
0000
0000
0300
;

//---------------dance-single - ----------------
#NOTES:
     dance-single:
     :
     Hard:
     8:
     :
0000
0000
0000
0000
,
0000
0000
0000
0000
,
0000
0000
0000
0000
,
0000
0000
0000
0000
,
0000
0010
0000
0010
0000
0010
0000
0010
,
0100
0001
0000
0000
0000
0000
0000
0000
,
0000
0010
0000
0010
0000
0010
0000
0010
,
0100
1000
0000
0000
0000
0000
0000
0000
,
0000
0000
0001
1000
0000
1000
0000
1000
,
0001
0000
0000
0000
,
0000
0001
0000
1000
0000
0001
0000
1000
,
0010
0100
0001
0100
0010
0000
1000
0000
,
0100
0010
0001
0010
0100
0000
1000
0000
,
0001
0100
0010
0100
0001
0000
1000
0000
,
0010
0100
0001
0100
0010
0000
1000
0000
,
0001
0010
0100
0010
0001
0000
1000
0000
,
0010
0100
1000
0100
0010
0000
1000
0000
,
0001
0100
1000
0100
0001
0000
1000
0000
,
0001
0010
1000
0010
0001
0000
1000
0000
,
0001
1000
0100
1000
0001
0000
0001
0000
,
0010
0100
1000
0100
0010
0000
0001
0000
,
1000
0010
0100
0010
1000
0000
0001
0000
,
0100
0010
1000
0010
0100
0000
0001
0000
,
1000
0100
0010
0100
1000
0000
0001
0000
,
0100
0010
0001
0010
0100
0000
0001
0000
,
1000
0010
0001
0010
1000
0000
0001
0000
,
1000
0100
0001
0100
1000
0000
0001
0000
,
1000
0001
0100
0001
1000
0000
0001
0000
,
0010
0100
1000
0100
0010
0000
0001
0000
,
1000
0100
1000
0000
0100
1000
0100
0000
,
0010
0001
0100
1000
,
0010
0100
0010
0000
0100
0010
0100
0000
,
0001
0010
1000
0100
,
0101
1100
0101
1100
,
1000
0010
0001
0100
,
1100
0101
1100
0101
,
0100
0001
0010
1000
,
0001
0010
0001
0000
0010
0001
0010
0000
,
0100
1000
0010
0001
,
0100
0010
0100
0000
0010
0100
0010
0000
,
1000
0100
0001
0010
,
1010
0011
1010
0011
,
0001
0100
1000
0010
,
0011
1010
0011
1010
,
1000
0100
0001
0010
,
0100
1000
0001
0100
0010
0000
0110
0000
,
0010
0100
0001
1000
0100
0000
0110
0000
,
0010
0001
1000
0100
0001
0000
0101
0000
,
0001
0100
1000
0001
0010
0000
0011
0000
,
1000
0100
1000
0000
0100
0010
0100
0000
,
0010
0001
0010
0001
0100
0000
0100
0000
,
0001
0100
0001
0000
0100
0010
0100
0000
,
0010
1000
0010
1000
0100
0000
0100
0000
,
1100
0110
0101
0110
,
0000
1000
0000
0001
0100
0001
0100
0000
,
0101
0110
1100
0110
,
0000
0001
0000
1000
0100
1000
0100
0000
,
0010
0002
0000
0203
0000
0320
0000
0230
,
0000
0302
0000
2003
0000
3200
0000
0310
,
0001
0000
0010
0000
0001
0000
0100
0010
,
0000
0001
0000
0010
0000
1000
0000
0000
,
0001
0010
0001
0000
0010
0001
0010
0000
,
0100
1000
0010
0001
,
0100
0010
0100
0000
0010
0100
0010
0000
,
1000
0100
0001
0010
,
1010
0011
1010
0011
,
0001
0100
1000
0010
,
0011
1010
0011
1010
,
0010
1000
0100
0001
,
1000
0100
1000
0000
0100
1000
0100
0000
,
0010
0001
0100
1000
,
0010
0100
0010
0000
0100
0010
0100
0000
,
0001
0010
1000
0100
,
0101
1100
0101
1100
,
1000
0010
0001
0100
,
1100
0101
1100
0101
,
0001
0010
1000
0100
,
0010
0001
1000
0010
0100
0000
0110
0000
,
0100
0010
1000
0001
0010
0000
0110
0000
,
0100
1000
0001
0010
1000
0000
1010
0000
,
1000
0010
0001
1000
0100
0000
1100
0000
,
0001
0010
0001
0000
0010
0100
0010
0000
,
0100
1000
0100
1000
0010
0000
0010
0000
,
1000
0010
1000
0000
0010
0100
0010
0000
,
0100
0001
0100
0001
0010
0000
0010
0000
,
0011
0110
1010
0110
,
0000
0001
0000
1000
0010
1000
0010
0000
,
1010
0110
0011
0110
,
0000
1000
0000
0001
0010
0001
0010
0000
,
0100
2000
0000
3020
0000
0230
0000
0320
,
0000
2030
0000
3002
0000
2003
0000
0000
,
0000
3000
0000
0000
;

//---------------dance-single - ----------------
#NOTES:
     dance-single:
     :
     Challenge:
     8:
     :
0000
0000
0000
0000
,
0000
0000
0000
0000
,
0000
0000
0000
0000
,
0000
0000
0000
0000
,
0000
0000
0000
0000
0000
0010
0000
0000
0000
0000
0000
0000
0000
0010
0000
0000
0000
0000
0000
0000
0000
0010
0000
0000
0000
0000
0000
0000
0000
0010
0000
0000
,
2000
3000
0000
0000
,
0000
0000
0000
0000
0000
0100
0000
0000
0000
0000
0000
0000
0000
0100
0000
0000
0000
0000
0000
0000
0000
0100
0000
0000
0000
0000
0000
0000
0000
0100
0000
0000
,
0002
0003
0000
0000
,
0000
0000
0000
0000
0000
0000
0000
0000
0100
0000
0000
0000
0000
0010
0000
0000
0000
0000
0000
0000
0000
0010
0000
0000
0000
0000
0000
0000
0000
0010
0000
0000
,
0200
0300
0000
0000
,
0000
0000
0000
0000
0000
1000
0000
0000
0000
0000
0000
0000
0000
0100
0000
0000
1000
0000
0000
0000
0000
0001
0000
0000
0100
0000
0000
0000
0000
0010
0000
0000
,
1000
0000
0000
0000
0000
0000
0000
0000
0100
0000
0000
0000
0000
0000
0000
0000
1000
0000
0000
0000
0000
0000
0000
0000
0010
0000
0000
0000
0000
0100
0000
0000
,
0001
0000
0000
0000
0000
0000
0000
0000
0010
0000
0000
0000
0000
0000
0000
0000
0001
0000
0000
0000
0000
0000
0000
0000
0100
0000
0000
0000
0000
0010
0000
0000
,
1000
0000
0000
0000
0000
0000
0000
0000
0100
0000
0000
0000
0000
0000
0000
0000
1000
0000
0000
0000
0000
0000
0000
0000
0010
0000
0000
0000
0000
0100
0000
0000
,
0001
0000
0000
0000
0000
0000
0000
0000
0010
0000
0000
0000
0000
0000
0000
0000
0001
0000
0000
0000
0000
0000
0000
0000
0100
0000
0000
0000
0000
0001
0000
0000
,
1000
0000
0000
0000
0000
0000
0000
0000
0100
0000
0000
0000
0000
0000
0000
0000
0001
0000
0000
0000
0000
0000
0000
0000
0100
0000
0000
0000
0000
1000
0000
0000
,
0001
0000
0000
0000
0000
0000
0000
0000
0100
0000
0000
0000
0000
0000
0000
0000
1000
0000
0000
0000
0000
0000
0000
0000
0100
0000
0000
0000
0000
0001
0000
0000
,
1000
0000
0000
0000
0000
0000
0000
0000
0010
0000
0000
0000
0000
0000
0000
0000
0001
0000
0000
0000
0000
0000
0000
0000
0010
0000
0000
0000
0000
1000
0000
0000
,
0001
0000
0000
0000
0000
0000
0000
0000
0010
0000
0000
0000
0000
0000
0000
0000
1000
0000
0000
0000
0000
0000
0000
0000
0010
0000
0000
0000
0000
0001
0000
0000
,
0100
0000
0000
0000
0000
0000
0000
0000
0100
0000
0000
0000
0000
0000
0000
0000
0100
0000
0000
0000
0000
0000
0000
0000
0010
0000
0000
0000
0000
1000
0000
0000
,
0100
0000
0000
0000
0000
0000
0000
0000
0100
0000
0000
0000
0000
0000
0000
0000
0100
0000
0000
0000
0000
0000
0000
0000
0001
0000
0000
0000
0000
0010
0000
0000
,
0001
0000
0000
0000
0000
0000
0000
0000
0100
0000
0000
0000
0000
0000
0000
0000
0001
0000
0000
0000
0000
0000
0000
0000
0010
0000
0000
0000
0000
0100
0000
0000
,
1000
0000
0000
0000
0000
0000
0000
0000
0010
0000
0000
0000
0000
0000
0000
0000
1000
0000
0000
0000
0000
0000
0000
0000
0100
0000
0000
0000
0000
0010
0000
0000
,
0001
0000
0000
0000
0000
0000
0000
0000
0100
0000
0000
0000
0000
0000
0000
0000
0001
0000
0000
0000
0000
0000
0000
0000
0010
0000
0000
0000
0000
0100
0000
0000
,
1000
0000
0000
0000
0000
0000
0000
0000
0010
0000
0000
0000
0000
0000
0000
0000
1000
0000
0000
0000
0000
0000
0000
0000
0100
0000
0000
0000
0000
1000
0000
0000
,
0001
0000
0000
0000
0000
0000
0000
0000
0100
0000
0000
0000
0000
0000
0000
0000
1000
0000
0000
0000
0000
0000
0000
0000
0100
0000
0000
0000
0000
0001
0000
0000
,
1000
0000
0000
0000
0000
0000
0000
0000
0100
0000
0000
0000
0000
0000
0000
0000
0001
0000
0000
0000
0000
0000
0000
0000
0100
0000
0000
0000
0000
1000
0000
0000
,
0001
1000
0010
0100
,
0000
0000
0000
0000
0000
0010
0000
0000
0000
0000
0000
0000
0000
0100
0000
0000
0001
0000
0000
0000
0000
0001
0000
0000
1000
0000
0000
0000
0000
0000
0000
0000
,
0001
1000
0001
0100
,
0001
0000
0000
0000
0000
0000
0000
0000
1000
0000
0000
0000
0000
0100
0000
0000
0000
0000
0000
0000
0000
1000
0000
0000
0100
0000
0000
0000
0000
0000
0000
0000
,
1000
0001
1000
0001
,
0010
0000
0000
0000
0000
0000
0000
0000
0001
0000
0000
0000
0000
0010
0000
0000
0000
0000
0000
0000
0000
0100
0000
0000
0010
0000
0000
0000
0000
0100
0000
0000
,
0020
0000
0000
0000
0230
0000
0000
0000
0320
0000
0000
0000
0230
0000
0000
0300
,
0000
0000
0000
0000
0000
1000
0000
0000
0000
0000
0000
0000
0000
0100
0000
0000
1000
0000
0000
0000
0000
0100
0000
0000
1000
0000
0000
0000
0000
0001
0000
0000
,
2000
0000
0000
0000
3002
0000
0000
0000
2003
0000
0000
0000
3002
0000
0000
0003
,
0000
0000
0000
0000
0000
0100
0000
0000
0000
0000
0000
0000
0000
0001
0000
0000
0100
0000
0000
0000
0000
0100
0000
0000
0010
0000
0000
0000
0000
0000
0000
0000
,
1000
0010
1000
0001
,
1000
0000
0000
0000
0000
0000
0000
0000
0100
0000
0000
0000
0000
0000
0000
0000
0010
0000
0000
0000
0000
0001
0000
0000
1000
0000
0000
0000
0000
0000
0000
0000
,
0001
0010
0100
1000
,
0100
0000
0000
0000
0000
0000
0000
0000
0000
0000
0000
0000
0000
0010
0000
0000
0000
0000
0000
0000
0000
0001
0000
0000
1000
0000
0000
0000
0000
0010
0000
0000
,
0100
0110
1001
0220
,
0330
0000
0000
0000
0000
0000
0000
0000
0000
0000
0000
0000
0000
0010
0000
0000
0000
0000
0000
0000
0000
1000
0000
0000
0001
0000
0000
0000
0000
0010
0000
0000
,
0100
0110
1001
0110
,
0000
0000
0000
0000
0000
0010
0000
0000
0000
0000
0000
0000
0000
0010
0000
0000
0000
0000
0000
0000
0000
0010
0000
0000
0000
0000
0000
0000
0000
0100
0000
0000
,
0001
0000
0000
0000
0000
0000
0000
0000
0100
0000
0000
0000
0000
0000
0000
0000
0010
0000
0000
0000
0000
0000
0000
0000
1000
0000
0000
0000
0000
0100
0000
0000
,
0010
0000
0000
0000
0000
0000
0000
0000
0001
0000
0000
0000
0000
0000
0000
0000
1000
0000
0000
0000
0000
0000
0000
0000
0010
0000
0000
0000
0000
0100
0000
0000
,
0001
0000
0000
0000
0000
0000
0000
0000
1000
0000
0000
0000
0000
0000
0000
0000
0100
0000
0000
0000
0000
0000
0000
0000
0010
0000
0000
0000
0000
0001
0000
0000
,
0100
0010
1000
0100
,
1000
0000
0000
0000
0000
0100
0000
0000
1000
0000
0000
0000
0000
0000
0000
0000
0001
0000
0000
0000
0000
0100
0000
0000
0001
0000
0000
0000
0000
0000
0000
0000
,
0100
0000
0000
0000
0000
0010
0000
0000
0100
0000
0000
0000
0000
0001
0000
0000
1000
0000
0000
0000
0000
0000
0000
0000
0100
0000
0000
0000
0000
0000
0000
0000
,
1000
0000
0000
0000
0000
0010
0000
0000
1000
0000
0000
0000
0000
0000
0000
0000
0001
0000
0000
0000
0000
0010
0000
0000
0001
0000
0000
0000
0000
0000
0000
0000
,
0010
0000
0000
0000
0000
0100
0000
0000
0010
0000
0000
0000
0000
0001
0000
0000
1000
0000
0000
0000
0000
0000
0000
0000
0001
0000
0000
0000
0000
0000
0000
0000
,
1100
0101
1100
0101
,
0000
0000
0000
0000
0000
0010
0000
0000
0000
0000
0000
0000
0000
1000
0000
0000
0100
0000
0000
0000
0000
1000
0000
0000
0100
0000
0000
0000
0000
0000
0000
0000
,
0101
1100
0101
1100
,
0000
0000
0000
0000
0000
0010
0000
0000
0000
0000
0000
0000
0000
0001
0000
0000
0100
0000
0000
0000
0000
0001
0000
0000
0100
0000
0000
0000
0000
0000
0000
0000
,
0010
0200
0001
0010
,
1000
0000
0000
0000
0000
0000
0000
0000
0010
0000
0000
0000
0000
0000
0000
0000
0001
0000
0000
0000
0300
0000
0000
0000
0010
0000
0000
0000
0000
1000
0000
0000
,
0001
1000
0100
1000
,
0001
0100
0010
0100
,
0010
1001
1000
1100
,
0001
0000
0000
0000
0000
0000
0000
0000
0101
0000
0000
0000
0000
0000
0000
0000
1000
0000
0000
0000
0000
0100
0000
0000
1000
0000
0000
0000
0000
0000
0000
0000
,
0001
1001
1000
1010
,
0001
0000
0000
0000
0000
0000
0000
0000
0011
0000
0000
0000
0000
0000
0000
0000
1000
0000
0000
0000
0000
0010
0000
0000
1000
0000
0000
0000
0000
0000
0000
0000
,
1010
0101
1010
0101
,
0100
0000
0000
0000
0000
0000
0000
0000
1001
0000
0000
0000
0000
0000
0000
0000
1000
0000
0000
0000
0000
0001
0000
0000
0010
0000
0000
0000
0000
0000
0000
0000
,
0011
1100
0011
1100
,
0100
0000
0000
0000
0000
0000
0000
0000
1001
0000
0000
0000
0000
0000
0000
0000
1000
0000
0000
0000
0000
0001
0000
0000
1000
0000
0000
0000
0000
0000
0000
0000
,
0100
1001
0001
0011
,
1000
0000
0000
0000
0000
0000
0000
0000
1010
0000
0000
0000
0000
0000
0000
0000
0001
0000
0000
0000
0000
0010
0000
0000
0001
0000
0000
0000
0000
0000
0000
0000
,
1000
1001
0001
0101
,
1000
0000
0000
0000
0000
0000
0000
0000
1100
0000
0000
0000
0000
0000
0000
0000
0001
0000
0000
0000
0000
0100
0000
0000
0001
0000
0000
0000
0000
0000
0000
0000
,
0101
1010
0101
1010
,
0010
0000
0000
0000
0000
0000
0000
0000
1001
0000
0000
0000
0000
0000
0000
0000
0001
0000
0000
0000
0000
1000
0000
0000
0100
0000
0000
0000
0000
0000
0000
0000
,
1100
0011
1100
0011
,
0100
0000
0000
0000
0000
0000
0000
0000
1001
0000
0000
0000
0000
0000
0000
0000
1000
0000
0000
0000
0000
0001
0000
0000
0010
0000
0000
0000
0000
0001
0000
0000
,
1000
0000
0000
0000
0000
0000
0000
0000
0010
0000
0000
0000
0000
0000
0000
0000
0100
0000
0000
0000
0000
0000
0000
0000
0001
0000
0000
0000
0000
0010
0000
0000
,
0100
0000
0000
0000
0000
0000
0000
0000
1000
0000
0000
0000
0000
0000
0000
0000
0001
0000
0000
0000
0000
0000
0000
0000
0100
0000
0000
0000
0000
0010
0000
0000
,
1000
0000
0000
0000
0000
0000
0000
0000
0001
0000
0000
0000
0000
0000
0000
0000
0010
0000
0000
0000
0000
0000
0000
0000
0100
0000
0000
0000
0000
1000
0000
0000
,
0010
0100
0001
0010
,
0001
0000
0000
0000
0000
0010
0000
0000
0001
0000
0000
0000
0000
0000
0000
0000
1000
0000
0000
0000
0000
0010
0000
0000
1000
0000
0000
0000
0000
0000
0000
0000
,
0010
0000
0000
0000
0000
0100
0000
0000
0010
0000
0000
0000
0000
1000
0000
0000
0001
0000
0000
0000
0000
0000
0000
0000
0010
0000
0000
0000
0000
0000
0000
0000
,
0001
0000
0000
0000
0000
0100
0000
0000
0001
0000
0000
0000
0000
0000
0000
0000
1000
0000
0000
0000
0000
0100
0000
0000
1000
0000
0000
0000
0000
0000
0000
0000
,
0100
0000
0000
0000
0000
0010
0000
0000
0100
0000
0000
0000
0000
1000
0000
0000
0001
0000
0000
0000
0000
0000
0000
0000
1000
0000
0000
0000
0000
0000
0000
0000
,
0011
1010
0011
1010
,
0000
0000
0000
0000
0000
0100
0000
0000
0000
0000
0000
0000
0000
0001
0000
0000
0010
0000
0000
0000
0000
0001
0000
0000
0010
0000
0000
0000
0000
0000
0000
0000
,
1010
0011
1010
0011
,
0000
0000
0000
0000
0000
0100
0000
0000
0000
0000
0000
0000
0000
1000
0000
0000
0010
0000
0000
0000
0000
1000
0000
0000
0010
0000
0000
0000
0000
0000
0000
0000
,
0100
0020
1000
0100
,
0001
0000
0100
0000
1000
0030
0200
0000
,
0002
0000
0000
0303
;

//---------------dance-double - ----------------
#NOTES:
     dance-double:
     :
     Easy:
     6:
     :
00000000
00000000
00000000
00000000
,
00000000
00000000
00000000
00000000
,
00000000
00000000
00000000
00000000
,
00000000
00000000
00000000
00000000
,
00000000
10000000
00000000
10000000
,
00000000
10000000
00000000
00000000
,
00000000
00010000
00000000
00010000
,
00000000
00010000
00000000
00000000
,
00000000
00100000
00000000
00100000
,
00000000
00100000
00000000
00000000
,
00000000
01000000
00100000
01000000
,
00100000
00000000
01000000
00000000
,
00010000
00000000
00001000
00000000
,
00000100
00000000
00000001
00000000
,
00000010
00000000
00001000
00000000
,
00010000
00000000
00001000
00000000
,
00000100
00000000
00000001
00000000
,
00001000
00000000
00001000
00000000
,
00000001
00000000
00000001
00000000
,
00000100
00000000
00001000
00000000
,
00010000
00000000
01000000
00000000
,
10000000
00000000
00010000
00000000
,
01000000
00000000
00100000
00000000
,
00010000
00000000
00001000
00000000
,
00000100
00000000
00000010
00000000
,
00000100
00000000
00001000
00000000
,
00010000
00000000
01000000
00000000
,
00100000
00000000
01000000
00000000
,
00010000
00000000
00001000
00000000
,
00010000
00001000
00010000
00000000
,
00000100
00000000
00001000
00000000
,
00000001
00001000
00000001
00000000
,
00000100
00000000
00000010
00000000
,
00000110
00000000
00000110
00000000
,
00001000
00000000
00000001
00000000
,
00001001
00000000
00001001
00000000
,
00000001
00000000
00000100
00000000
,
00001000
00010000
00001000
00000000
,
00100000
00000000
00010000
00000000
,
10000000
00010000
10000000
00000000
,
00100000
00000000
01000000
00000000
,
01100000
00000000
01100000
00000000
,
00010000
00000000
10000000
00000000
,
10010000
00000000
10010000
00000000
,
10000000
00000000
00100000
00000000
,
10000000
00000000
00010000
00000000
,
01000000
00000000
00100000
00000000
,
00010000
00000000
00001000
00000000
,
00000100
00000000
00000010
00000000
,
00000100
00000001
00001000
00000000
,
00000100
00010000
00001000
00000000
,
00010000
00001000
00100000
00000000
,
00010000
10000000
01000000
00000000
,
00100000
00100000
01000000
01000000
,
00000000
00000000
10000000
00000000
,
00010000
00010000
10000000
10000000
,
00000000
00000000
01000000
00000000
,
00020000
00000000
00030000
00000000
,
00002000
00000000
00003000
00000000
,
00022000
00000000
00033000
00000000
,
00010000
00001000
00010000
00001000
,
00000100
00000000
00000010
00000000
,
00000100
00000000
00001000
00000000
,
00010000
00000000
01000000
00000000
,
00100000
00000000
01000000
00000000
,
11000000
00000000
11000000
00000000
,
01000000
00000000
00100000
00000000
,
00110000
00000000
00110000
00000000
,
00100000
00000000
01000000
00000000
,
00010000
00000000
00001000
00000000
,
00000100
00000000
00000010
00000000
,
00001000
00000000
00000001
00000000
,
00000010
00000000
00000100
00000000
,
00001100
00000000
00001100
00000000
,
00001000
00000000
00000010
00000000
,
00001010
00000000
00001010
00000000
,
00000010
00000000
00000100
00000000
,
00000001
00000000
00001000
00000000
,
00000010
00000000
00000100
00000000
,
00001000
00000000
00010000
00000000
,
00100000
00000000
01000000
00000000
,
00100000
10000000
00010000
00000000
,
00100000
00001000
00010000
00000000
,
00001000
00010000
00000100
00000000
,
00001000
00000001
00000010
00000000
,
00000100
00000100
00000010
00000010
,
00000000
00000000
00000001
00000000
,
00001000
00001000
00000001
00000001
,
00000000
00000000
00000010
00000000
,
00002000
00000000
00003000
00000000
,
00020000
00000000
00030000
00000000
,
00022000
00000000
00033000
00000000
;

//---------------dance-double - ----------------
#NOTES:
     dance-double:
     :
     Medium:
     7:
     :
00000000
00000000
00000000
00000000
,
00000000
00000000
00000000
00000000
,
00000000
00000000
00000000
00000000
,
00000000
00000000
00000000
00000000
,
00000000
00010000
00000000
00010000
00000000
00010000
00000000
00010000
,
01000000
00000000
00000000
00000000
,
00000000
00100000
00000000
00100000
00000000
00100000
00000000
00100000
,
10000000
00000000
00000000
00000000
,
00000000
00000000
10000000
01000000
00000000
01000000
00000000
01000000
,
10000000
00000000
00000000
00000000
,
00000000
10000000
00010000
00100000
,
01100000
01000000
00010000
00001000
,
00000100
00001000
00010000
01000000
,
10000000
01000000
00010000
00001000
,
00000010
00001000
00010000
00100000
,
01000000
00100000
00010000
00001000
,
00000100
00001000
00010000
00001000
,
00000010
00001000
00010000
01000000
,
10000000
01000000
00100000
00010000
,
01000000
00010000
00100000
00001000
,
00010000
00001000
00000100
00001000
,
00011000
00010000
01000000
10000000
,
01000000
00010000
00001000
00000010
,
00000001
00000010
00001000
00010000
,
01000000
00010000
00001000
00000100
,
00000010
00000100
00001000
00010000
,
00100000
00010000
00001000
00010000
,
01000000
00010000
00001000
00000010
,
00000001
00000010
00001000
00010000
,
01000000
00010000
00002000
00003000
,
00000100
00001000
00020000
00030000
,
00100000
00010000
00002000
00003000
,
00000010
00001000
00020000
00030000
,
00021000
00031000
00012000
00013000
,
00000000
00001000
00000100
00000001
,
00002001
00003001
00001002
00001003
,
00000000
00000100
00001000
00010000
,
00001000
00000100
00002000
00003000
,
00010000
01000000
00020000
00030000
,
00001000
00000010
00002000
00003000
,
00010000
00100000
00020000
00030000
,
00012000
00013000
00021000
00031000
,
00000000
00000000
00010000
01000000
,
20010000
30010000
10020000
10030000
,
00000000
10000000
00000000
00010000
00000000
10000000
00000000
00010000
,
10000000
01000000
00010000
00001000
,
00000010
00001000
00010000
00100000
,
01000000
00100000
00010000
00001000
,
00000100
00001000
00010000
01000000
,
10000000
01000000
10000000
00000000
01000000
00010000
01000000
00000000
,
00020000
00031000
00020000
00031000
,
00001000
00000100
00001000
00000000
00000100
00000001
00000100
00000000
,
00000002
00001003
00000002
00001003
,
00001200
00010300
00020100
00031000
,
00000000
00010000
00001000
00010000
,
00012000
00103000
00201000
00310000
,
00000000
00100000
00010000
10000000
,
01000000
00100000
00000000
00010000
00000000
01000000
00000000
00100000
,
00000000
00010000
00000000
00001000
00000000
00000100
00000000
00000000
,
00000010
00001000
00000100
00000010
,
00000001
00000010
00001000
00010000
,
00100000
00010000
00002000
00003000
,
00000010
00001000
00020000
00030000
,
01000000
00010000
00002000
00003000
,
00000100
00001000
00020000
00030000
,
00021000
00031000
00012000
00013000
,
00000000
00001000
00000010
00000001
,
00002001
00003001
00001002
00001003
,
00000000
00000010
00001000
00010000
,
00001000
00000010
00002000
00003000
,
00010000
00100000
00020000
00030000
,
00001000
00000100
00002000
00003000
,
00010000
01000000
00020000
00030000
,
00012000
00013000
00021000
00031000
,
00000000
00000000
00010000
00100000
,
20010000
30010000
10020000
10030000
,
00000000
00010000
00000000
01000000
00000000
00001000
00000000
00010000
,
00001000
00000010
00001000
00010000
,
01000000
00010000
00001000
00000100
,
00000010
00000100
00001000
00010000
,
00100000
00010000
00001000
00000010
,
00000001
00000010
00000001
00000000
00000010
00001000
00000010
00000000
,
00002000
00013000
00002000
00013000
,
00010000
00100000
00010000
00000000
00100000
10000000
00100000
00000000
,
20000000
30010000
20000000
30010000
,
00210000
00301000
00102000
00013000
,
00000000
00001000
00010000
00001000
,
00021000
00030100
00010200
00001300
,
00000000
00000100
00001000
00000001
,
00000010
00000100
00000000
00001000
00000000
00000010
00000000
00000100
,
00000000
00001000
00000000
00010000
00000000
00100000
00000000
00000000
,
20000000
00000000
00000000
30000000
;

//---------------dance-double - ----------------
#NOTES:
     dance-double:
     :
     Hard:
     8:
     :
00000000
00000000
00000000
00000000
,
00000000
00000000
00000000
00000000
,
00000000
00000000
00000000
00000000
,
00000000
00000000
00000000
00000000
,
00000000
00010000
00000000
00010000
00000000
00010000
00000000
00001000
,
00010000
00000100
00000000
00000000
00000000
00000000
00000000
00000000
,
00000000
00001000
00000000
00001000
00000000
00001000
00000000
00010000
,
00001000
01000000
00000000
00000000
00000000
00000000
00000000
00000000
,
00000000
00000000
00010000
01000000
00000000
01000000
00000000
01000000
,
00010000
00000000
00000000
00000000
,
00000000
10000000
00000000
00010000
00000000
10000000
00000000
00010000
,
00100000
01000000
10000000
01000000
00100000
00000000
00010000
00000000
,
00100000
00001000
00010000
00001000
00100000
00000000
00001000
00000000
,
00010000
00000100
00001000
00000100
00010000
00000000
00000100
00000000
,
00001000
00000100
00000010
00000100
00001000
00000000
00000010
00000000
,
00000100
00000001
00001000
00000001
00000100
00000000
00000010
00000000
,
00001000
00000100
00010000
00000100
00001000
00000000
00000100
00000000
,
00010000
00001000
00100000
00001000
00010000
00000000
00001000
00000000
,
00100000
00001000
00010000
00001000
00100000
00000000
00010000
00000000
,
00100000
01000000
10000000
01000000
00100000
00000000
01000000
00000000
,
10000000
00100000
01000000
00100000
10000000
00000000
00010000
00000000
,
00100000
01000000
00010000
01000000
00100000
00000000
01000000
00000000
,
00010000
00001000
00100000
00001000
00010000
00000000
00000100
00000000
,
00001000
00000100
00000010
00000100
00001000
00000000
00000001
00000000
,
00000100
00000010
00001000
00000010
00000100
00000000
00000001
00000000
,
00000100
00001000
00010000
00001000
00000100
00000000
00001000
00000000
,
00010000
00001000
01000000
00001000
00010000
00000000
00001000
00000000
,
00100000
00010000
01000000
00010000
00100000
00000000
01000000
00000000
,
00100000
01000000
10000000
01000000
00100000
00000000
00010000
00000000
,
01000000
00010000
01000000
00000000
00001000
00010000
00001000
00000000
,
00010000
00001000
00000010
00000001
,
00000100
00001000
00000100
00000000
00001000
00010000
00001000
00000000
,
00010000
00100000
10000000
01000000
,
00110000
00101000
00110000
00101000
,
00001000
00000010
00000001
00000100
,
00001010
00010010
00001010
00010010
,
00000010
00000100
00000001
00001000
,
00000010
00001000
00000010
00000000
00010000
00001000
00010000
00000000
,
00001000
00010000
01000000
10000000
,
00100000
00010000
00100000
00000000
00010000
00001000
00010000
00000000
,
00001000
00000100
00000001
00000010
,
00001100
00010100
00001100
00010100
,
00010000
01000000
10000000
00100000
,
01010000
01001000
01010000
01001000
,
01000000
00100000
10000000
00010000
,
01000000
00100000
00010000
00001000
00010000
00000000
00011000
00000000
,
00001000
00010000
00001000
00000100
00000010
00000000
00000110
00000000
,
00001000
00010000
00001000
00100000
00001000
00000000
00101000
00000000
,
00010000
00001000
00010000
00000100
00010000
00000000
00010100
00000000
,
00000100
00001000
00000100
00000000
00000010
00000001
00000010
00000000
,
00001000
00000100
00001000
00000100
00020000
00000000
00032000
00000000
,
01003000
00010000
01000000
00000000
00100000
10000000
00100000
00000000
,
00010000
01000000
00010000
01000000
00002000
00000000
00023000
00000000
,
00031000
00001100
00000100
00000101
,
00000000
00000001
00000000
00000100
00001000
00010000
00100000
00000000
,
00010000
00110000
00100000
10100000
,
00000000
10000000
00000000
00100000
00010000
00001000
00000100
00000000
,
00001000
00020000
00000000
00032000
00000000
00203000
00000000
00302000
,
00000000
00023000
00000000
00030200
00000000
00020300
00000000
00031000
,
00010000
00000000
00100000
00000000
00010000
00000000
00001000
00000010
,
00000000
00000001
00000000
00000100
00000000
00001000
00000000
00000000
,
00000010
00001000
00000010
00000000
00010000
00001000
00010000
00000000
,
00001000
00010000
01000000
10000000
,
00100000
00010000
00100000
00000000
00010000
00001000
00010000
00000000
,
00001000
00000100
00000001
00000010
,
00001100
00010100
00001100
00010100
,
00010000
01000000
10000000
00100000
,
01010000
01001000
01010000
01001000
,
01000000
00100000
10000000
00010000
,
01000000
00010000
01000000
00000000
00001000
00010000
00001000
00000000
,
00010000
00001000
00000010
00000001
,
00000100
00001000
00000100
00000000
00001000
00010000
00001000
00000000
,
00010000
00100000
10000000
01000000
,
00110000
00101000
00110000
00101000
,
00001000
00000010
00000001
00000100
,
00001010
00010010
00001010
00010010
,
00000010
00000100
00000001
00001000
,
00000010
00000100
00001000
00010000
00001000
00000000
00011000
00000000
,
00010000
00001000
00010000
00100000
01000000
00000000
01100000
00000000
,
00010000
00001000
00010000
00000100
00010000
00000000
00010100
00000000
,
00001000
00010000
00001000
00100000
00001000
00000000
00101000
00000000
,
00100000
00010000
00100000
00000000
01000000
10000000
01000000
00000000
,
00010000
00100000
00010000
00100000
00002000
00000000
00023000
00000000
,
00030010
00001000
00000010
00000000
00000100
00000001
00000100
00000000
,
00001000
00000010
00001000
00000010
00020000
00000000
00032000
00000000
,
00013000
00110000
00100000
10100000
,
00000000
10000000
00000000
00100000
00010000
00001000
00000100
00000000
,
00001000
00001100
00000100
00000101
,
00000000
00000001
00000000
00000100
00001000
00010000
00100000
00000000
,
00010000
00002000
00000000
00023000
00000000
00030200
00000000
00020300
,
00000000
00032000
00000000
00203000
00000000
00302000
00000000
00000000
,
00000000
00000000
00003000
00000000
;

//---------------dance-double - ----------------
#NOTES:
     dance-double:
     :
     Challenge:
     8:
     :
00000000
00000000
00000000
00000000
,
00000000
00000000
00000000
00000000
,
00000000
00000000
00000000
00000000
,
00000000
00000000
00000000
00000000
,
00000000
00000000
00000000
00000000
00000000
00100000
00000000
00000000
00000000
00000000
00000000
00000000
00000000
00100000
00000000
00000000
00000000
00000000
00000000
00000000
00000000
00100000
00000000
00000000
00000000
00000000
00000000
00000000
00000000
00100000
00000000
00000000
,
02000000
03000000
00000000
00000000
,
00000000
00000000
00000000
00000000
00000000
00000010
00000000
00000000
00000000
00000000
00000000
00000000
00000000
00000010
00000000
00000000
00000000
00000000
00000000
00000000
00000000
00000010
00000000
00000000
00000000
00000000
00000000
00000000
00000000
00000010
00000000
00000000
,
00000200
00000300
00000000
00000000
,
00000000
00000000
00000000
00000000
00000000
00000000
00000000
00000000
00010000
00000000
00000000
00000000
00000000
00001000
00000000
00000000
00000000
00000000
00000000
00000000
00000000
00001000
00000000
00000000
00000000
00000000
00000000
00000000
00000000
00001000
00000000
00000000
,
00020000
00030000
00000000
00000000
,
00000000
00000000
00000000
00000000
00000000
00100000
00000000
00000000
00000000
00000000
00000000
00000000
00000000
10000000
00000000
00000000
01000000
00000000
00000000
00000000
00000000
01000000
00000000
00000000
10000000
00000000
00000000
00000000
00000000
10000000
00000000
00000000
,
00100000
00000000
00000000
00000000
00000000
00000000
00000000
00000000
00010000
00000000
00000000
00000000
00000000
00000000
00000000
00000000
00001000
00000000
00000000
00000000
00000000
00000000
00000000
00000000
00010000
00000000
00000000
00000000
00000000
00001000
00000000
00000000
,
00000010
00000000
00000000
00000000
00000000
00000000
00000000
00000000
00000001
00000000
00000000
00000000
00000000
00000000
00000000
00000000
00000100
00000000
00000000
00000000
00000000
00000000
00000000
00000000
00001000
00000000
00000000
00000000
00000000
00010000
00000000
00000000
,
00001000
00000000
00000000
00000000
00000000
00000000
00000000
00000000
00010000
00000000
00000000
00000000
00000000
00000000
00000000
00000000
00100000
00000000
00000000
00000000
00000000
00000000
00000000
00000000
10000000
00000000
00000000
00000000
00000000
01000000
00000000
00000000
,
00010000
00000000
00000000
00000000
00000000
00000000
00000000
00000000
00001000
00000000
00000000
00000000
00000000
00000000
00000000
00000000
00010000
00000000
00000000
00000000
00000000
00000000
00000000
00000000
00001000
00000000
00000000
00000000
00000000
00000010
00000000
00000000
,
00000100
00000000
00000000
00000000
00000000
00000000
00000000
00000000
00001000
00000000
00000000
00000000
00000000
00000000
00000000
00000000
00000010
00000000
00000000
00000000
00000000
00000000
00000000
00000000
00000100
00000000
00000000
00000000
00000000
00001000
00000000
00000000
,
00010000
00000000
00000000
00000000
00000000
00000000
00000000
00000000
00100000
00000000
00000000
00000000
00000000
00000000
00000000
00000000
01000000
00000000
00000000
00000000
00000000
00000000
00000000
00000000
00010000
00000000
00000000
00000000
00000000
00100000
00000000
00000000
,
01000000
00000000
00000000
00000000
00000000
00000000
00000000
00000000
00010000
00000000
00000000
00000000
00000000
00000000
00000000
00000000
00001000
00000000
00000000
00000000
00000000
00000000
00000000
00000000
00000100
00000000
00000000
00000000
00000000
00000001
00000000
00000000
,
00000100
00000000
00000000
00000000
00000000
00000000
00000000
00000000
00001000
00000000
00000000
00000000
00000000
00000000
00000000
00000000
00010000
00000000
00000000
00000000
00000000
00000000
00000000
00000000
01000000
00000000
00000000
00000000
00000000
10000000
00000000
00000000
,
01000000
00000000
00000000
00000000
00000000
00000000
00000000
00000000
00100000
00000000
00000000
00000000
00000000
00000000
00000000
00000000
00010000
00000000
00000000
00000000
00000000
00000000
00000000
00000000
10000000
00000000
00000000
00000000
00000000
00100000
00000000
00000000
,
00010000
00000000
00000000
00000000
00000000
00000000
00000000
00000000
00001000
00000000
00000000
00000000
00000000
00000000
00000000
00000000
00001000
00000000
00000000
00000000
00000000
00000000
00000000
00000000
00000010
00000000
00000000
00000000
00000000
00000001
00000000
00000000
,
00001000
00000000
00000000
00000000
00000000
00000000
00000000
00000000
00000100
00000000
00000000
00000000
00000000
00000000
00000000
00000000
00010000
00000000
00000000
00000000
00000000
00000000
00000000
00000000
00001000
00000000
00000000
00000000
00000000
00010000
00000000
00000000
,
01000000
00000000
00000000
00000000
00000000
00000000
00000000
00000000
10000000
00000000
00000000
00000000
00000000
00000000
00000000
00000000
00100000
00000000
00000000
00000000
00000000
00000000
00000000
00000000
00010000
00000000
00000000
00000000
00000000
00001000
00000000
00000000
,
00010000
00000000
00000000
00000000
00000000
00000000
00000000
00000000
00001000
00000000
00000000
00000000
00000000
00000000
00000000
00000000
00000100
00000000
00000000
00000000
00000000
00000000
00000000
00000000
00000001
00000000
00000000
00000000
00000000
00000010
00000000
00000000
,
00001000
00000000
00000000
00000000
00000000
00000000
00000000
00000000
00010000
00000000
00000000
00000000
00000000
00000000
00000000
00000000
00001000
00000000
00000000
00000000
00000000
00000000
00000000
00000000
00010000
00000000
00000000
00000000
00000000
01000000
00000000
00000000
,
00100000
00000000
00000000
00000000
00000000
00000000
00000000
00000000
00010000
00000000
00000000
00000000
00000000
00000000
00000000
00000000
01000000
00000000
00000000
00000000
00000000
00000000
00000000
00000000
00100000
00000000
00000000
00000000
00000000
00010000
00000000
00000000
,
00001000
00000000
00000000
00000000
00000000
00000000
00000000
00000000
00000100
00000000
00000000
00000000
00000000
00000000
00000000
00000000
00000010
00000000
00000000
00000000
00000000
00000000
00000000
00000000
00001000
00000000
00000000
00000000
00000000
00000100
00000000
00000000
,
00000010
00001000
00010000
00100000
,
00000000
00000000
00000000
00000000
00000000
00100000
00000000
00000000
00000000
00000000
00000000
00000000
00000000
10000000
00000000
00000000
00010000
00000000
00000000
00000000
00000000
01000000
00000000
00000000
00100000
00000000
00000000
00000000
00000000
00000000
00000000
00000000
,
10000000
00010000
00100000
01000000
,
00010000
00000000
00000000
00000000
00000000
00000000
00000000
00000000
00001000
00000000
00000000
00000000
00000000
00010000
00000000
00000000
00000000
00000000
00000000
00000000
00000000
00001000
00000000
00000000
00010000
00000000
00000000
00000000
00000000
00000000
00000000
00000000
,
00000100
00001000
00000010
00010000
,
00001000
00000000
00000000
00000000
00000000
00000000
00000000
00000000
00000010
00000000
00000000
00000000
00000000
00000001
00000000
00000000
00000000
00000000
00000000
00000000
00000000
00000100
00000000
00000000
00000010
00000000
00000000
00000000
00000000
00000100
00000000
00000000
,
00000020
00000000
00000000
00000000
00000230
00000000
00000000
00000000
00000320
00000000
00000000
00000000
00000230
00000000
00000000
00000300
,
00000000
00000000
00000000
00000000
00000000
00001000
00000000
00000000
00000000
00000000
00000000
00000000
00000000
00010000
00000000
00000000
01000000
00000000
00000000
00000000
00000000
01000000
00000000
00000000
10000000
00000000
00000000
00000000
00000000
10000000
00000000
00000000
,
00200000
00000000
00000000
00300000
02000000
00000000
00000000
00000000
03200000
00000000
00000000
00000000
02300000
00000000
00000000
03000000
,
00000000
00000000
00000000
00000000
00000000
00010000
00000000
00000000
00000000
00000000
00000000
00000000
00000000
10000000
00000000
00000000
01000000
00000000
00000000
00000000
00000000
01000000
00000000
00000000
00100000
00000000
00000000
00000000
00000000
00000000
00000000
00000000
,
00010000
00100000
00001000
00010000
,
00000100
00000000
00000000
00000000
00000000
00000000
00000000
00000000
00001000
00000000
00000000
00000000
00000000
00000000
00000000
00000000
00000010
00000000
00000000
00000000
00000000
00000100
00000000
00000000
00000001
00000000
00000000
00000000
00000000
00000000
00000000
00000000
,
00000010
00000100
00001000
00000010
,
00000100
00000000
00000000
00000000
00000000
00000000
00000000
00000000
00000000
00000000
00000000
00000000
00000000
00001000
00000000
00000000
00000000
00000000
00000000
00000000
00000000
00010000
00000000
00000000
00001000
00000000
00000000
00000000
00000000
00100000
00000000
00000000
,
00010000
00110000
10010000
22000000
,
33000000
00000000
00000000
00000000
00000000
00000000
00000000
00000000
00000000
00000000
00000000
00000000
00000000
10000000
00000000
00000000
00000000
00000000
00000000
00000000
00000000
00010000
00000000
00000000
01000000
00000000
00000000
00000000
00000000
00001000
00000000
00000000
,
00010000
00010100
00001100
00000110
,
00000000
00000000
00000000
00000000
00000000
00000001
00000000
00000000
00000000
00000000
00000000
00000000
00000000
00000001
00000000
00000000
00000000
00000000
00000000
00000000
00000000
00000001
00000000
00000000
00000000
00000000
00000000
00000000
00000000
00000001
00000000
00000000
,
00000100
00000000
00000000
00000000
00000000
00000000
00000000
00000000
00001000
00000000
00000000
00000000
00000000
00000000
00000000
00000000
00010000
00000000
00000000
00000000
00000000
00000000
00000000
00000000
01000000
00000000
00000000
00000000
00000000
10000000
00000000
00000000
,
01000000
00000000
00000000
00000000
00000000
00000000
00000000
00000000
00100000
00000000
00000000
00000000
00000000
00000000
00000000
00000000
00010000
00000000
00000000
00000000
00000000
00000000
00000000
00000000
10000000
00000000
00000000
00000000
00000000
00100000
00000000
00000000
,
00010000
00000000
00000000
00000000
00000000
00000000
00000000
00000000
00001000
00000000
00000000
00000000
00000000
00000000
00000000
00000000
00000010
00000000
00000000
00000000
00000000
00000000
00000000
00000000
00000001
00000000
00000000
00000000
00000000
00001000
00000000
00000000
,
00000100
00010000
00001000
00100000
,
00010000
00000000
00000000
00000000
00000000
10000000
00000000
00000000
00010000
00000000
00000000
00000000
00000000
00000000
00000000
00000000
00100000
00000000
00000000
00000000
00000000
01000000
00000000
00000000
00100000
00000000
00000000
00000000
00000000
00000000
00000000
00000000
,
01000000
00000000
00000000
00000000
00000000
10000000
00000000
00000000
01000000
00000000
00000000
00000000
00000000
01000000
00000000
00000000
00010000
00000000
00000000
00000000
00000000
00000000
00000000
00000000
00001000
00000000
00000000
00000000
00000000
00000000
00000000
00000000
,
00000010
00000000
00000000
00000000
00000000
00000100
00000000
00000000
00000010
00000000
00000000
00000000
00000000
00000000
00000000
00000000
00000001
00000000
00000000
00000000
00000000
00001000
00000000
00000000
00000001
00000000
00000000
00000000
00000000
00000000
00000000
00000000
,
00000100
00000000
00000000
00000000
00000000
00000001
00000000
00000000
00000100
00000000
00000000
00000000
00000000
00000100
00000000
00000000
00001000
00000000
00000000
00000000
00000000
00000000
00000000
00000000
00010000
00000000
00000000
00000000
00000000
00000000
00000000
00000000
,
00010100
00001100
00001010
00010010
,
00000000
00000000
00000000
00000000
00000000
00010000
00000000
00000000
00000000
00000000
00000000
00000000
00000000
00001000
00000000
00000000
00010000
00000000
00000000
00000000
00000000
00001000
00000000
00000000
00010000
00000000
00000000
00000000
00000000
00000000
00000000
00000000
,
01001000
01010000
00110000
00101000
,
00000000
00000000
00000000
00000000
00000000
00001000
00000000
00000000
00000000
00000000
00000000
00000000
00000000
00010000
00000000
00000000
00001000
00000000
00000000
00000000
00000000
00010000
00000000
00000000
00001000
00000000
00000000
00000000
00000000
00000000
00000000
00000000
,
00001000
00020000
00000100
00031000
,
00000200
00000000
00000000
00000000
00000000
00000000
00000000
00000000
00001000
00000000
00000000
00000000
00000000
00000000
00000000
00000000
00010000
00000000
00000000
00000000
00000300
00000000
00000000
00000000
00001000
00000000
00000000
00000000
00000000
00000100
00000000
00000000
,
00010000
00001000
00010000
00001000
,
00100000
01000000
10000000
00010000
,
00100000
00110000
10000000
11000000
,
00010000
00000000
00000000
00000000
00000000
00000000
00000000
00000000
01010000
00000000
00000000
00000000
00000000
00000000
00000000
00000000
10000000
00000000
00000000
00000000
00000000
00100000
00000000
00000000
10000000
00000000
00000000
00000000
00000000
00000000
00000000
00000000
,
00100000
10100000
00100000
00110000
,
00010000
00000000
00000000
00000000
00000000
00000000
00000000
00000000
00011000
00000000
00000000
00000000
00000000
00000000
00000000
00000000
00001000
00000000
00000000
00000000
00000000
00010000
00000000
00000000
00001000
00000000
00000000
00000000
00000000
00000000
00000000
00000000
,
00011000
00101000
00011000
00010010
,
00000010
00000000
00000000
00000000
00000000
00000000
00000000
00000000
00001010
00000000
00000000
00000000
00000000
00000000
00000000
00000000
00001000
00000000
00000000
00000000
00000000
00000100
00000000
00000000
00010000
00000000
00000000
00000000
00000000
00000000
00000000
00000000
,
00011000
01001000
00011000
00010100
,
00000100
00000000
00000000
00000000
00000000
00000000
00000000
00000000
00001100
00000000
00000000
00000000
00000000
00000000
00000000
00000000
00001000
00000000
00000000
00000000
00000000
00000001
00000000
00000000
00000010
00000000
00000000
00000000
00000000
00000000
00000000
00000000
,
00000100
00001100
00000001
00000011
,
00001000
00000000
00000000
00000000
00000000
00000000
00000000
00000000
00001010
00000000
00000000
00000000
00000000
00000000
00000000
00000000
00000001
00000000
00000000
00000000
00000000
00000100
00000000
00000000
00000001
00000000
00000000
00000000
00000000
00000000
00000000
00000000
,
00000100
00000101
00000100
00001100
,
00001000
00000000
00000000
00000000
00000000
00000000
00000000
00000000
00011000
00000000
00000000
00000000
00000000
00000000
00000000
00000000
00010000
00000000
00000000
00000000
00000000
00100000
00000000
00000000
01000000
00000000
00000000
00000000
00000000
00000000
00000000
00000000
,
11000000
10100000
00110000
01010000
,
00010000
00000000
00000000
00000000
00000000
00000000
00000000
00000000
00011000
00000000
00000000
00000000
00000000
00000000
00000000
00000000
00001000
00000000
00000000
00000000
00000000
00000010
00000000
00000000
00000100
00000000
00000000
00000000
00000000
00000000
00000000
00000000
,
00000101
00000011
00001010
00001100
,
00001000
00000000
00000000
00000000
00000000
00000000
00000000
00000000
00011000
00000000
00000000
00000000
00000000
00000000
00000000
00000000
00010000
00000000
00000000
00000000
00000000
00001000
00000000
00000000
00010000
00000000
00000000
00000000
00000000
00010000
00000000
00000000
,
00001000
00000000
00000000
00000000
00000000
00000000
00000000
00000000
00010000
00000000
00000000
00000000
00000000
00000000
00000000
00000000
00001000
00000000
00000000
00000000
00000000
00000000
00000000
00000000
00000010
00000000
00000000
00000000
00000000
00000001
00000000
00000000
,
00000010
00000000
00000000
00000000
00000000
00000000
00000000
00000000
00000100
00000000
00000000
00000000
00000000
00000000
00000000
00000000
00001000
00000000
00000000
00000000
00000000
00000000
00000000
00000000
00000001
00000000
00000000
00000000
00000000
00000100
00000000
00000000
,
00001000
00000000
00000000
00000000
00000000
00000000
00000000
00000000
00010000
00000000
00000000
00000000
00000000
00000000
00000000
00000000
01000000
00000000
00000000
00000000
00000000
00000000
00000000
00000000
10000000
00000000
00000000
00000000
00000000
00010000
00000000
00000000
,
00100000
00001000
00010000
00000100
,
00001000
00000000
00000000
00000000
00000000
00000001
00000000
00000000
00001000
00000000
00000000
00000000
00000000
00000000
00000000
00000000
00000100
00000000
00000000
00000000
00000000
00000010
00000000
00000000
00000100
00000000
00000000
00000000
00000000
00000000
00000000
00000000
,
00000010
00000000
00000000
00000000
00000000
00000001
00000000
00000000
00000010
00000000
00000000
00000000
00000000
00000010
00000000
00000000
00001000
00000000
00000000
00000000
00000000
00000000
00000000
00000000
00010000
00000000
00000000
00000000
00000000
00000000
00000000
00000000
,
01000000
00000000
00000000
00000000
00000000
00100000
00000000
00000000
01000000
00000000
00000000
00000000
00000000
00000000
00000000
00000000
10000000
00000000
00000000
00000000
00000000
00010000
00000000
00000000
10000000
00000000
00000000
00000000
00000000
00000000
00000000
00000000
,
00100000
00000000
00000000
00000000
00000000
10000000
00000000
00000000
00100000
00000000
00000000
00000000
00000000
00100000
00000000
00000000
00010000
00000000
00000000
00000000
00000000
00000000
00000000
00000000
00001000
00000000
00000000
00000000
00000000
00000000
00000000
00000000
,
00101000
00110000
01010000
01001000
,
00000000
00000000
00000000
00000000
00000000
00001000
00000000
00000000
00000000
00000000
00000000
00000000
00000000
00010000
00000000
00000000
00001000
00000000
00000000
00000000
00000000
00010000
00000000
00000000
00001000
00000000
00000000
00000000
00000000
00000000
00000000
00000000
,
00010010
00001010
00001100
00010100
,
00000000
00000000
00000000
00000000
00000000
00010000
00000000
00000000
00000000
00000000
00000000
00000000
00000000
00001000
00000000
00000000
00010000
00000000
00000000
00000000
00000000
00001000
00000000
00000000
00010000
00000000
00000000
00000000
00000000
00000000
00000000
00000000
,
00010000
00002000
00100000
00013000
,
00200000
00010000
00001000
00320000
,
02000000
00000000
00000000
03030000
;
