
//----- song ID: goin -----//
#TITLE:Going Underground;
#ARTIST:The Jam;
#BANNER:Going Underground.png;
#BACKGROUND:Going Underground-bg.png;
#CDTITLE:./CDTITLES/Dancing Stage Max.png;
#MUSIC:Going Underground.ogg;
#SAMPLESTART:41.287;
#SAMPLELENGTH:15;
#DISPLAYBPM:84:180;
#BPMS:0=86.747,4=85.714,12=85.106,16=85.919,20=85.511,24=85.308,28=84.507,32=175.61,36=173.077,40=177.34,44=182.741,48=173.077,52=176.471,56=180,60=184.615,64=177.34,72=180.905,76=178.218,80=179.104,84=180.905,88=178.218,92=181.818,96=179.104,100=185.567,104=180,112=181.818,120=177.34,124=181.818,132=180.905,136=86.957,140=83.721,144=85.106,148=84.706,152=174.757,156=179.104,160=180.905,164=180,176=182.741,180=183.673,184=179.551,192=180,196=182.125,208=183.673,212=182.741,220=184.615,224=182.278;
#BGCHANGES:6.5=Going Underground.avi=1=1=0=0;

//---------------dance-single - ----------------
#NOTES:
     dance-single:
     :
     Beginner:
     2:
     :
0000
0000
0000
0000
,
0000
0000
0000
0000
,
0000
1000
1000
0000
,
0000
0001
0001
0000
,
0000
0010
0010
0000
,
0000
0100
0100
0000
,
0000
1000
1000
0000
,
0000
0001
0001
0000
,
0001
0000
0000
0000
,
0100
0000
0000
0000
,
1000
0000
1000
0000
,
0001
0000
0001
0000
,
0100
0000
0000
0000
,
0001
0000
0000
0000
,
1000
0000
1000
0000
,
0001
0000
0001
0000
,
0100
0000
0001
0000
,
0100
0000
0001
0000
,
1000
0000
0100
0000
,
1000
0000
0100
0000
,
0010
0000
0001
0000
,
0010
0000
0001
0000
,
1000
1000
1000
0000
,
0001
0001
0001
0000
,
1000
0000
0001
0000
,
1000
0000
0001
0000
,
0100
0100
0100
0000
,
0010
0010
0010
0000
,
0100
0000
0010
0000
,
0100
0000
0010
0000
,
2000
0000
3000
0000
,
1000
0000
1000
0000
,
0002
0000
0003
0000
,
0001
0000
0001
0000
,
0000
1000
1000
0000
,
0000
0001
0001
0000
,
0000
0010
0010
0000
,
0000
0100
0100
0000
,
0000
1000
0000
0100
,
0000
1000
0000
0100
,
0000
0010
0000
0001
,
0000
0010
0000
0001
,
0000
0100
0000
0001
,
0000
0100
0000
0001
,
0000
1000
0000
0010
,
0000
1000
0000
0010
,
0000
0100
0000
0010
,
0000
0100
0000
0010
,
0000
1000
0000
0001
,
0000
1000
0000
0001
,
0000
0100
0000
0001
,
0000
1000
0000
0000
,
2000
0000
3000
0000
,
0002
0000
0003
0000
,
1000
0000
0001
0000
,
1000
0000
0001
0000
,
0200
0000
0300
0000
;

//---------------dance-single - ----------------
#NOTES:
     dance-single:
     :
     Easy:
     5:
     :
0000
0000
0000
0000
,
0000
0000
0000
0000
,
0000
0010
0000
0100
0000
0010
0000
1001
,
0000
0001
0000
1000
0000
0100
0000
1100
,
0000
1000
0000
0001
0000
0100
0000
0101
,
0000
1000
0000
0100
0000
0010
0000
0110
,
0000
0001
0000
0100
0000
0010
0000
1001
,
0000
0100
0000
0100
0000
0100
0000
0000
,
0001
1000
0001
0000
,
1000
0001
1000
0000
,
0010
0100
0001
0000
,
0010
0100
1000
0000
,
0001
0001
1000
0000
,
0010
0010
0100
0000
,
0100
0001
0010
0000
,
0100
1000
0010
0000
,
0100
0001
0001
0000
,
1000
0100
0100
0000
,
0010
0001
0001
0000
,
0100
0010
0010
0000
,
1000
0001
1000
0001
,
0100
0001
1000
0000
,
1000
1000
1000
0000
,
0001
0001
0001
0000
,
0010
0001
0010
0001
,
1000
0010
0100
0000
,
0010
0010
0010
0000
,
0100
0100
0100
0000
,
1000
0001
0100
0010
,
0100
0010
1000
0000
,
1000
0000
1000
0000
,
0001
0000
0001
0000
,
0100
0000
0100
0000
,
0010
0000
0010
0000
,
1000
0010
0100
0001
,
1001
0010
0100
1000
,
1001
0100
0010
0100
,
0110
1000
0001
1000
,
1000
0001
1000
0000
,
0001
1000
0001
0000
,
0100
0010
1000
0000
,
0100
0010
0001
0000
,
1000
1000
0001
0000
,
0100
0100
0010
0000
,
0010
1000
0100
0000
,
0010
0001
0100
0000
,
0010
1000
1000
0000
,
0001
0100
0100
0000
,
0010
0100
0100
0000
,
0001
0010
0010
0000
,
0100
1000
0100
1000
,
0010
1000
0001
0000
,
0100
0100
0100
0000
,
1000
1000
1000
0000
,
0001
0100
1000
0100
,
0001
0010
1000
0010
,
0002
0000
0000
0003
;

//---------------dance-single - ----------------
#NOTES:
     dance-single:
     :
     Medium:
     6:
     :
0000
0000
0000
0000
,
0000
0000
0000
0000
,
0000
0011
0000
0101
0000
1010
0000
0100
,
1000
1010
0000
0101
0000
0011
0000
1000
,
0001
0101
0000
0110
0000
1010
0000
1000
,
0100
0110
0000
0011
0000
0101
0000
0010
,
1000
1001
0000
1100
0000
0011
0000
1000
,
0001
0011
0000
0110
0000
1100
0000
0001
,
1000
0100
1000
0001
,
0100
0001
1000
0010
,
1000
0001
0010
0001
,
1000
0100
0001
0100
,
1000
0010
0001
0010
,
1000
0001
1000
0100
,
0010
1000
0010
0100
,
1000
0001
0100
0010
,
0001
0010
0100
0001
,
1000
0000
0001
0000
0010
0000
0000
0010
,
0100
0010
0000
0100
0000
1000
0000
0010
,
0100
0010
0000
0100
0000
0000
0000
0010
,
1000
0100
1000
0010
,
0100
0001
1000
0001
,
1000
0000
0010
2000
0000
3000
0001
0000
,
0100
0000
0001
0200
0000
0300
0010
0000
,
1000
0001
0100
0010
,
1000
0001
0010
0100
,
0010
0000
0001
0020
0000
0030
0100
0000
,
1000
0000
0100
2000
0000
3000
0001
0000
,
0100
1000
0100
0010
,
1000
0001
0100
0001
,
0020
0000
0000
0000
0030
0000
0000
0100
,
2000
0000
0000
0000
3000
0000
0000
0001
,
0200
0000
0000
0000
0300
0000
0000
0010
,
2000
0000
3000
0000
,
0010
0100
0000
0001
0000
1000
0000
0100
,
0010
0001
0000
0100
0000
0010
0000
1000
,
0001
1001
0000
1100
0000
0101
0000
0110
,
0010
1010
1000
1100
0100
0110
0010
0011
,
0001
1000
0010
0100
,
0001
0010
0100
1000
,
0010
0001
0010
1000
,
0100
0001
0100
1000
,
0001
0100
0010
1000
,
0100
1000
0001
0010
,
0100
0010
0001
0010
,
1000
0010
0100
0001
,
0100
1000
0001
0100
,
0010
0000
1000
0000
0010
0000
0000
0100
,
1000
0100
0000
1000
0000
0100
0000
0001
,
0100
0001
0000
0100
0000
0000
0000
1000
,
0010
1000
0100
0010
,
0001
1000
0100
1000
,
0001
0000
0100
0002
0000
0003
1000
0000
,
0010
0000
1000
0020
0000
0030
0100
0000
,
0001
1000
0010
0100
,
0001
1000
0100
0010
,
2002
0000
3003
0000
;

//---------------dance-single - ----------------
#NOTES:
     dance-single:
     :
     Hard:
     8:
     :
0000
0000
0000
0000
,
0000
0000
0000
0000
,
0000
0000
0001
1000
0000
0000
1000
0001
0000
0000
0100
0000
0000
0010
0100
0010
,
0000
0000
1000
0001
0000
0000
0001
1000
0000
0000
0100
0000
0000
0010
0100
0010
,
0000
0000
0001
0100
0000
0000
0010
1000
0000
0000
0100
0000
0000
0001
0010
0001
,
0000
0000
1000
0100
0000
0000
0010
0001
0000
0000
0100
0000
0000
1000
0010
1000
,
0000
0000
0010
0100
0000
0000
0100
0010
0000
0000
1000
0000
0000
0001
1000
0001
,
0000
0000
0100
0000
0100
0000
0010
0000
0010
0000
1000
0000
1000
0100
1000
0000
,
0001
1000
0001
1000
,
0010
0100
0010
0100
,
0001
1100
1000
0101
,
0010
0011
1000
1010
,
0100
0000
0001
0000
1000
0200
0000
0010
,
0000
1000
0000
0310
0000
0000
0000
0001
,
0100
0000
0010
1000
0010
0100
0001
0100
,
0000
0010
0100
0010
0000
0000
0000
1000
,
0100
1000
0001
0010
0001
0100
0000
0001
,
0100
0001
1000
0010
1000
0100
0000
0010
,
0001
1000
0100
0010
0100
1000
0000
0001
,
0100
0010
0100
0001
1000
0010
0000
0010
,
0100
0000
0100
0001
0100
0010
1000
0100
,
1000
0000
0100
0010
0000
0100
1000
0001
,
1000
0000
1000
0020
0000
0130
0001
1000
,
0001
0000
0001
0020
0000
0130
1000
0001
,
0100
0001
1000
0100
,
1000
0000
0010
0100
0000
0100
0001
1000
,
0001
0000
0001
0020
0000
0130
1000
0001
,
1000
0000
1000
0020
0000
0130
0001
1000
,
0100
1000
0001
0100
,
0010
0000
1000
0000
0001
0000
0010
0100
,
1000
0000
0000
0000
0000
0000
0001
0100
,
0010
0000
0000
0000
0000
0000
0010
0100
,
1000
0000
0000
0000
0000
0000
1000
0100
,
0001
0000
0000
0000
,
1000
0000
0001
0100
0000
0000
0100
0010
0000
0000
0010
1000
0000
1000
0001
1000
,
0000
0000
1000
0100
0000
0000
0100
0010
0000
0000
0010
0001
0000
0001
1000
0001
,
0000
0000
2000
0100
0000
0000
3002
0100
0000
0000
0013
0100
0000
1000
0100
1000
,
0000
0000
0020
0100
0000
0000
2030
0001
0000
0000
3100
0010
0000
0001
0010
0001
,
1000
0001
1000
0000
0010
0100
0010
0000
,
1000
0100
0001
0100
0010
0001
0100
0000
,
0001
1000
0001
0000
0010
0100
0010
0000
,
0001
0100
1000
0100
0010
1000
0100
0000
,
0010
0001
0100
0000
0010
1000
0100
0000
,
1000
0001
1000
0010
0100
0001
1000
0000
,
0100
1000
0010
0001
0010
0100
0001
0000
,
0001
0100
0001
1000
0100
1000
0001
0000
,
0100
0001
0010
0100
1000
0001
0100
0000
,
0001
0100
0010
0100
0001
1000
0010
0000
,
0100
0001
1000
0010
0001
0010
1000
0000
,
0100
0010
0001
0100
0010
1000
0000
0010
,
0100
0000
0001
1000
0100
1000
0010
0100
,
1000
0000
0100
0001
0000
0010
0001
1000
,
0001
0000
0001
0200
0000
0310
1000
0001
,
1000
0000
1000
0200
0000
0310
0001
1000
,
0010
1000
0001
0010
,
0001
0000
0100
0010
0000
0010
1000
0001
,
0200
0000
0000
0300
;

//---------------dance-double - ----------------
#NOTES:
     dance-double:
     :
     Easy:
     5:
     :
00000000
00000000
00000000
00000000
,
00000000
00000000
00000000
00000000
,
00000000
10000000
00000000
01000000
00000000
10000000
00000000
00010000
,
00000000
00100000
00000000
00010000
00000000
00100000
00000000
00001000
,
00000000
00010000
00000000
00001000
00000000
00010000
00000000
00000100
,
00000000
00001000
00000000
00000100
00000000
00001000
00000000
00000001
,
00000000
00000100
00000000
00000010
00000000
00001000
00000000
00000100
,
00000000
00010000
00000000
00001000
00000000
00100000
00000000
00000000
,
00100000
01000000
10000000
00000000
,
00100000
10000000
00010000
00000000
,
00100000
01000000
00100000
00000000
,
01000000
10000000
00010000
00000000
,
10000000
01000000
00010000
00000000
,
01000000
00010000
00001000
00000000
,
00010000
00001000
00000100
00000000
,
00001000
00000100
00000001
00000000
,
00000100
00000100
00001000
00000000
,
00010000
00010000
00001000
00000000
,
00010000
00010000
01000000
00000000
,
10000000
10000000
00010000
00000000
,
00100000
00000000
01000000
00000000
,
10000000
00000000
01000000
00010000
,
00001000
00001000
00001000
00000000
,
00010000
00010000
00010000
00000000
,
00001000
00000010
00000001
00000100
,
00001000
00010000
01000000
10000000
,
00010000
00010000
00010000
00000000
,
01000000
01000000
01000000
00000000
,
00010000
01000000
00001000
00010000
,
00000100
00001000
00000001
00000010
,
00000100
00000000
00000100
00000000
,
00010000
00000000
00010000
00000000
,
00001000
00000000
00001000
00000000
,
00100000
00000000
00100000
00000000
,
00010000
01000000
00010000
01000000
,
00100000
10000000
00100000
10000000
,
01000000
00010000
00001000
00000100
,
00000001
00000010
00000100
00001000
,
00000001
00001000
00000001
00000000
,
00000010
00000001
00001000
00000000
,
00000010
00000100
00000010
00000000
,
00000100
00000001
00001000
00000000
,
00000001
00000010
00001000
00000000
,
00000010
00001000
00010000
00000000
,
00001000
00010000
00100000
00000000
,
00010000
00100000
10000000
00000000
,
00100000
00100000
00010000
00000000
,
00001000
00001000
00010000
00000000
,
00001000
00001000
00000010
00000000
,
00000001
00000001
00001000
00000000
,
00000100
00000000
00000010
00000000
,
00000001
00000000
00000010
00001000
,
00010000
00010000
00010000
00000000
,
00001000
00001000
00001000
00000000
,
00010000
01000000
10000000
00100000
,
00010000
00001000
00000010
00000001
,
00002000
00000000
00000000
00003000
;

//---------------dance-double - ----------------
#NOTES:
     dance-double:
     :
     Medium:
     6:
     :
00000000
00000000
00000000
00000000
,
00000000
00000000
00000000
00000000
,
00000000
00110000
00000000
01010000
00000000
01001000
00000000
00010000
,
00001000
00011000
00000000
00010100
00000000
00001100
00000000
00001000
,
00000010
00000110
00000000
00000101
00000000
00001001
00000000
00001000
,
00000100
00010100
00000000
00011000
00000000
00101000
00000000
00100000
,
00010000
10010000
00000000
01010000
00000000
01100000
00000000
00100000
,
10000000
10010000
00000000
00110000
00000000
00101000
00000000
00010000
,
00001000
00010000
00001000
00010000
,
00000100
00001000
00000001
00000100
,
00001000
00010000
01000000
10000000
,
00100000
00010000
00001000
00010000
,
01000000
10000000
00100000
01000000
,
00100000
00010000
00001000
00000100
,
00000010
00000100
00000001
00001000
,
00000100
00000010
00001000
00010000
,
00001000
00100000
00010000
01000000
,
00100000
00000000
10000000
00000000
01000000
00000000
00000000
00100000
,
00010000
00100000
00000000
00001000
00000000
00010000
00000000
00000010
,
00001000
00000010
00000000
00000100
00000000
00000000
00000000
00000100
,
00000001
00000010
00001000
00010000
,
01000000
10000000
01000000
00010000
,
00001000
00000000
00010000
00001000
00000000
00000000
00010000
00000000
,
00001000
00000000
00010000
00001000
00000000
00000000
00010000
00000000
,
00001000
00000010
00000100
00000010
,
00001000
00010000
00100000
01000000
,
00010000
00000000
10000000
00010000
00000000
00000000
10000000
00000000
,
00100000
00000000
01000000
00100000
00000000
00000000
01000000
00000000
,
10000000
01000000
00010000
00100000
,
00001000
00010000
00000100
00001000
,
00000020
00000000
00000000
00000000
00000030
00000000
00000000
00000100
,
00002000
00000000
00000000
00000000
00003000
00000000
00000000
00010000
,
00200000
00000000
00000000
00000000
00300000
00000000
00000000
10000000
,
02000000
00000000
03000000
00000000
,
00100000
00010000
00000000
01000000
00000000
10000000
00000000
00100000
,
00000000
00010000
00000000
00001000
00000000
00000100
00000000
00000001
,
00000000
00001001
00000000
00001100
00000000
00010100
00000000
00011000
,
00000000
00101000
00100000
00110000
00010000
10010000
10000000
01000000
,
00010000
00001000
00010000
00001000
,
00100000
00010000
10000000
00100000
,
00010000
00001000
00000010
00000001
,
00000100
00001000
00010000
00001000
,
00000010
00000001
00000100
00000010
,
00000100
00001000
00010000
00100000
,
01000000
00100000
10000000
00010000
,
00100000
01000000
00010000
00001000
,
00010000
00000100
00001000
00000010
,
00000100
00000000
00000001
00000000
00000010
00000000
00000000
00000100
,
00001000
00000100
00000000
00010000
00000000
00001000
00000000
01000000
,
00010000
01000000
00000000
00100000
00000000
00000000
00000000
00100000
,
10000000
01000000
00010000
00001000
,
00000010
00000001
00000010
00001000
,
00010000
00000000
00001000
00010000
00000000
00000000
00001000
00000000
,
00010000
00000000
00001000
00010000
00000000
00000000
00001000
00000000
,
00010000
01000000
00100000
01000000
,
00010000
00001000
00000100
00000010
,
00002000
00000000
00000000
00003000
;

//---------------dance-double - ----------------
#NOTES:
     dance-double:
     :
     Hard:
     8:
     :
00000000
00000000
00000000
00000000
,
00000000
00000000
00000000
00000000
,
00000000
00000000
00010000
10000000
00000000
00000000
10000000
00010000
00000000
00000000
10000000
00000000
00000000
00100000
00010000
00001000
,
00000000
00000000
00010000
00001000
00000000
00000000
00001000
00010000
00000000
00000000
00001000
00000000
00000000
00010000
00001000
00000100
,
00000000
00000000
00000001
00001000
00000000
00000000
00001000
00000001
00000000
00000000
00000010
00000000
00000000
00001000
00010000
00100000
,
00000000
00000000
10000000
00010000
00000000
00000000
00010000
10000000
00000000
00000000
01000000
00000000
00000000
00010000
00001000
00000100
,
00000000
00000000
00000001
00001000
00000000
00000000
00001000
00000001
00000000
00000000
00001000
00000000
00000000
00000010
00000100
00001000
,
00000000
00000000
00010000
00000000
00010000
00000000
00001000
00000000
00001000
00000000
00100000
00000000
00100000
00010000
00100000
00000000
,
00010000
10000000
00010000
10000000
,
00100000
01000000
00100000
01000000
,
00010000
00110000
00100000
01100000
,
01000000
01010000
00010000
00011000
,
00001000
00000000
00001000
00000000
00000100
00000020
00000000
00001000
,
00000000
00000001
00000000
00001030
00000000
00000000
00000000
00000001
,
00000010
00000000
00000100
00001000
00000100
00000010
00000001
00000010
,
00000000
00001000
00010000
00001000
00000000
00000000
00000000
00100000
,
01000000
00100000
00010000
01000000
00010000
10000000
00000000
00100000
,
01000000
00100000
10000000
01000000
10000000
00010000
00000000
00100000
,
00010000
00100000
00001000
00010000
00001000
00000100
00000000
00000001
,
00001000
00000010
00000100
00000010
00001000
00000100
00000000
00000010
,
00000001
00000000
00001000
00000001
00001000
00000010
00010000
00001000
,
00010000
00000000
00010000
00100000
00000000
10000000
01000000
00010000
,
00001000
00000000
00000100
00000002
00000000
00000013
00001000
00010000
,
00100000
00000000
10000000
02000000
00000000
13000000
00100000
01000000
,
00010000
00100000
00001000
00010000
,
00000100
00000000
00001000
00000010
00000000
00000100
00000001
00000010
,
00001000
00000000
00010000
02000000
00000000
13000000
00100000
00010000
,
00001000
00000000
00000100
00000002
00000000
00000103
00001000
00010000
,
00001000
00100000
00010000
01000000
,
00100000
00000000
10000000
00000000
00010000
00000000
00100000
00010000
,
10000000
00000000
00000000
00000000
00000000
00000000
01000000
00010000
,
00001000
00000000
00000000
00000000
00000000
00000000
00001000
00000100
,
00000001
00000000
00000000
00000000
00000000
00000000
00000001
00000010
,
00000100
00000000
00000000
00000000
,
00001000
00000000
00000001
00000100
00000000
00000000
00000100
00001000
00000000
00000000
00001000
00010000
00000000
00001000
00010000
00001000
,
00000000
00000000
00010000
01000000
00000000
00000000
01000000
10000000
00000000
00000000
10000000
00010000
00000000
00010000
10000000
00010000
,
00000000
00000000
00100000
01000000
00000000
00000000
00010000
00001000
00000000
00000000
00000010
00000100
00000000
00000100
00001000
00000100
,
00000000
00000000
00001000
00000010
00000000
00000000
00000100
00001000
00000000
00000000
00010000
01000000
00000000
00100000
00010000
00100000
,
01000000
00100000
00010000
00000000
01000000
00100000
10000000
00000000
,
00010000
01000000
00100000
00010000
00001000
00000100
00000010
00000000
,
00001000
00000100
00000010
00000000
00000001
00000100
00000010
00000000
,
00001000
00000100
00000010
00001000
00010000
01000000
00100000
00000000
,
00010000
00100000
00010000
00000000
10000000
01000000
10000000
00000000
,
00010000
01000000
00010000
00100000
00001000
00010000
00001000
00000000
,
00010000
00001000
00010000
00000100
00001000
00000100
00000010
00000000
,
00000001
00000100
00000001
00000010
00000100
00001000
00000100
00000000
,
00010000
00001000
00010000
00100000
10000000
00010000
10000000
00000000
,
00010000
01000000
00010000
00100000
01000000
10000000
01000000
00000000
,
00100000
01000000
00010000
00001000
00010000
00000100
00001000
00000000
,
00000001
00000100
00000010
00001000
00000100
00010000
00000000
00001000
,
00010000
00000000
01000000
10000000
00100000
00010000
00001000
00010000
,
00000100
00000000
00001000
00000001
00000000
00000001
00000010
00001000
,
00010000
00000000
00100000
20000000
00000000
31000000
00010000
00001000
,
00000100
00000000
00000001
00000020
00000000
00000031
00000100
00000010
,
00001000
00000100
00010000
00001000
,
00100000
00000000
00010000
01000000
00000000
00100000
10000000
01000000
,
00200000
00000000
00000000
00300000
;
