
//----- song ID: girl -----//
#TITLE:Girls Just Wanna Have Fun;
#ARTIST:Cyndi Lauper;
#BANNER:Girls Just Wanna Have Fun.png;
#BACKGROUND:Girls Just Wanna Have Fun-bg.png;
#CDTITLE:./CDTITLES/Dancing Stage Max.png;
#MUSIC:Girls Just Wanna Have Fun.ogg;
#SAMPLESTART:63.687;
#SAMPLELENGTH:15;
#DISPLAYBPM:120;
#BPMS:0=120.59;
#BGCHANGES:6=Girls Just Wanna Have Fun.avi=1=0=0=0;

//---------------dance-single - ----------------
#NOTES:
     dance-single:
     :
     Beginner:
     1:
     :
0000
0000
0000
0000
,
0000
0000
0000
0000
,
1000
0000
0000
0000
,
0001
0000
1000
0000
,
0100
0000
0000
0000
,
1000
0000
1000
0000
,
0001
0000
0000
0000
,
0010
0000
0100
0000
,
0010
0000
0000
0000
,
1000
0000
1000
0000
,
0001
0001
0001
0000
,
1000
1000
1000
0000
,
0100
0000
1000
0000
,
0100
0000
1000
0000
,
0001
0001
0001
0000
,
1000
1000
1000
0000
,
0001
0000
0010
0000
,
0001
0000
1000
0000
,
0010
0000
1000
0000
,
0010
0000
0000
0000
,
0001
0000
0100
0000
,
0001
0000
0000
0000
,
1000
0000
1000
0000
,
0001
0001
0001
0000
,
1000
1000
1000
0000
,
0010
0000
0100
0000
,
0010
0000
0100
0000
,
0001
0001
0001
0000
,
1000
1000
1000
0000
,
0001
0000
0010
0000
,
0001
0000
1000
0000
,
0010
0000
1000
0000
,
0002
0000
0000
0000
,
0003
0001
0001
0000
,
2000
0000
0000
0000
,
3000
1000
1000
0000
,
0001
0001
0001
0000
,
1000
1000
1000
0000
,
0001
0000
0010
0000
,
0001
0000
1000
0000
,
0010
0000
1000
0000
,
0001
0000
0100
0000
,
1000
0000
0100
0000
,
0001
0000
1000
0000
,
0001
0000
1000
0000
,
0100
0000
0000
0000
;

//---------------dance-single - ----------------
#NOTES:
     dance-single:
     :
     Easy:
     3:
     :
0000
0000
0000
0000
,
0000
0000
0000
0000
,
0001
0000
0010
0000
,
0100
0000
0001
0001
,
1000
0000
0010
0000
,
0100
0000
1000
1000
,
0001
0000
0100
0000
,
1000
0000
0001
0001
,
1000
0000
0100
0000
,
0001
0000
1000
1000
,
0100
0000
0100
0000
,
0010
0010
0010
0000
,
0001
0000
0001
0000
,
1000
0001
1000
0000
,
0010
0000
0010
0000
,
1000
0000
1000
0000
,
1001
0000
0100
0010
,
0100
0000
0000
1000
,
0100
0010
0100
0010
,
0002
0000
0000
0003
,
0100
0000
1000
0001
,
2000
3000
0002
0003
,
0010
0000
0001
1000
,
1001
0000
0000
0000
,
0100
0100
0100
0000
,
0020
0000
1030
0000
,
0001
0001
0100
0000
,
0001
0010
0001
0000
,
1000
0010
1000
0000
,
1001
0000
0100
0010
,
0100
0000
0000
1000
,
0100
0010
0100
0010
,
0000
1000
0001
2000
,
0000
0001
3001
0000
,
0000
1000
0002
0000
,
0000
1000
1003
0000
,
0010
0000
1000
1000
,
0010
0000
0001
0001
,
1001
0000
0100
0010
,
0100
0000
0000
1000
,
0100
0010
0100
0010
,
1001
0000
0000
0000
,
0010
0010
0100
0100
,
1001
0000
0000
0000
,
1000
1000
0001
0001
,
0110
0000
0000
0000
;

//---------------dance-single - ----------------
#NOTES:
     dance-single:
     :
     Medium:
     4:
     :
0000
0000
0000
0000
,
0000
0000
0000
0000
,
1001
0001
0100
0000
,
0010
0001
1000
0100
,
0110
0001
1000
0000
,
0100
0010
1000
0010
,
1001
1000
0100
0000
,
0010
1000
0001
0100
,
0110
1000
0001
0000
,
0100
0010
0001
1000
,
0002
0013
2000
3010
,
0100
0100
0010
0010
,
2000
3001
0002
1003
,
1000
0001
1000
0000
1001
0000
0000
0000
,
0100
0010
0010
0100
,
0002
0010
2000
3003
,
0110
0000
0000
0000
0001
1000
0100
0000
,
1001
0000
0000
0001
,
0101
1100
0001
0010
,
0220
0000
0330
0000
,
0100
0010
1000
0001
,
1001
0001
0100
0000
,
0010
0001
1000
0100
,
2000
3010
0002
0013
,
0100
0100
0010
0010
,
1001
0110
0002
0003
,
0010
0010
0100
0000
2002
0000
3003
0000
,
0001
1000
0010
0100
,
0001
0002
2003
3000
,
1001
0000
0000
0000
0010
0001
0100
0000
,
0110
0000
0000
1000
,
1100
0101
1000
0010
,
0000
0200
2300
3020
,
0000
1000
1000
1030
,
0000
0002
0023
0230
,
0000
1000
1000
0300
,
1001
0000
0001
2000
0000
0100
0000
3100
,
0000
0002
0000
0100
0000
0103
0000
2000
,
0000
0000
0000
3000
0010
1000
0001
0000
,
1001
0000
0000
0010
,
0100
0000
1000
0000
0010
0100
0010
0000
,
0200
0000
0000
0300
,
0002
0000
0000
0000
1003
1000
0100
0000
,
2000
0000
3002
0000
,
0203
0000
0000
0000
0310
0010
1000
0000
,
2002
0000
0000
3003
;

//---------------dance-single - ----------------
#NOTES:
     dance-single:
     :
     Hard:
     6:
     :
0000
0000
0000
0000
,
0000
0000
0000
0000
,
0010
0000
0000
1000
0000
0000
0001
0000
2000
0000
0000
0000
0000
0000
0000
0000
,
3001
0000
0000
0100
0000
0000
0010
0000
0200
0000
0000
0000
0302
0000
0000
0000
,
1003
0000
0000
0100
0000
0000
1000
0000
0002
0000
0000
0000
0000
0000
0000
0000
,
1003
0000
0000
0010
0000
0000
0100
0000
0002
0000
0000
0000
0023
0000
0000
0000
,
0130
0000
0000
0010
0000
0000
0001
0000
2000
0000
0000
0000
0000
0000
0000
0000
,
3100
0000
0000
1000
0000
0000
0001
0000
0020
0000
0000
0000
0230
0000
0000
0000
,
1300
0000
0000
0010
0000
0000
0100
0000
0020
0000
0000
0000
0000
0000
0000
0000
,
1030
0000
0000
0001
0000
0000
0100
0000
0002
0000
0000
0000
1003
0000
0000
0000
,
0010
0100
0001
0010
0100
0000
0110
0000
,
0001
1000
0010
0100
0001
0000
1001
0000
,
0010
0001
1000
0001
0100
0001
0100
0010
,
1000
0001
1000
0000
0100
0000
1100
0000
,
0020
0000
0000
0100
0130
0000
0000
0000
,
2000
0000
0000
0001
3001
0000
0100
0000
,
1001
0000
0000
0001
0001
0100
0010
1000
,
0000
0002
0000
0000
0000
1003
0100
1000
,
1100
0000
0020
0000
0031
0100
0001
0000
,
2200
0000
3300
0000
,
0001
0000
0000
1000
0000
0000
0010
0000
0100
0000
0000
0000
0001
0000
0000
0000
,
0010
0000
0000
0100
0000
0000
1000
0000
0020
0000
0000
0000
0030
0000
0000
0000
,
1000
0000
0000
0001
0000
0000
0010
0000
0100
0000
0000
0000
1001
0000
0000
0000
,
0010
0100
1000
0010
0100
0000
0110
0000
,
1000
0001
0010
0100
1000
0000
1001
0000
,
0010
1000
0001
1000
0100
1000
0100
0010
,
0001
1000
0001
0000
0100
0000
0101
0000
,
1000
0001
0100
0000
0001
1000
0100
0000
,
0110
0000
0000
0110
0000
0000
0001
0000
1000
0000
0000
0000
0000
0000
0000
0000
,
1000
0010
1000
0000
0001
0100
0001
0000
,
1000
0010
0100
0001
1000
0100
0100
0000
,
1001
0100
0010
0000
1001
0100
0010
0000
,
0000
1000
0100
1000
0001
0010
0002
0000
,
0000
0000
1000
0003
0010
0000
0001
0000
0010
0000
1000
0000
0200
0000
0000
0000
,
0000
0000
0310
0000
0001
0100
0002
0000
,
0003
0010
0100
1000
0200
0000
0000
0000
,
0310
0000
0001
1001
0000
1100
0000
0101
,
0000
1001
0000
0101
0000
1000
0000
0200
,
0000
0000
0000
0310
0001
0100
1000
0100
,
0000
1001
0000
0000
0000
0100
0001
1000
,
1100
0000
0011
0000
0100
1000
0001
0000
,
2002
0000
3003
0000
0001
1000
0001
0000
,
0010
1000
0100
0000
0010
0001
0101
0000
,
0202
0000
0303
0000
1000
0010
1000
0000
,
0001
0010
0100
0000
0100
0010
1001
0000
,
0220
0000
0000
0330
;

//---------------dance-double - ----------------
#NOTES:
     dance-double:
     :
     Easy:
     3:
     :
00000000
00000000
00000000
00000000
,
00000000
00000000
00000000
00000000
,
10010000
00000000
10000000
00000000
,
01000000
00010000
00001000
00000010
,
00000110
00000000
00000100
00000000
,
00000001
00000100
00001000
00010000
,
00011000
00000000
00100000
00000000
,
01000000
10000000
00010000
00100000
,
01100000
00000000
01000000
00000000
,
00010000
00001000
00010000
00001000
,
00000000
00000100
00000000
00000000
,
00010000
00001000
00100000
00000000
,
10000000
01000000
01000000
00100000
,
00010000
01000000
00100000
00000000
,
00000000
00010000
00010000
00001000
,
00000010
00000001
00001000
00000000
,
00001001
00000000
00001000
00000001
,
00000100
00000000
00000000
00001000
,
00011000
00010000
01000000
10000000
,
00200000
00000000
00000000
00300000
,
00100000
01000000
00100000
01000000
,
10000000
00000000
00010000
00000000
,
01000000
00010000
00001000
00000100
,
00000000
00000010
00000000
00000000
,
00001000
00000100
00000001
00000100
,
00001000
00001000
00010000
00010000
,
00100000
01000000
10000000
00000000
,
00000000
00010000
01000000
00001000
,
00010000
00000010
00002000
00003000
,
00001001
00000000
00000010
00000100
,
00001000
00000000
00000000
00010000
,
00001000
00100000
01000000
00010000
,
00000000
01100000
10010000
00200000
,
00000000
00000000
00000000
00300000
,
00000000
00010000
00012000
00000000
,
00000000
00000000
00000000
00003000
,
00001000
00000100
00000001
00000101
,
00000100
00001000
00010000
00010000
,
00021000
00000000
00130000
00100000
,
00100000
00000000
00000000
10000000
,
01000000
00010000
00001000
00000100
,
00000002
00000000
00000103
00000000
,
00000000
00000000
00001000
00010000
,
00001000
00000000
00100000
00000000
,
00000000
00000000
00010000
10000000
,
10010000
00000000
00000000
00000000
;

//---------------dance-double - ----------------
#NOTES:
     dance-double:
     :
     Medium:
     4:
     :
00000000
00000000
00000000
00000000
,
00000000
00000000
00000000
00000000
,
00020000
00000000
20030000
00000000
,
30100000
10000000
01000000
00010000
,
00002000
00000000
00023000
00000000
,
00031000
00000100
00000001
00000010
,
00000002
00000000
00002003
00000000
,
00003010
00000100
00001000
00000100
,
00000002
00000000
00000203
00000000
,
00001300
00010000
00001000
00010000
,
01000000
10000000
00100000
10000000
,
10000000
00010000
10000000
00000000
00010000
01000000
00010000
00000000
,
10000000
00100000
01000000
00010000
,
10000000
01000000
10000000
00000000
02000000
00000000
00000000
00000000
,
03010000
00001000
00000100
00000001
,
00000100
00000001
00000100
00000000
00001001
00000000
00000000
00000000
,
00000200
00000000
00020300
00000000
,
00031000
00001000
00010000
00001000
,
00000100
00000001
00000010
00001000
,
00000020
00000000
00000000
00000001
00000031
00000000
00000000
00000000
,
00002000
00000000
00000000
00000100
00003100
00000000
00010000
00000000
,
00002000
00000000
00000000
00010000
00013000
00000000
00000000
00000000
,
02000000
00000000
00000000
10000000
13000000
00000000
00010000
00000000
,
10000000
00100000
00010000
00100000
,
10000000
01000000
10000000
01000000
,
00100000
01000000
00100000
00000000
01000000
00000000
00010000
00000000
,
01000000
10000000
01000000
00010000
,
00001000
00010000
00001000
00000000
00000100
00000000
00000001
00000000
,
00000010
00000001
00000011
00000000
,
00000200
00000000
00000302
00000000
,
00001003
00000100
00001000
00000000
00000001
00000100
00000001
00000000
,
00000010
00000001
00000100
00001000
,
00020000
00000000
02030000
00000000
,
13000000
00100000
10000000
01000000
,
20000000
00000000
30020000
00000000
,
10030000
00100000
00010000
00001000
,
00000010
00000011
00000100
00001100
,
00000001
00000001
00000100
00001000
,
00020000
00000000
00032000
00000000
,
00013000
01000000
10000000
00100000
,
01000000
00000000
01100000
00000000
10000000
00010000
10000000
00000000
,
00020000
00000000
00000000
01000000
01030000
00000000
00000000
00000000
,
10010000
00000000
00000000
00000000
01000000
00010000
01000000
00000000
,
00020000
00000000
00000000
00001000
00031000
00000000
00000000
00000000
,
00000110
00000000
00000000
00000000
00000010
00000100
00000010
00000000
,
00002002
00000000
00000000
00003003
;

//---------------dance-double - ----------------
#NOTES:
     dance-double:
     :
     Hard:
     6:
     :
00000000
00000000
00000000
00000000
,
00000000
00000000
00000000
00000000
,
00001000
00000000
00000000
00010000
00000000
00000000
00010000
00000000
00002000
00000000
00000000
00000000
00000000
00000000
00000000
00000000
,
00013000
00000000
00000000
01000000
00000000
00000000
10000000
00000000
00020000
00000000
00000000
00000000
00230000
00000000
00000000
00000000
,
00310000
00000000
00000000
10000000
00000000
00000000
10000000
00000000
02000000
00000000
00000000
00000000
00000000
00000000
00000000
00000000
,
03010000
00000000
00000000
00001000
00000000
00000000
00001000
00000000
00000020
00000000
00000000
00000000
00000032
00000000
00000000
00000000
,
00000103
00000000
00000000
00000010
00000000
00000000
00000010
00000000
00000200
00000000
00000000
00000000
00000000
00000000
00000000
00000000
,
00001300
00000000
00000000
00010000
00000000
00000000
00010000
00000000
02000000
00000000
00000000
00000000
23000000
00000000
00000000
00000000
,
30010000
00000000
00000000
01000000
00000000
00000000
01000000
00000000
00200000
00000000
00000000
00000000
00000000
00000000
00000000
00000000
,
10300000
00000000
00000000
01000000
00000000
00000000
01000000
00000000
00020000
00000000
00000000
00000000
00032000
00000000
00000000
00000000
,
00003010
00000001
00000100
00000000
00001000
00010000
00100000
00000000
,
00010000
00001000
00000010
00000000
00000001
00001000
00000100
00000000
,
00010100
00011000
01001000
00011000
,
00001000
01000000
00010000
00100000
01000000
10000000
00100000
00000000
,
01000000
00010000
00100000
00000000
00010000
10000000
01000000
00000000
,
00010000
00001000
00000100
00000000
00000110
00000000
00000000
00000000
,
00001001
00000000
00000000
00001000
00000010
00010000
00001000
00010000
,
00000000
00000100
00010000
00001000
00000100
00000001
00000100
00000000
,
00000010
00001000
00000100
00001000
00000010
00000100
00000001
00000000
,
00000200
00000300
00000000
00000000
,
00001000
00000000
00000000
00010000
00000000
00000000
01000000
00000000
20000000
00000000
00000000
00000000
30200000
00000000
00000000
00000000
,
10300000
00000000
00000000
10000000
00000000
00000000
01000000
00000000
00020000
00000000
00000000
00000000
00000000
00000000
00000000
00000000
,
00031000
00000000
00000000
00010000
00000000
00000000
01000000
00000000
00200000
00000000
00000000
00000000
00310000
00000000
00000000
00000000
,
10000000
01000000
00010000
00000000
00001000
00010000
00001000
00000000
,
00010000
00001000
00000100
00000001
00000010
00000001
00000100
00001000
,
00000100
00000001
00000010
00000000
00001001
00000000
00000101
00000000
,
00000100
00001000
00010000
00000000
00022000
00000000
00033000
00000000
,
00010000
01000000
10000000
00100000
01000000
00010000
10000000
00100000
,
01000000
00000000
00000000
02000000
00000000
00000000
00010000
00000000
03010000
00000000
00000000
00000000
00000000
00000000
10000000
00000000
,
02000000
00000000
03020000
00000000
,
00031000
00000100
00000001
00000000
00000001
00000100
00001000
00000000
,
00000110
00000000
00001001
00000000
00000010
00000001
00000100
00000000
,
00002000
00000000
00023000
00000000
,
01030000
10000000
00100000
00010000
00001000
00010000
00100000
00000000
,
20000000
00000000
30200000
00000000
,
10300000
01000000
00100000
00010000
10000000
01000000
00010000
00000000
,
00001000
00000000
00000100
00001000
00000000
00010000
00001000
00010000
,
00000000
01000000
00100000
01000000
00000000
00010000
10000000
00100000
,
20000000
00000000
32000000
00000000
,
13000000
00010000
00100000
00000000
01000000
00010000
00001000
00000000
,
00010000
00001000
00000100
00000000
00000100
00000001
00000010
00000000
,
00000002
00000000
00002003
00000000
,
00003002
00000000
00000000
00000000
00000103
00000010
00001000
00000000
,
00000100
00000010
00000001
00000100
00001000
00010000
00001000
00000000
,
00020000
00000000
00000000
00000000
00031000
00010000
01000000
00000000
,
20000000
00000000
00000000
30000000
;
