
//----- song ID: frid -----//
#TITLE:Friday;
#ARTIST:Daniel Beddingfield;
#BANNER:Friday.png;
#BACKGROUND:Friday-bg.png;
#CDTITLE:./CDTITLES/Dancing Stage Max.png;
#MUSIC:Friday.ogg;
#SAMPLESTART:37.065;
#SAMPLELENGTH:15;
#DISPLAYBPM:156;
#BPMS:0=155;
#BGCHANGES:19=Friday.avi=1=1=0=0;

//---------------dance-single - ----------------
#NOTES:
     dance-single:
     :
     Beginner:
     1:
     :
0000
0000
0000
0000
,
0000
0000
0000
0000
,
0000
0000
0000
0000
,
0000
0000
0000
0000
,
0000
0000
0000
0000
,
0010
0000
0000
0000
,
0010
0000
0000
0000
,
0100
0000
0000
0000
,
0100
0000
0000
0000
,
1000
0000
1000
0000
,
1000
0000
0000
0000
,
0001
0000
0001
0000
,
0001
0000
0000
0000
,
0100
0000
0100
0000
,
0100
0000
0000
0000
,
0010
0000
0010
0000
,
0010
0000
0000
0000
,
1000
0000
1000
0000
,
1000
0000
0000
0000
,
0100
0000
0100
0000
,
0100
0000
0000
0000
,
0010
0000
0010
0000
,
0010
0000
0000
0000
,
0001
0000
1000
0000
,
0001
0000
1000
0000
,
1001
0000
0000
0000
,
0100
0000
0000
0000
,
1001
0000
0000
0000
,
0010
0000
0000
0000
,
0110
0000
0000
0000
,
0001
0000
0000
0000
,
0110
0000
0000
0000
,
1000
0000
0000
0000
,
1001
0000
0000
0000
,
0010
0000
0100
0000
,
0110
0000
0000
0000
,
1000
0000
0001
0000
,
1001
0000
0000
0000
,
0100
0000
0010
0000
,
0110
0000
0000
0000
,
0001
0000
1000
0000
,
1001
0000
0000
0000
,
0001
0000
0000
0000
,
0001
0000
0000
0000
,
1000
0000
0000
0000
,
1000
0000
0000
0000
,
0010
0000
0000
0000
,
0010
0000
0000
0000
,
0100
0000
0000
0000
,
1001
0000
0000
0000
;

//---------------dance-single - ----------------
#NOTES:
     dance-single:
     :
     Easy:
     4:
     :
0000
0000
0000
0000
,
0000
0000
0000
0000
,
0000
0000
0000
0000
,
0000
0000
0000
0000
,
0000
0000
0000
0000
,
1000
0000
0001
0000
,
0100
0000
0001
0000
,
1000
0000
0100
0000
,
1000
0000
0001
0000
,
1000
0010
0100
0000
,
0001
0010
0100
0000
,
1000
0010
1000
0000
,
0001
0010
0001
0000
,
0100
0001
0010
0000
,
0100
1000
0010
0000
,
0000
1000
0001
0001
,
1000
0100
2000
3002
,
0103
0010
0100
0000
,
0001
1000
0001
0000
,
1000
0001
0100
0000
,
0001
1000
0100
0000
,
1000
0001
0010
0000
,
0200
1300
0010
0000
,
0200
0301
1000
0001
,
0100
0010
0100
0010
,
2000
3000
0002
0003
,
1000
0001
1000
0001
,
0020
0030
0200
0300
,
0010
0100
0010
0100
,
2000
3000
0200
0300
,
1000
0100
1000
0100
,
0020
0000
0000
0000
,
0031
0010
0001
0010
,
0002
0003
0200
0300
,
0001
0100
0001
0100
,
0020
0030
2000
3000
,
0010
1000
0010
1000
,
0200
0300
0020
0030
,
0100
0010
0100
0010
,
0002
0000
0000
0003
,
2000
0000
0000
3000
,
1000
0100
0001
0000
,
0100
1000
0001
0000
,
1000
0010
0100
0000
,
0010
1000
0100
0000
,
0010
0001
0100
0000
,
0010
0100
0001
0000
,
0010
0100
1000
0000
,
0001
1000
0001
1000
,
2002
0000
0000
3003
;

//---------------dance-single - ----------------
#NOTES:
     dance-single:
     :
     Medium:
     6:
     :
0000
0000
0000
0000
,
0000
0000
0000
0000
,
0000
0000
0000
0000
,
0000
0000
0000
0000
,
0000
0000
0000
0000
,
1000
0000
0001
1000
0000
0000
0001
0000
,
1000
0000
0001
1000
0000
0000
0001
0000
,
0100
0000
0010
0100
0000
0000
0010
0000
,
0100
0000
0010
0100
0000
0000
0010
0000
,
1000
0000
0100
2000
0000
0000
3010
0000
,
0100
0000
0001
0200
0000
0000
0301
0000
,
0010
0000
0100
0020
0000
0000
0031
0000
,
0100
0000
0010
0200
0000
0000
0301
0000
,
0200
0000
0301
1000
0000
1000
0001
0000
,
0020
0000
0130
1000
0000
1000
0100
0000
,
0020
0000
0031
0100
0000
0100
0001
0000
,
1000
0000
0010
1000
0002
0000
2003
0000
,
3001
0000
0001
0010
0000
0010
0100
0000
,
0100
0000
0100
1000
0000
1000
0010
0000
,
0010
0000
0010
0100
0000
0100
0001
0000
,
0001
0000
0001
1000
0000
1000
0100
0000
,
0000
0001
0010
0100
2000
0000
0000
3001
,
0000
1000
0010
0100
0002
0000
0000
1003
,
0000
1001
0110
1001
,
0100
0001
0010
0100
1000
0000
0010
0000
,
0101
0000
0000
1100
0000
0000
1000
0000
,
0010
0100
0001
0010
,
0110
0000
0000
1001
0000
0000
0001
0000
,
0010
0100
1000
0010
,
0110
0000
0000
1001
0000
0000
0010
0000
,
0100
0001
1000
0100
,
0220
0000
0000
0000
0000
0330
0000
1001
,
0000
0010
0100
0010
0100
0000
1000
0000
,
1010
0000
0000
0011
0000
0000
0001
0000
,
0100
0010
1000
0100
,
0110
0000
0000
1001
0000
0000
1000
0000
,
0100
0010
0001
0100
,
0110
0000
0000
1001
0000
0000
0100
0000
,
0010
1000
0001
0010
,
0022
0000
0000
0000
0000
0033
0000
2200
,
0000
0000
0000
0000
0000
3300
0000
0000
,
0000
0001
1000
0001
1000
0010
0000
0100
,
0000
0010
0100
0010
0100
0001
0000
1000
,
0000
0100
1000
0100
1000
0010
0000
0100
,
0000
0001
0100
0001
0100
0010
0000
1000
,
0000
0001
1000
0001
1000
0010
0000
0100
,
0000
0001
0010
0001
0010
0100
0000
1000
,
0000
0000
0010
1000
0100
0000
0010
0001
,
0100
0000
1000
0100
0001
0000
1000
0000
,
2002
0000
0000
3003
;

//---------------dance-single - ----------------
#NOTES:
     dance-single:
     :
     Hard:
     7:
     :
0000
0000
0000
0000
,
0000
0000
0000
0000
,
0000
0000
0000
0000
,
0000
0000
0000
0000
,
0000
0000
0000
0000
,
1000
0000
0100
0010
0000
0100
1000
0000
,
0001
0000
0100
0010
0000
0100
0001
0000
,
0010
0000
0100
1000
0000
0100
0010
0000
,
0100
0000
1000
0001
0000
1000
0100
0000
,
0000
0000
0001
0000
1000
0001
1000
0000
0001
0000
0000
0010
0000
0000
0100
0000
,
0000
0000
1000
0000
0001
1000
0001
0000
1000
0000
0000
0010
0000
0000
0100
0000
,
0000
0000
0001
0000
0100
0001
0100
0000
0001
0000
0000
0010
0000
0000
0100
0000
,
0000
0000
1000
0000
0100
1000
0100
0000
1000
0000
0000
0010
0000
0000
0100
0000
,
0000
0000
0001
0000
0010
0001
0010
0000
0001
0000
0000
0100
0000
0000
0010
0000
,
0000
0000
1000
0000
0010
1000
0010
0000
1000
0000
0000
0100
0000
0000
0010
0000
,
0000
0010
0001
1000
0001
0100
0001
1000
,
0010
1000
0001
1000
0200
0000
0320
0000
,
0030
0000
0001
0000
1000
0001
1000
0000
0100
0000
0000
0010
0000
0000
0001
0000
,
0000
0000
1000
0000
0001
1000
0001
0000
0100
0000
0000
0010
0000
0000
1000
0000
,
0000
0000
0100
0000
1000
0100
1000
0000
0010
0000
0000
0100
0000
0000
0001
0000
,
0000
0000
0100
0000
0001
0100
0001
0000
0010
0000
0000
0100
0000
0000
1000
0000
,
0000
0001
1000
0001
0020
0000
0000
0130
,
0000
1000
0001
1000
0020
0000
0000
0130
,
0000
0001
0010
0100
1000
0001
1000
0010
,
0100
0001
1000
0010
0110
0000
1001
0000
,
2000
0000
3000
0002
0000
0013
0100
1000
,
0000
0010
0100
0001
0101
0000
1010
0000
,
0200
0000
0300
0020
0000
0031
0100
0010
,
0000
1000
0100
0010
0110
0000
0011
0000
,
2000
0000
3000
0002
0000
1003
0100
0001
,
0000
1000
0010
0001
0011
0000
1100
0000
,
0020
0000
0000
0000
0000
0000
0000
0130
,
0000
0001
0100
0010
1010
0000
0101
0000
,
0001
1000
0100
1000
0001
0100
0001
0000
,
1000
0001
0100
0001
1000
0100
1000
0000
,
0010
0100
0010
1000
0100
0010
0001
0000
,
0010
0100
0010
0001
0100
0010
1000
0000
,
0100
0010
0001
1000
0001
0100
0010
0000
,
0100
0010
1000
0001
1000
0100
0010
0000
,
0002
0000
0000
0000
0000
0000
0003
2000
,
0000
0000
0000
3000
,
0000
0000
0010
0000
0100
0001
0100
0000
0010
0000
0000
1000
0000
0000
0100
0000
,
0000
0000
0010
0000
0100
1000
0100
0000
0010
0000
0000
0001
0000
0000
0100
0000
,
0000
0000
0010
0000
1000
0100
1000
0000
0001
0000
0000
0010
0000
0000
1000
0000
,
0000
0000
0010
0000
0001
0100
0001
0000
1000
0000
0000
0010
0000
0000
0001
0000
,
0000
0000
0010
0000
1000
0001
1000
0000
0100
0000
0000
0010
0000
0000
1000
0000
,
0000
0000
0010
0000
0001
1000
0001
0000
0100
0000
0000
0010
0000
0000
0001
0000
,
0000
0000
0010
1000
0010
0100
0001
0010
,
0100
1000
0010
0100
0001
1000
0001
0000
,
2002
0000
0000
3003
;

//---------------dance-double - ----------------
#NOTES:
     dance-double:
     :
     Easy:
     4:
     :
00000000
00000000
00000000
00000000
,
00000000
00000000
00000000
00000000
,
00000000
00000000
00000000
00000000
,
00000000
00000000
00000000
00000000
,
00000000
00000000
00000000
00000000
,
10000000
00000000
01000000
00000000
,
00010000
00000000
00001000
00000000
,
00000010
00000000
00000001
00000000
,
00000100
00000000
00001000
00000000
,
00020000
00000000
00031000
00000000
,
02000000
00000000
03010000
00000000
,
20000000
00000000
31000000
00000000
,
00200000
00000000
00310000
00000000
,
00002000
00000000
00013000
00000000
,
00000200
00000000
00001300
00000000
,
00000002
00000000
00000103
00000000
,
00000020
00000000
00001030
00000000
,
00020000
00030000
00002000
00003000
,
00200000
00300000
00020000
00030000
,
20000000
30000000
02000000
03000000
,
00020000
00030000
00002000
00003000
,
00000200
00000300
00000002
00000003
,
00000020
00000030
00002000
00003000
,
00020000
00030000
00200000
00300000
,
01000000
00100000
01000000
00100000
,
20000000
00000000
32000000
03000000
,
00100000
00010000
00100000
00010000
,
00200000
00000000
00302000
00003000
,
00010000
00001000
00010000
00001000
,
00020000
00000000
00030200
00000300
,
00001000
00000100
00001000
00000100
,
00000020
00000000
00000000
00000000
,
00000031
00001000
00000001
00001000
,
00000020
00000000
00000230
00000300
,
00000010
00001000
00000010
00001000
,
00000200
00000000
00020300
00030000
,
00001000
00010000
00001000
00010000
,
00002000
00000000
00203000
00300000
,
00010000
00100000
00010000
00100000
,
02000000
00000000
00000000
03000000
,
00200000
00000000
00000000
00300000
,
10000000
01000000
10000000
00000000
,
00100000
00010000
00100000
00000000
,
00001000
00010000
00001000
00000000
,
00000010
00001000
00000010
00000000
,
00000100
00000001
00000100
00000000
,
00001000
00000100
00001000
00000000
,
00010000
00001000
00010000
00000000
,
00100000
00010000
00100000
00000000
,
10010000
00000000
00000000
00000000
;

//---------------dance-double - ----------------
#NOTES:
     dance-double:
     :
     Medium:
     6:
     :
00000000
00000000
00000000
00000000
,
00000000
00000000
00000000
00000000
,
00000000
00000000
00000000
00000000
,
00000000
00000000
00000000
00000000
,
00000000
00000000
00000000
00000000
,
00001000
00000000
00010000
00001000
00000000
00000000
00010000
00000000
,
00001000
00000000
00010000
00001000
00000000
00000000
00100000
00000000
,
01000000
00000000
00100000
01000000
00000000
00000000
00100000
00000000
,
01000000
00000000
00100000
01000000
00000000
00000000
00100000
00000000
,
00010000
00000000
10000000
02000000
00000000
00000000
03100000
00000000
,
01000000
00000000
00010000
00002000
00000000
00000000
00013000
00000000
,
00001000
00000000
00000100
00000020
00000000
00000000
00001030
00000000
,
00000001
00000000
00000100
00002000
00000000
00000000
00013000
00000000
,
00002000
00000000
00013000
00001000
00000000
00010000
00001000
00000000
,
00200000
00000000
00310000
00100000
00000000
00010000
00100000
00000000
,
02000000
00000000
13000000
01000000
00000000
10000000
01000000
00000000
,
00100000
00000000
00001000
00010000
00002000
00000000
00023000
00000000
,
00031000
00000000
00001000
00000010
00000000
00000010
00000001
00000000
,
00000001
00000000
00000001
00000100
00000000
00000100
00001000
00000000
,
00001000
00000000
00001000
00010000
00000000
00010000
01000000
00000000
,
01000000
00000000
01000000
10000000
00000000
10000000
00100000
00000000
,
01000000
00010000
00100000
00001000
00020000
00000000
00000000
00031000
,
00000000
00010000
00000100
00001000
00000020
00000000
00000000
00001030
,
00000000
00000101
00001001
00001100
,
00000100
00010000
00001000
00100000
00010000
01000000
00100000
00000000
,
01100000
00000000
00000000
10010000
00000000
00000000
00010000
00000000
,
00100000
01000000
10000000
00100000
,
01100000
00000000
00000000
10010000
00000000
00000000
10000000
00000000
,
01000000
00010000
00001000
00000100
,
00000101
00000000
00000000
00001010
00000000
00000000
00000001
00000000
,
00000100
00000010
00001000
00000100
,
00002200
00000000
00000000
00000000
00003300
00000000
00000000
00010100
,
00000000
00010000
00001000
00010000
00001000
00000000
00100000
00000000
,
00110000
00000000
00000000
11000000
00000000
00000000
10000000
00000000
,
01000000
00100000
00010000
01000000
,
01100000
00000000
00000000
10010000
00000000
00000000
00100000
00000000
,
00010000
00001000
00000100
00000010
,
00001010
00000000
00000000
00000101
00000000
00000000
00000001
00000000
,
00000010
00000100
00001000
00000010
,
00002020
00000000
00000000
00000000
00000000
00003030
00000000
00020200
,
00000000
00000000
00000000
00000000
00000000
00030300
00000000
00000000
,
00000000
00010000
00001000
00010000
00001000
00100000
00000000
00010000
,
00000000
00100000
00010000
00100000
00010000
10000000
00000000
00100000
,
00000000
01000000
00100000
01000000
00100000
00010000
00000000
00001000
,
00000000
00010000
00001000
00010000
00001000
00000100
00000000
00000010
,
00000000
00000100
00000001
00000100
00000001
00000010
00000000
00001000
,
00000000
00010000
00001000
00010000
00001000
00010000
00000000
00001000
,
00000000
00000000
00010000
00001000
01000000
00000000
00001000
00010000
,
00000100
00000000
00010000
00001000
00010000
00000000
00001000
00000000
,
00022000
00000000
00000000
00033000
;

//---------------dance-double - ----------------
#NOTES:
     dance-double:
     :
     Hard:
     7:
     :
00000000
00000000
00000000
00000000
,
00000000
00000000
00000000
00000000
,
00000000
00000000
00000000
00000000
,
00000000
00000000
00000000
00000000
,
00000000
00000000
00000000
00000000
,
00010000
00000000
00001000
00100000
00000000
00001000
00010000
00000000
,
00001000
00000000
00010000
00000100
00000000
00010000
00001000
00000000
,
00100000
00000000
00010000
01000000
00000000
00001000
00010000
00000000
,
00000010
00000000
00001000
00000100
00000000
00010000
00001000
00000000
,
00000000
00000000
00100000
00000000
00010000
10000000
00010000
00000000
01000000
00000000
00000000
00100000
00000000
00000000
10000000
00000000
,
00000000
00000000
00100000
00000000
10000000
00010000
10000000
00000000
01000000
00000000
00000000
00100000
00000000
00000000
00010000
00000000
,
00000000
00000000
10000000
00000000
00010000
01000000
00010000
00000000
00100000
00000000
00000000
00001000
00000000
00000000
00010000
00000000
,
00000000
00000000
00000010
00000000
00001000
00000001
00001000
00000000
00000100
00000000
00000000
00000010
00000000
00000000
00000001
00000000
,
00000000
00000000
00000010
00000000
00000001
00001000
00000001
00000000
00000100
00000000
00000000
00000010
00000000
00000000
00001000
00000000
,
00000000
00000000
00000001
00000000
00001000
00000100
00001000
00000000
00000010
00000000
00000000
00010000
00000000
00000000
00001000
00000000
,
00000000
00100000
00010000
01000000
00010000
00100000
00001000
00010000
,
00000100
00001000
00000010
00001000
00000200
00000000
00000320
00000000
,
00000030
00000000
00000001
00000000
00000100
00000001
00000100
00000000
00000010
00000000
00000000
00001000
00000000
00000000
00000100
00000000
,
00000000
00000000
00001000
00000000
00000001
00000100
00000001
00000000
00000010
00000000
00000000
00000100
00000000
00000000
00001000
00000000
,
00000000
00000000
00000100
00000000
00000010
00000001
00000010
00000000
00000001
00000000
00000000
00000100
00000000
00000000
00001000
00000000
,
00000000
00000000
00000100
00000000
00000010
00001000
00000010
00000000
00000100
00000000
00000000
00001000
00000000
00000000
00010000
00000000
,
00000000
00001000
00010000
00001000
00000020
00000000
00000000
00001030
,
00000000
00010000
00001000
00010000
00200000
00000000
00000000
00310000
,
00000000
00001000
00010000
00000100
00010000
00001000
01000000
00001000
,
00010000
00000010
00010000
00001000
00101000
00000000
00110000
00000000
,
00020000
00000000
00030000
00200000
00000000
01300000
10000000
00100000
,
00000000
00010000
00001000
00000100
00001100
00000000
00000101
00000000
,
00002000
00000000
00003000
00000200
00000000
00000310
00001000
00010000
,
00000000
00001000
00010000
01000000
01010000
00000000
11000000
00000000
,
00200000
00000000
00300000
02000000
00000000
13000000
01000000
00010000
,
00000000
01000000
00010000
00001000
00011000
00000000
00010100
00000000
,
00000200
00000000
00000000
00000000
00000000
00000000
00000000
00000310
,
00000000
00000001
00000100
00000010
00001001
00000000
00000110
00000000
,
00000001
00000010
00000001
00001000
00000100
00001000
00000010
00000000
,
00001000
00000010
00001000
00000100
00010000
00001000
00010000
00000000
,
00001000
00010000
00001000
00100000
00010000
00100000
01000000
00000000
,
10000000
01000000
10000000
00010000
01000000
00010000
00100000
00000000
,
00010000
00100000
00010000
01000000
00001000
00010000
00001000
00000000
,
00010000
00001000
00010000
00000010
00001000
00000010
00000100
00000000
,
00002000
00000000
00000000
00000000
00000000
00003000
00000000
00020000
,
00000000
00000000
00000000
00030000
,
00000000
00000000
00001000
00000000
00000100
00000001
00000100
00000000
00000010
00000000
00000000
00001000
00000000
00000000
00000001
00000000
,
00000000
00000000
00000010
00000000
00000100
00001000
00000100
00000000
00000010
00000000
00000000
00000001
00000000
00000000
00001000
00000000
,
00000000
00000000
00000010
00000000
00000100
00001000
00000100
00000000
00001000
00000000
00000000
00010000
00000000
00000000
00001000
00000000
,
00000000
00000000
00010000
00000000
00100000
10000000
00100000
00000000
01000000
00000000
00000000
00010000
00000000
00000000
10000000
00000000
,
00000000
00000000
01000000
00000000
00100000
00010000
00100000
00000000
01000000
00000000
00000000
10000000
00000000
00000000
00010000
00000000
,
00000000
00000000
01000000
00000000
00100000
00010000
00100000
00000000
00010000
00000000
00000000
00001000
00000000
00000000
00000100
00000000
,
00000000
00000000
00000010
00001000
00000100
00000010
00000100
00010000
,
00001000
01000000
00100000
01000000
00010000
00100000
01000000
00000000
,
20020000
00000000
00000000
30030000
;
