
//----- song ID: dizz -----//
#TITLE:Dizzy;
#ARTIST:Vic Reeves & The Wonder Stuff;
#BANNER:Dizzy.png;
#BACKGROUND:Dizzy-bg.png;
#CDTITLE:./CDTITLES/Dancing Stage Max.png;
#MUSIC:Dizzy.ogg;
#SAMPLESTART:16.887;
#SAMPLELENGTH:15;
#DISPLAYBPM:114;
#BPMS:0=113.7;
#BGCHANGES:10.25=Dizzy.avi=1=1=0=0;

//---------------dance-single - ----------------
#NOTES:
     dance-single:
     :
     Beginner:
     1:
     :
0000
0000
0000
0000
,
0000
0000
0000
0000
,
0000
0000
0000
0000
,
0000
0000
0000
0000
,
0001
0000
0000
0000
,
0001
0000
0000
0000
,
1000
0000
1000
0000
,
0001
0000
0001
0000
,
1000
1000
0000
0000
,
1000
0000
1000
0000
,
0001
0001
0000
0000
,
0001
0000
0001
0000
,
0100
0100
0000
0000
,
0100
0000
0100
0000
,
0010
0010
0000
0000
,
0010
0000
0010
0000
,
1000
1000
0000
0000
,
1000
0000
1000
0000
,
0001
0000
0000
0000
,
0010
0000
0000
0000
,
0100
0000
0000
0000
,
1000
0000
0000
0000
,
0001
0000
0000
0000
,
0100
0000
0000
0000
,
0010
0000
0000
0000
,
1000
0000
0000
0000
,
0001
0000
0001
0000
,
0001
0000
0001
0000
,
1000
0000
1000
0000
,
1000
1000
1000
0000
,
0001
0000
0000
0000
,
0010
0000
0000
0000
,
0100
0100
0000
0000
,
1000
0000
0000
0000
,
0001
0001
0000
0000
,
0100
0000
0000
0000
,
0010
0010
0000
0000
,
1000
0000
0000
0000
,
0001
0001
0000
0000
,
0001
0000
0001
0000
,
1000
1000
0000
0000
,
1000
0000
1000
0000
,
0100
0000
0000
0000
;

//---------------dance-single - ----------------
#NOTES:
     dance-single:
     :
     Easy:
     3:
     :
0000
0000
0000
0000
,
0000
0000
0000
0000
,
0000
0000
0000
0000
,
0000
0000
0000
0000
,
2000
0000
0000
3000
,
0010
0010
0010
0010
,
0001
0000
1000
0000
,
0001
0000
1000
0000
,
1001
2002
3003
0000
,
0001
0000
0010
0000
,
0110
0220
0330
0000
,
0100
0000
1000
0000
,
1100
2200
3300
0000
,
1000
0000
0010
0000
,
1010
2020
3030
0000
,
0010
0000
0100
0000
,
0110
0220
0330
0000
,
0001
0001
1000
1000
,
0010
0100
0010
0000
,
0100
0001
0100
0000
,
0002
0003
2000
3000
,
0002
0003
2000
3000
,
0100
0010
0100
0000
,
1000
0100
1000
0000
,
0020
0030
0200
0300
,
0020
0030
0200
0300
,
0001
0100
0001
0100
,
0001
1000
0001
1000
,
0010
1000
0010
1000
,
0010
0010
0100
0000
,
1001
2002
3003
0000
,
1000
0000
0100
0000
,
0110
0220
0330
0000
,
0010
0000
0001
0000
,
0011
0022
0033
0000
,
0001
0000
0100
0000
,
0101
0202
0303
0000
,
0100
0000
0010
0000
,
0110
0220
0330
0000
,
0010
0010
0001
1000
,
0100
0100
0001
1000
,
0010
0010
0001
1000
,
1001
0000
0000
0000
;

//---------------dance-single - ----------------
#NOTES:
     dance-single:
     :
     Medium:
     5:
     :
0000
0000
0000
0000
,
0000
0000
0000
0000
,
0000
0000
0000
0000
,
0000
0000
0000
0000
,
0002
0000
0000
0003
,
0010
0000
0001
0000
1000
0000
0001
0100
,
0001
1000
0001
1000
,
0010
0100
0010
0100
,
0110
0000
0101
0000
0000
0100
0010
0000
,
2000
0000
3002
0000
0003
0010
0100
0000
,
0110
0000
1100
0000
0000
0100
0010
0000
,
0002
0000
2003
0000
3000
0010
0100
0000
,
0110
0000
1010
0000
0000
0010
0100
0000
,
0002
0000
2003
0000
3000
0100
0010
0000
,
0110
0000
0011
0000
0000
0010
0100
0000
,
2000
0000
3002
0000
0003
0100
0010
0000
,
0110
1001
0100
0100
,
0010
0010
0001
1000
,
0010
1000
0100
0000
1000
0000
0010
0000
,
0100
0001
0010
0000
0001
0000
0100
0000
,
0020
1030
0200
0310
,
0002
0103
2000
3100
,
0100
0001
0010
0000
0001
0000
0100
0000
,
0010
1000
0100
0000
1000
0000
0010
0000
,
0200
0301
0020
0130
,
2000
3010
0002
0013
,
1000
0100
1000
0000
1000
0100
1000
0000
,
0010
0001
0010
0000
0010
0001
0010
0000
,
0100
0010
0100
0000
0100
0010
0100
0000
,
1000
0001
1000
0001
1000
0001
1000
0000
,
0110
0000
1010
0000
0000
0010
0100
0000
,
0002
0000
2003
0000
3000
0100
0010
0000
,
0110
0000
0011
0000
0000
0010
0100
0000
,
2000
0000
3002
0000
0003
0100
0010
0000
,
0110
0000
0101
0000
0000
0100
0010
0000
,
2000
0000
3002
0000
0003
0010
0100
0000
,
0110
0000
1100
0000
0000
0100
0010
0000
,
0002
0000
2003
0000
3000
0010
0100
0000
,
0110
0000
1001
0000
1000
0100
0010
0000
,
0100
0000
1000
0000
0001
0100
0010
0000
,
0100
0000
0001
0000
0010
0100
0010
0000
,
0100
0000
1000
0000
0010
0100
0010
0000
,
1001
0000
0000
0000
;

//---------------dance-single - ----------------
#NOTES:
     dance-single:
     :
     Hard:
     6:
     :
0000
0000
0000
0000
,
0000
0000
0000
0000
,
0000
0000
0000
0000
,
0000
0000
0000
0000
0000
0000
0000
0000
0000
0000
0000
0000
0000
0000
0001
1000
,
0002
0000
0000
0003
,
1000
0000
0000
0010
0000
0000
0100
0000
0000
0001
0000
0000
0010
0000
0100
0000
,
1000
0000
0000
0000
0001
0000
0000
1000
0000
0100
0000
0000
1000
0000
0000
0000
,
0100
0000
0000
0000
0010
0000
0000
0001
0000
1000
0000
0000
0001
0000
0000
0000
,
1001
0000
0000
0000
1001
0000
0000
0001
0000
0200
0000
0000
0310
0000
0000
0000
,
1000
0001
2000
3010
,
0110
0000
0110
0000
0100
0010
0100
0002
,
0000
0003
2000
0000
3100
0000
0010
0001
,
0011
0000
0011
0000
0001
0010
0001
2000
,
0000
3000
0020
0000
0130
0000
0010
1000
,
1010
0000
1010
0000
0100
0001
0100
0020
,
0000
0030
1000
0001
0010
0100
0010
0000
,
0110
0000
0000
0000
0110
0000
0000
0100
0000
0010
0000
0000
0001
0000
0000
0000
,
0100
0000
0000
0000
0010
0000
0000
1000
0000
0100
0000
0000
0010
0000
0000
0000
,
0001
0100
0001
1000
0010
0100
0001
0000
,
1000
0100
1000
0001
0010
0100
1000
0000
,
0001
0000
0000
0000
1000
0000
0000
0010
0000
0100
0000
0000
0001
0000
0100
0000
,
0001
0000
0000
0000
0010
0000
0000
0100
0000
1000
0000
0000
0001
0000
0000
0000
,
1000
0010
1000
0001
0100
0010
1000
0000
,
0001
0010
0001
1000
0100
0010
0001
0000
,
1000
0000
0000
0000
0001
0000
0000
0010
0000
0100
0000
0000
1000
0000
0100
0000
,
1000
0000
0000
0000
0010
0000
0000
0100
0000
0001
0000
0000
1000
0000
0000
0000
,
1010
0000
0010
1000
0010
0000
0010
1000
,
1001
0000
0001
0010
0001
0000
0001
0010
,
0110
0000
0100
0001
0100
0000
0100
1000
,
0001
0100
1000
0100
0001
0010
1000
0000
,
0110
0000
0000
0000
1001
0000
0000
1000
0000
0020
0000
0000
0130
0000
0000
0000
,
0001
1000
0200
1300
,
0101
0000
0011
0000
0001
0010
0001
2000
,
0000
3000
0020
0000
0130
0000
0010
1000
,
1100
0000
1010
0000
0100
0001
0100
0020
,
0000
0030
2000
0000
3010
0000
1000
0001
,
1001
0000
0110
0000
0100
0010
0100
0010
,
0000
1000
0000
0001
1000
0001
1000
0000
,
1010
0000
0101
0000
0001
0100
0001
0000
,
1000
0010
1000
0000
0001
0010
0001
1000
,
0100
1000
0010
0000
0100
0001
0100
0000
,
1000
0100
1000
0000
0001
0010
0100
1000
,
1001
0000
0000
0000
;

//---------------dance-double - ----------------
#NOTES:
     dance-double:
     :
     Easy:
     3:
     :
00000000
00000000
00000000
00000000
,
00000000
00000000
00000000
00000000
,
00000000
00000000
00000000
00000000
,
00000000
00000000
00000000
00000000
,
00020000
00000000
00000000
00030000
,
00100000
10000000
01000000
00000000
,
00010000
00000000
00001000
00000000
,
00010000
00000000
00001000
00000000
,
00011000
00022000
00033000
00000000
,
00001000
00000000
00000010
00000000
,
00000110
00000220
00000330
00000000
,
00000100
00000000
00001000
00000000
,
00011000
00022000
00033000
00000000
,
00010000
00000000
01000000
00000000
,
11000000
22000000
33000000
00000000
,
10000000
00000000
00100000
00000000
,
01100000
02200000
03300000
00000000
,
00010000
00010000
00001000
00001000
,
00000010
00000100
00000010
00000000
,
00000001
00000100
00000001
00000000
,
00002000
00003000
00000200
00000300
,
00002000
00003000
00000200
00000300
,
00010000
00001000
00010000
00000000
,
00001000
00100000
00001000
00000000
,
00200000
00300000
00020000
00030000
,
00200000
00300000
00020000
00030000
,
10000000
00100000
10000000
00100000
,
01000000
00010000
01000000
00010000
,
00100000
00001000
00100000
00001000
,
00100000
00001000
00010000
00000100
,
00001100
00002200
00003300
00000000
,
00001000
00000000
00000001
00000000
,
00000101
00000202
00000303
00000000
,
00000100
00000000
00001000
00000000
,
00011000
00022000
00033000
00000000
,
00010000
00000000
01000000
00000000
,
01010000
02020000
03030000
00000000
,
01000000
00000000
10000000
00000000
,
11000000
22000000
00000000
33000000
,
00100000
00000000
01000000
00100000
,
00010000
00000000
00100000
00001000
,
00010000
00000000
00000100
00010000
,
00011000
00000000
00000000
00000000
;

//---------------dance-double - ----------------
#NOTES:
     dance-double:
     :
     Medium:
     5:
     :
00000000
00000000
00000000
00000000
,
00000000
00000000
00000000
00000000
,
00000000
00000000
00000000
00000000
,
00000000
00000000
00000000
00000000
,
20000000
00000000
00000000
30000000
,
00010000
00000000
01000000
00000000
00100000
00000000
00010000
00001000
,
00010000
00001000
00010000
00001000
,
00100000
00010000
00100000
00010000
,
00110000
00000000
01100000
00000000
00000000
01000000
00100000
00000000
,
00020000
00000000
20030000
00000000
30000000
00100000
01000000
00000000
,
01100000
00000000
01010000
00000000
00000000
00001000
00010000
00000000
,
00002000
00000000
00023000
00000000
00030000
00001000
00000100
00000000
,
00000110
00000000
00000101
00000000
00000000
00000100
00000010
00000000
,
00002000
00000000
00003002
00000000
00000003
00000010
00000100
00000000
,
00001100
00000000
00010100
00000000
00000000
00010000
00001000
00000000
,
02000000
00000000
03020000
00000000
00030000
10000000
00100000
00000000
,
10100000
01010000
00010000
00100000
,
01000000
00010000
00001000
00010000
,
00000100
00001000
00000010
00000000
00001000
00000000
00000100
00000000
,
00000010
00000001
00000100
00000000
00000001
00000000
00000010
00000000
,
00000200
00001300
00000020
00000130
,
00002000
00013000
02000000
13000000
,
00100000
10000000
01000000
00000000
10000000
00000000
00100000
00000000
,
01000000
00010000
00100000
00000000
00010000
00000000
01000000
00000000
,
00200000
10300000
02000000
03010000
,
00002000
00013000
00000200
00001300
,
00000010
00000000
00001000
00000000
00000001
00000100
00000001
00000000
,
00000010
00001000
00010000
00100000
,
10000000
00000000
01000000
00000000
00100000
00010000
00100000
00000000
,
00001000
00010000
00001000
00010000
00000100
00001000
00000100
00000000
,
00010100
00000000
00001100
00000000
00000000
00001000
00000010
00000000
,
00002000
00000000
00003002
00000000
00000003
00000100
00000010
00000000
,
00000110
00000000
00001010
00000000
00000000
00010000
00001000
00000000
,
00020000
00000000
00032000
00000000
00003000
00010000
00100000
00000000
,
01100000
00000000
10100000
00000000
00000000
00100000
01000000
00000000
,
00020000
00000000
20030000
00000000
30000000
01000000
00100000
00000000
,
00110000
00000000
00101000
00000000
00000000
00001000
00010000
00000000
,
00000020
00000000
00002030
00000000
00003000
00000001
00000100
00000000
,
00000101
00000000
00001010
00000000
00000010
00000100
00001000
00000000
,
00010000
00000000
01000000
00000000
10000000
01000000
00100000
00000000
,
00010000
00000000
01000000
00000000
00100000
00010000
00001000
00000000
,
00010000
00000000
00001000
00000000
00010000
00001000
00010000
00000000
,
00011000
00000000
00000000
00000000
;

//---------------dance-double - ----------------
#NOTES:
     dance-double:
     :
     Hard:
     6:
     :
00000000
00000000
00000000
00000000
,
00000000
00000000
00000000
00000000
,
00000000
00000000
00000000
00000000
,
00000000
00000000
00000000
00000000
00000000
00000000
00000000
00000000
00000000
00000000
00000000
00000000
00000000
00000000
00000001
00001000
,
00000002
00000000
00000000
00000003
,
00000010
00000000
00000000
00000001
00000000
00000000
00000100
00000000
00000000
00001000
00000000
00000000
00010000
00000000
00001000
00000000
,
00010000
00000000
00000000
00000000
00001000
00000000
00000000
00100000
00000000
00010000
00000000
00000000
10000000
00000000
00000000
00000000
,
00010000
00000000
00000000
00000000
01000000
00000000
00000000
00001000
00000000
00010000
00000000
00000000
00001000
00000000
00000000
00000000
,
00101000
00000000
00000000
00000000
00010100
00000000
00000000
00000100
00000000
00002000
00000000
00000000
00003010
00000000
00000000
00000000
,
00000100
00000001
00002000
00003100
,
00001100
00000000
00010100
00000000
00010000
00001000
00100000
00020000
,
00000000
00030000
20000000
00000000
31000000
00000000
10000000
00010000
,
10010000
00000000
00110000
00000000
00010000
01000000
00010000
00200000
,
00000000
00300000
00002000
00000000
00013000
00000000
00001000
00010000
,
00011000
00000000
00010100
00000000
00000100
00001000
00000001
00000020
,
00000000
00000030
00001000
00010000
00100000
01000000
00010000
00000000
,
01010000
00000000
00000000
00000000
10010000
00000000
00000000
10000000
00000000
01000000
00000000
00000000
00010000
00000000
00000000
00000000
,
00001000
00000000
00000000
00000000
00000100
00000000
00000000
00000001
00000000
00000010
00000000
00000000
00000100
00000000
00000000
00000000
,
00001000
00000100
00010000
00001000
00010000
00000100
00001000
00000000
,
00000100
00010000
00001000
00100000
00010000
01000000
00100000
00000000
,
10000000
00000000
00000000
00000000
00010000
00000000
00000000
00100000
00000000
01000000
00000000
00000000
10000000
00000000
01000000
00000000
,
10000000
00000000
00000000
00000000
00100000
00000000
00000000
01000000
00000000
00010000
00000000
00000000
10000000
00000000
00000000
00000000
,
00010000
01000000
00001000
00010000
00001000
01000000
00010000
00000000
,
01000000
00001000
00010000
00000010
00001000
00000100
00000010
00000000
,
00000001
00000000
00000000
00000000
00001000
00000000
00000000
00000010
00000000
00000100
00000000
00000000
00000001
00000000
00000100
00000000
,
00000001
00000000
00000000
00000000
00000010
00000000
00000000
00000100
00000000
00001000
00000000
00000000
00000001
00000000
00000020
00000000
,
00000100
00000000
00000100
00000000
00000130
00000000
00000100
00020000
,
00001000
00000000
00001000
00000000
00031000
00000000
00001000
00200000
,
00010000
00000000
00010000
00000000
00310000
00000000
00010000
10000000
,
00010000
01000000
00001000
00010000
00100000
10000000
01000000
00000000
,
01100000
00000000
00000000
00000000
00110000
00000000
00000000
00100000
00000000
00020000
00000000
00000000
01030000
00000000
00000000
00000000
,
00100000
10000000
00020000
00130000
,
00110000
00000000
00101000
00000000
00001000
00010000
00000100
00002000
,
00000000
00003000
00000002
00000000
00000013
00000000
00000001
00001000
,
00001001
00000000
00001100
00000000
00001000
00000010
00001000
00000200
,
00000000
00000300
00020000
00000000
00031000
00000000
00010000
00001000
,
00011000
00000000
00101000
00000000
00100000
00010000
10000000
02000000
,
00000000
03010000
00000000
00001000
00000100
00000010
00001000
00000000
,
00001010
00000000
00001100
00000000
00000010
00000001
00000100
00000000
,
00001000
00010000
00100000
00000000
01000000
00100000
10000000
01000000
,
00010000
00001000
00000100
00000000
00000010
00000100
00001000
00000000
,
00010000
00001000
00100000
00000000
00010000
01000000
00100000
10000000
,
10010000
00000000
00000000
00000000
;
