
//----- song ID: chai -----//
#TITLE:Chain Reaction;
#ARTIST:Steps;
#BANNER:Chain Reaction.png;
#BACKGROUND:Chain Reaction-bg.png;
#CDTITLE:./CDTITLES/Dancing Stage Max.png;
#MUSIC:Chain Reaction.ogg;
#SAMPLESTART:52.557;
#SAMPLELENGTH:15;
#DISPLAYBPM:128;
#BPMS:0=127.86;
#BGCHANGES:6.5=Chain Reaction.avi=1=0=0=0;

//---------------dance-single - ----------------
#NOTES:
     dance-single:
     :
     Beginner:
     1:
     :
0000
0000
0000
0000
,
0000
0000
0000
0000
,
1000
0000
0000
0010
,
0010
0000
0000
0100
,
0100
0000
0000
0001
,
0001
0000
0000
0000
,
0000
1000
1000
0000
,
0000
0001
0001
0000
,
0000
1001
2002
0000
,
0000
3003
0000
0000
,
1000
0000
0000
0000
,
0001
0000
0000
0000
,
0100
0000
0100
0000
,
0001
0001
0001
0000
,
1000
0000
1000
0000
,
0100
0100
0100
0000
,
0010
0000
0010
0000
,
0001
0000
0001
0000
,
1000
0000
0001
0000
,
1001
0000
0000
0000
,
0010
0000
0001
0000
,
0010
0010
0010
0000
,
0001
0000
1000
0000
,
0001
0000
1000
0000
,
0100
0000
1000
0000
,
0001
0000
0100
0000
,
0001
0001
0000
0000
,
1001
0000
0000
0000
,
0010
0000
1000
0000
,
0001
0001
0001
0000
,
0100
0000
0100
0000
,
0001
0000
1000
0000
,
0010
0000
0100
0000
,
0001
0000
0001
0000
,
1000
0000
0001
0001
,
0002
0000
0000
0003
,
0001
0000
1000
0000
,
0100
0100
0100
0000
,
1000
0000
0010
0000
,
0010
0000
0100
0000
,
0100
0000
0001
0000
,
0001
0000
1000
0000
,
1000
0000
0001
0000
,
1000
0000
0100
0100
,
0200
0000
0000
0300
,
0100
0000
0010
0010
,
0020
0000
0000
0030
,
0000
0000
0001
0001
,
0002
0000
0000
0003
,
0001
0000
1000
1000
,
2000
0000
0000
3000
,
0000
0001
0002
0000
,
0000
0003
0000
0000
,
2002
0000
0000
3003
;

//---------------dance-single - ----------------
#NOTES:
     dance-single:
     :
     Easy:
     3:
     :
0000
0000
0000
0000
,
0000
0000
0000
0000
,
2000
0000
3000
1000
,
0002
0000
0003
0001
,
0020
0000
0030
0010
,
0200
0000
0000
0300
,
0000
0010
0100
0000
,
0000
0001
1000
0000
,
0000
1000
0200
0000
,
0000
0000
0000
0300
,
1000
0000
0001
0000
,
0010
0000
0100
0000
,
1000
1000
0001
0001
,
1000
0000
0100
0000
,
0010
0010
0100
0100
,
0010
0000
0001
0000
,
0100
0000
0001
0000
,
1000
0000
1000
0000
,
0001
0001
1000
1000
,
0001
0000
0000
0000
,
0001
0000
0010
0000
,
0001
1000
0100
0000
,
0010
0000
0100
0000
,
0001
0001
1000
0000
,
0100
0000
1000
0000
,
0010
0010
0100
0000
,
0010
0000
0100
0000
,
0001
0000
1000
0000
,
0100
0000
1000
0000
,
0001
1000
0001
1000
,
0001
0000
1000
0000
,
0010
0000
0100
0000
,
0001
0000
1000
0000
,
0100
0100
0010
0000
,
0100
0000
1000
0000
,
0001
0000
0000
0000
,
0100
0000
0010
0000
,
0001
1000
0001
1000
,
0001
0000
1000
0000
,
0001
0001
0010
0010
,
0001
0000
1000
0000
,
0010
0000
1000
0000
,
0001
0000
0100
0000
,
0001
0000
1000
0001
,
1000
0000
0010
0000
,
1000
0000
0001
1000
,
0002
0000
0000
0003
,
0000
0000
1000
0100
,
1000
0000
0010
0000
,
1000
0000
0001
0100
,
0001
0100
0100
0000
,
0000
1000
0020
0000
,
0000
0000
0000
0030
,
2002
0000
0000
0000
,
3003
0000
0000
0000
;

//---------------dance-single - ----------------
#NOTES:
     dance-single:
     :
     Medium:
     5:
     :
0000
0000
0000
0000
,
0000
0000
0000
0000
,
2000
0000
3000
0100
,
0002
0000
0003
0100
,
2000
0000
0000
3010
,
0200
0000
0000
0300
,
0000
1000
2002
0000
,
3003
0001
2002
0000
,
3003
0010
0220
0000
,
0000
0000
0000
0330
,
2000
3200
0320
0032
,
0203
0000
0300
0000
,
1000
1000
0001
0001
,
1000
0000
0000
0000
0000
0001
0000
0000
1000
0000
0000
0000
0000
0000
0000
0000
0002
0000
0000
0000
0000
0000
0000
0000
0003
0000
0000
0000
0000
0000
0000
0000
,
0010
0010
0100
0100
,
0010
0000
0000
0000
0000
0100
0000
0000
0010
0000
0000
0000
0000
0000
0000
0000
0200
0000
0000
0000
0000
0000
0000
0000
0300
0000
0000
0000
0000
0000
0000
0000
,
1000
1000
0001
0001
,
1000
1100
0100
0010
,
0001
0100
0010
0110
,
0001
0000
0000
0000
,
1000
0001
1000
0001
,
1000
0000
0000
0000
0000
0100
0000
0000
1000
0000
0000
0000
0000
0000
0000
0000
0001
0000
0000
0000
0000
0000
0000
0000
0001
0000
0000
0000
0000
0000
0000
0000
,
0100
0010
0100
0010
,
0100
0000
0000
0000
0000
0001
0000
0000
0100
0000
0000
0000
0000
0000
0000
0000
1000
0000
0000
0000
0000
0000
0000
0000
0100
0000
0000
0000
0000
0000
0000
0000
,
0001
1000
0001
1000
,
0001
0101
1000
1100
,
0002
0003
2000
3000
,
0001
1000
0200
0300
,
0010
0001
1000
0001
,
1000
0000
0000
0000
0000
0100
0000
0000
1000
0000
0000
0000
0000
0000
0000
0000
0100
0000
0000
0000
0000
0000
0000
0000
0010
0000
0000
0000
0000
0000
0000
0000
,
0001
1000
0001
0100
,
0020
0030
0200
0300
,
0001
1000
0001
1100
,
0010
0100
0100
0001
,
0010
0100
1000
0001
,
0200
0000
0300
0000
,
0010
1000
0010
0100
,
0001
0000
0000
0000
0000
0100
0000
0000
0001
0000
0000
0000
0000
0000
0000
0000
0100
0000
0000
0000
0000
0000
0000
0000
0010
0000
0000
0000
0000
0000
0000
0000
,
1000
0100
1000
0001
,
0200
0300
0020
0030
,
1000
0010
1000
0001
,
1000
0100
0010
0001
,
0010
0011
1000
1010
,
0101
0000
0000
0000
0000
0000
0000
0000
0000
0000
0000
0000
0000
0000
0000
0000
0010
0000
0000
0000
0000
1000
0000
0000
0010
0000
0000
0000
0000
0000
0000
0000
,
0200
0300
0002
0003
,
0020
0000
0000
0000
0000
0000
0000
0000
0030
0000
0000
0000
0000
0000
0000
0000
0001
0000
0000
0000
0000
0100
0000
0000
0001
0000
0000
0000
0000
0000
0000
0000
,
1000
0002
0000
0003
,
0000
0000
0000
0000
0000
0000
0000
0000
0000
0000
0000
0000
0000
0000
0000
0000
0010
0000
0000
0000
0000
0100
0000
0000
0010
0000
0000
0000
0000
0000
0000
0000
,
0200
0300
0020
0030
,
0200
0000
0000
0000
0000
0000
0000
0000
0300
0000
0000
0000
0000
0000
0000
0000
1000
0000
0000
0000
0000
0100
0000
0000
1000
0000
0000
0000
0000
0000
0000
0000
,
0001
0200
0000
0300
,
0000
0010
2002
0000
,
0000
0000
0000
3003
,
2000
3200
0320
0032
,
0203
0000
0300
0000
;

//---------------dance-single - ----------------
#NOTES:
     dance-single:
     :
     Hard:
     6:
     :
0000
0000
0000
0000
,
0000
0000
0000
0000
,
2002
3003
1000
0001
,
0200
0300
1000
0100
,
0220
0330
0001
1000
,
0200
0000
0300
1000
,
0001
1100
0202
0000
,
0303
0101
2200
0000
,
3300
0110
2002
0000
,
0000
0000
0000
3003
,
0010
0001
0100
0010
,
1000
0001
0100
0100
,
1000
0000
0000
0000
0000
1000
0000
0000
0001
0000
0000
0000
0000
0001
0000
0000
1000
0000
0000
0000
0000
1000
0000
0000
0010
0000
0000
0000
0000
0010
0000
0000
,
0100
0010
2000
3000
,
0001
0000
0000
0000
0000
0001
0000
0000
0010
0000
0000
0000
0000
0010
0000
0000
0001
0000
0000
0000
0000
0001
0000
0000
1000
0000
0000
0000
0000
1000
0000
0000
,
0010
0100
0002
0003
,
0010
0000
0000
0000
0000
0010
0000
0000
0001
0000
0000
0000
0000
0001
0000
0000
0010
0000
0000
0000
0000
0010
0000
0000
0100
0000
0000
0000
0000
1000
0000
0000
,
0000
0011
2200
3300
,
0000
1000
0010
0100
,
0002
0000
0000
0003
,
0010
0000
0000
0000
0000
0010
0000
0000
0100
0000
0000
0000
0000
0100
0000
0000
1000
0000
0000
0000
0000
1000
0000
0000
0100
0000
0000
0000
0000
0000
0000
0000
,
0010
0001
0100
0001
,
1000
0000
0000
0000
0000
1000
0000
0000
0010
0000
0000
0000
0000
0010
0000
0000
0100
0000
0000
0000
0000
0100
0000
0000
0001
0000
0000
0000
0000
0000
0000
0000
,
1000
0100
1000
0101
,
1000
0000
0000
0000
0000
1000
0000
0000
0100
0000
0000
0000
0000
0100
0000
0000
0001
0000
0000
0000
0000
0001
0000
0000
0100
0000
0000
0000
0000
0100
0000
0000
,
1000
0000
0000
0000
0000
0000
0000
0000
0010
0000
0000
0000
0000
0000
0000
0000
0100
0000
0000
0000
0000
0100
0000
0000
0001
0000
0000
0000
0000
0000
0000
0000
,
2000
0100
0001
3100
,
0002
1000
0100
0103
,
0001
0000
0000
0000
0000
1000
0000
0000
0100
0000
0000
0000
0000
0000
0000
0000
0001
0000
0000
0000
0000
1000
0000
0000
0100
0000
0000
0000
0000
0000
0000
0000
,
2000
0100
0001
3100
,
1000
0000
0000
0000
0000
0001
0000
0000
0100
0000
0000
0000
0000
0000
0000
0000
1000
0000
0000
0000
0000
0001
0000
0000
0100
0000
0000
0000
0000
0000
0000
0000
,
0002
0100
1000
1003
,
0001
0000
0000
0000
0000
1000
0000
0000
0100
0000
0000
0000
0000
0000
0000
0000
0001
0000
0000
0000
0000
1000
0000
0000
0100
0000
0000
0000
0000
0000
0000
0000
,
2000
0010
0001
3100
,
1000
1100
0001
0101
,
2002
3003
0000
0000
,
0010
0000
0000
0000
0000
0001
0000
0000
1000
0000
0000
0000
0000
0000
0000
0000
0010
0000
0000
0000
0000
0001
0000
0000
1000
0000
0000
0000
0000
0000
0000
0000
,
0002
0010
1000
0013
,
0100
0000
0000
0000
0000
1000
0000
0000
0001
0000
0000
0000
0000
0000
0000
0000
0100
0000
0000
0000
0000
1000
0000
0000
0001
0000
0000
0000
0000
0000
0000
0000
,
2000
0010
0001
3001
,
0100
0001
0010
1000
,
0100
0001
0020
0030
,
1001
0101
1001
1100
,
1001
0000
0000
0000
0000
0000
0000
0000
0000
0000
0000
0000
0000
0000
0000
0000
0001
0000
0000
0000
0000
0001
0000
0000
1000
0000
0000
0000
0000
0000
0000
0000
,
0100
1100
0001
0101
,
0010
0000
0000
0000
0000
0000
0000
0000
0100
0000
0000
0000
0000
0000
0000
0000
1000
0000
0000
0000
0000
1000
0000
0000
0001
0000
0000
0000
0000
0000
0000
0000
,
0100
0002
0000
2003
,
3000
0000
0000
0000
0000
0000
0000
0000
0100
0000
0000
0000
0000
0000
0000
0000
1000
0000
0000
0000
0000
1000
0000
0000
0001
0000
0000
0000
0000
0000
0000
0000
,
0010
0011
1000
1010
,
0100
0000
0000
0000
0000
0000
0000
0000
0010
0000
0000
0000
0000
0000
0000
0000
0001
0000
0000
0000
0000
0001
0000
0000
1000
0000
0000
0000
0000
0000
0000
0000
,
0100
2000
0000
3000
,
0000
0110
2002
0000
,
0000
0000
0000
3003
,
0010
0001
0100
0010
,
1000
0001
0100
0100
;

//---------------dance-double - ----------------
#NOTES:
     dance-double:
     :
     Easy:
     3:
     :
00000000
00000000
00000000
00000000
,
00000000
00000000
00000000
00000000
,
00000002
00000000
00000003
00000001
,
00002000
00000000
00003000
00001000
,
00000020
00000000
00000030
00000010
,
00000200
00000000
00000000
00000300
,
00000000
00001000
00020000
00000000
,
00030000
00010000
00002000
00000000
,
00003000
00010000
02000000
00000000
,
00000000
00000000
00000000
03000000
,
10000000
00000000
00010000
00000000
,
00200000
00000000
00300000
00000000
,
00010000
00010000
10000000
10000000
,
01000000
00000000
01000000
00000000
,
00010000
00010000
00001000
00001000
,
00010000
00000000
00001000
00000000
,
00000100
00000000
00000001
00000000
,
00000010
00000000
00000001
00000000
,
00001000
00001000
00000001
00000100
,
00002000
00000000
00003000
00000000
,
00010000
00000000
01000000
00000000
,
10000000
01000000
10000000
00000000
,
10000000
00000000
00100000
00000000
,
00010000
00010000
00001000
00000000
,
00010000
00000000
01000000
00000000
,
00010000
00010000
00001000
00000000
,
00000010
00000010
00001000
00001000
,
00020000
00000000
00030000
00000000
,
00001000
00000000
00000100
00000000
,
00000001
00000100
00000001
00000100
,
00000001
00000000
00001000
00000000
,
00000001
00000000
00000010
00000000
,
00001000
00000000
00010000
00000000
,
00100000
00100000
10000000
00000000
,
01000000
01000000
00100000
00100000
,
02000000
00000000
03000000
00000000
,
10000000
00000000
01000000
00000000
,
00010000
00001000
00010000
00001000
,
00010000
00000000
00001000
00000000
,
00000100
00000100
00000001
00000001
,
00001000
00000000
00000100
00000000
,
00010000
00000000
00001000
00000000
,
00000010
00000000
00000100
00000000
,
00010000
00000000
00001000
00010000
,
00002000
00003000
00002000
00003000
,
00010000
00000000
00010000
00010000
,
01000000
10000000
01000000
00000000
,
00000000
00000000
00100000
10000000
,
02000000
03000000
02000000
03000000
,
00010000
00000000
00001000
00001000
,
00010000
00001000
00000100
00000000
,
00000000
00000001
00000020
00000000
,
00000000
00000000
00000000
00000030
,
00001000
00010000
00001000
00010000
,
00001000
00000000
00000000
00000000
;

//---------------dance-double - ----------------
#NOTES:
     dance-double:
     :
     Medium:
     4:
     :
00000000
00000000
00000000
00000000
,
00000000
00000000
00000000
00000000
,
00020000
00000000
00030000
00001000
,
00000020
00000000
00000030
00001000
,
00020000
00000000
00030000
00100000
,
20000000
00000000
30000000
00000000
,
00000000
00010000
02020000
00000000
,
03030000
00001000
00022000
00000000
,
00033000
00000100
00002200
00000000
,
00000000
00000000
00000000
00003300
,
00001000
00000100
00000001
00000010
,
00002000
00000000
00003000
00000000
,
00010000
01000000
10000000
00100000
,
00010000
00000000
00000000
00000000
00000000
00000000
00000000
00000000
00001000
00000000
00000000
00000000
00000000
00010000
00000000
00000000
00001000
00000000
00000000
00000000
00000000
00000000
00000000
00000000
00000000
00000000
00000000
00000000
00000000
00000000
00000000
00000000
,
00001000
00000100
00001000
00010000
,
00100000
00000000
00000000
00000000
00000000
00000000
00000000
00000000
00010000
00000000
00000000
00000000
00000000
00001000
00000000
00000000
00010000
00000000
00000000
00000000
00000000
00000000
00000000
00000000
00000000
00000000
00000000
00000000
00000000
00000000
00000000
00000000
,
00001000
00010000
00000100
00001000
,
00000010
00000110
00000001
00000100
,
00001000
00010000
00000100
00010000
,
00022000
00033000
00000000
00000000
,
00001000
00000100
00001000
00011000
,
00010000
01000000
10000000
00100000
,
00010000
00001000
00000100
00000101
,
00000010
00001000
00010000
00011000
,
00000100
00001000
00010000
01000000
,
10000000
11000000
00010000
00011000
,
00000020
00000030
00000002
00000003
,
00000010
00000100
00001001
00000000
,
00001000
00001000
00000001
00000100
,
00001000
00000000
00000000
00000000
00000000
00010000
00000000
00000000
00001000
00000000
00000000
00000000
00000000
00000000
00000000
00000000
01000000
00000000
00000000
00000000
00000000
00000000
00000000
00000000
00010000
00000000
00000000
00000000
00000000
00000000
00000000
00000000
,
00100000
00010000
00100000
01000000
,
00010000
00001000
00000100
00001000
,
00020000
00030000
02000000
03000000
,
10000000
01000000
00010000
00001000
,
00010000
00001000
00000100
00000001
,
00000220
00000330
00000000
00000000
,
00001000
00010000
00000010
00000100
,
00000001
00000000
00000000
00000000
00000000
00000010
00000000
00000000
00000001
00000000
00000000
00000000
00000000
00000000
00000000
00000000
00000010
00000000
00000000
00000000
00000000
00000000
00000000
00000000
00000001
00000000
00000000
00000000
00000000
00000000
00000000
00000000
,
00000100
00001000
00010000
00001000
,
00022000
00033000
02002000
03003000
,
01000000
00010000
00100000
00001000
,
00010000
01000000
10000000
00010000
,
02000000
03000000
00020000
00030000
,
00200000
00000000
00000000
00000000
00000000
00000000
00000000
00000000
00300000
00000000
00000000
00000000
00000000
00000000
00000000
00000000
10000000
00000000
00000000
00000000
00000000
01000000
00000000
00000000
10000000
00000000
00000000
00000000
00000000
00000000
00000000
00000000
,
02000000
03000000
00020000
00030000
,
00002000
00000000
00000000
00000000
00000000
00000000
00000000
00000000
00003000
00000000
00000000
00000000
00000000
00000000
00000000
00000000
00010000
00000000
00000000
00000000
00000000
00001000
00000000
00000000
00010000
00000000
00000000
00000000
00000000
00000000
00000000
00000000
,
00001000
00000200
00000000
00000300
,
00000000
00000000
00000000
00000000
00000000
00000000
00000000
00000000
00000000
00000000
00000000
00000000
00000000
00000000
00000000
00000000
00000010
00000000
00000000
00000000
00000000
00001000
00000000
00000000
00000010
00000000
00000000
00000000
00000000
00000000
00000000
00000000
,
00000200
00000300
00000002
00000003
,
00000020
00000000
00000000
00000000
00000000
00000000
00000000
00000000
00000030
00000000
00000000
00000000
00000000
00000000
00000000
00000000
00000100
00000000
00000000
00000000
00000000
00001000
00000000
00000000
00000100
00000000
00000000
00000000
00000000
00000000
00000000
00000000
,
00010000
00002000
00000000
00003000
,
00000000
00010000
02020000
00000000
,
00000000
00000000
00000000
03030000
,
00010000
01000000
10000000
00100000
,
00020000
00000000
00030000
00000000
;

//---------------dance-double - ----------------
#NOTES:
     dance-double:
     :
     Hard:
     5:
     :
00000000
00000000
00000000
00000000
,
00000000
00000000
00000000
00000000
,
00022000
00033000
00100000
00010000
,
00002000
00003000
00000100
00000001
,
00002200
00003300
00010000
00001000
,
02000000
00000000
03000000
00000000
,
00010000
00100000
22000000
00000000
,
33000000
00100000
02020000
00000000
,
03030000
00011000
00002200
00000000
,
00000000
00000000
00000000
00003300
,
00000001
00000010
00001000
00010000
,
00100000
10000000
01000000
00000000
,
00010000
00000000
00000000
00000000
00000000
00100000
00000000
00000000
00010000
00000000
00000000
00000000
00000000
00000000
00000000
00000000
10000000
00000000
00000000
00000000
00000000
10000000
00000000
00000000
01000000
00000000
00000000
00000000
00000000
00000000
00000000
00000000
,
10000000
00010000
02000000
03000000
,
00001000
00000000
00000000
00000000
00000000
00010000
00000000
00000000
00001000
00000000
00000000
00000000
00000000
00000000
00000000
00000000
00010000
00000000
00000000
00000000
00000000
00010000
00000000
00000000
00001000
00000000
00000000
00000000
00000000
00000000
00000000
00000000
,
00000100
00000001
00000200
00000300
,
00001000
00000000
00000000
00000000
00000000
00000010
00000000
00000000
00001000
00000000
00000000
00000000
00000000
00000000
00000000
00000000
00000001
00000000
00000000
00000000
00000000
00000001
00000000
00000000
00000010
00000000
00000000
00000000
00000000
00000000
00000000
00000000
,
00001000
00010000
01000000
01000000
,
00010000
00001000
00001000
00010000
,
00022000
00033000
00000000
00000000
,
00010000
00000000
00000000
00000000
00000000
00010000
00000000
00000000
01000000
00000000
00000000
00000000
00000000
01000000
00000000
00000000
10000000
00000000
00000000
00000000
00000000
10000000
00000000
00000000
00100000
00000000
00000000
00000000
00000000
00000000
00000000
00000000
,
00010000
00001000
01000000
01000000
,
00100000
00000000
00000000
00000000
00000000
00100000
00000000
00000000
01000000
00000000
00000000
00000000
00000000
01000000
00000000
00000000
00001000
00000000
00000000
00000000
00000000
00001000
00000000
00000000
00010000
00000000
00000000
00000000
00000000
00000000
00000000
00000000
,
00001000
00000010
00000001
00001100
,
00000001
00000000
00000000
00000000
00000000
00000001
00000000
00000000
00000100
00000000
00000000
00000000
00000000
00000100
00000000
00000000
00001000
00000000
00000000
00000000
00000000
00001000
00000000
00000000
00010000
00000000
00000000
00000000
00000000
00000000
00000000
00000000
,
01000000
00000000
00000000
00000000
00000000
00000000
00000000
00000000
10000000
00000000
00000000
00000000
00000000
00000000
00000000
00000000
00010000
00000000
00000000
00000000
00000000
01000000
00000000
00000000
00010000
00000000
00000000
00000000
00000000
00000000
00000000
00000000
,
00200000
00001000
00010000
00301000
,
00000010
00000001
00000100
00001000
,
00010000
00000000
00000000
00000000
00000000
00000000
00000000
00000000
01000000
00000000
00000000
00000000
00000000
00000000
00000000
00000000
10000000
00000000
00000000
00000000
00000000
10000000
00000000
00000000
00100000
00000000
00000000
00000000
00000000
00100000
00000000
00000000
,
10000000
00010000
10000000
10010000
,
01000000
00000000
00000000
00000000
00000000
00000000
00000000
00000000
00010000
00000000
00000000
00000000
00000000
00000000
00000000
00000000
00001000
00000000
00000000
00000000
00000000
00001000
00000000
00000000
00010000
00000000
00000000
00000000
00000000
00010000
00000000
00000000
,
00001000
00010000
01000000
11000000
,
00100000
00000000
00000000
00000000
00000000
00000000
00000000
00000000
00010000
00000000
00000000
00000000
00000000
00000000
00000000
00000000
00001000
00000000
00000000
00000000
00000000
00001000
00000000
00000000
00010000
00000000
00000000
00000000
00000000
00000000
00000000
00000000
,
00001000
00000010
00000100
00011000
,
00002000
00003200
00000302
00000013
,
00002200
00003300
00000000
00000000
,
00001000
00000000
00000000
00000000
00000000
00000000
00000000
00000000
00000001
00000000
00000000
00000000
00000000
00000000
00000000
00000000
00000010
00000000
00000000
00000000
00000000
00000010
00000000
00000000
00001000
00000000
00000000
00000000
00000000
00001000
00000000
00000000
,
00010000
00100000
10000000
10010000
,
00100000
00000000
00000000
00000000
00000000
00000000
00000000
00000000
00010000
00000000
00000000
00000000
00000000
00000000
00000000
00000000
00000100
00000000
00000000
00000000
00000000
00000100
00000000
00000000
00010000
00000000
00000000
00000000
00000000
00010000
00000000
00000000
,
00001000
00001100
00000001
00000010
,
00001000
00011000
00010000
01010000
,
01000000
10000000
00100000
00000000
,
02000000
03020000
00032000
00003200
,
00000302
00000000
00000000
00000000
00000000
00000000
00000000
00000000
00000003
00000000
00000000
00000000
00000000
00000000
00000000
00000000
00000010
00000000
00000000
00000000
00000000
00000010
00000000
00000000
00001000
00000000
00000000
00000000
00000000
00000000
00000000
00000000
,
00011000
00001000
01000000
01000000
,
01100000
00000000
00000000
00000000
00000000
00000000
00000000
00000000
00000000
00000000
00000000
00000000
00000000
00000000
00000000
00000000
00010000
00000000
00000000
00000000
00000000
00010000
00000000
00000000
00001000
00000000
00000000
00000000
00000000
00000000
00000000
00000000
,
00000100
00000020
00000000
00000030
,
00000000
00000000
00000000
00000000
00000000
00000000
00000000
00000000
00000000
00000000
00000000
00000000
00000000
00000000
00000000
00000000
00000010
00000000
00000000
00000000
00000000
00000010
00000000
00000000
00000001
00000000
00000000
00000000
00000000
00000000
00000000
00000000
,
00000110
00001000
00010000
00010000
,
00011000
00000000
00000000
00000000
00000000
00000000
00000000
00000000
00000000
00000000
00000000
00000000
00000000
00000000
00000000
00000000
00000001
00000000
00000000
00000000
00000000
00000001
00000000
00000000
00000100
00000000
00000000
00000000
00000000
00000000
00000000
00000000
,
00001000
00020000
00000000
00030000
,
00000000
01100000
20020000
00000000
,
00000000
00000000
00000000
30030000
,
10000000
00100000
00010000
00001000
,
00000010
00000001
00000100
00001000
;
