#TITLE:誰?;
#ARTIST:Handsome JET Project;
#TITLETRANSLIT:Who?;
#GENRE:PUNK;
#CREDIT:B. M'Rey;
#MUSIC:Who.ogg;
#BANNER:Who.png;
#BACKGROUND:Who-bg.png;
#CDTITLE:./CDTITLES/GUITARFREAKS & drummania.png;
#SAMPLESTART:22.415;
#SAMPLELENGTH:12;
#OFFSET:-0.294;
#BPMS:0=198;

//--------------- dance-single - B. M'Rey ----------------
#NOTES:
     dance-single:
     B. M'Rey:
     Beginner:
     2:
     0,0,0,0,0:
0000
0000
0000
0000
,
0000
0000
0000
0000
,
0000
0000
0000
0000
,
0000
0000
0000
0000
,
0000
0000
0000
0000
,
0000
0000
0000
0000
,
0000
0001
0000
0000
,
0000
1000
0000
0000
,
0000
0010
0000
0000
,
0000
0100
0000
0000
,
0000
0010
0000
0010
,
0000
0010
0000
0000
,
0000
0100
0000
0100
,
0000
0100
0000
0000
,
0000
0001
0000
0001
,
0000
0001
0000
0000
,
0000
1000
0000
1000
,
0000
1000
0000
0000
,
0000
0110
0000
0000
,
0000
0001
0000
1000
,
0000
0010
0000
0000
,
0000
0000
0100
0000
,
0010
0000
0000
0000
,
0000
0001
0000
1000
,
0000
0010
0000
0000
,
0000
0000
0000
0000
,
0000
0100
0000
0100
,
0000
0010
0000
0000
,
0000
1000
0000
0001
,
0000
0100
0000
0000
,
0000
0010
0000
1000
,
0000
0100
0000
0000
,
0000
0001
0000
0010
,
0000
0001
0000
0000
,
0000
0100
0000
0000
,
0000
0010
0000
1000
,
0000
0001
0000
0000
,
0000
0100
0000
0010
,
0000
1000
0000
0000
,
0000
0001
0000
0100
,
0000
0010
0000
0000
,
0000
1000
0000
0000
,
0000
0001
0000
1000
,
0000
1001
0000
1001
,
0000
0010
0000
0100
,
0000
0101
0000
0101
,
0000
0010
0000
1000
,
0000
1010
0000
1010
,
0000
0100
0000
0001
,
0000
0100
0000
0101
,
0000
1000
0000
0000
,
0000
0010
0000
0100
,
0000
0001
0000
0000
,
0000
0010
0000
0100
,
0000
0010
0000
1000
,
0000
0000
0001
0000
,
0010
0000
0001
0000
,
0000
0100
0000
0010
,
0000
0100
0000
0000
,
0000
0001
0000
1000
,
0000
0100
0000
0000
,
0000
0010
0000
0100
,
0000
0001
0000
0000
,
0000
0010
0000
1000
,
0000
0100
0000
0000
,
0000
0001
0000
0000
,
0000
0010
0000
0000
,
0000
0001
0000
1000
,
0000
0001
0000
0000
;

//--------------- dance-single - B. M'Rey ----------------
#NOTES:
     dance-single:
     B. M'Rey:
     Easy:
     5:
     0,0,0,0,0:
0000
0000
0000
0000
,
0000
0000
0000
0000
,
0000
0000
0000
0000
,
0000
0000
0000
0000
,
0000
0000
0000
0000
,
0000
0000
0000
0000
,
0000
1000
0000
0001
,
0000
0010
0010
0010
,
0000
0100
0000
0001
,
0000
1000
1000
1000
,
0000
0010
0000
0100
,
0000
0001
1000
0001
,
0000
0010
0000
0100
,
0000
0010
0100
0010
,
0000
0001
0000
0010
,
0000
0001
0010
0001
,
0000
0100
0000
0010
,
0000
1000
0000
0010
,
0000
1000
0001
1000
,
0000
0010
0100
0010
,
0000
0001
0100
0001
,
0000
0010
1000
0010
,
0000
0100
0010
0100
,
0000
0001
0010
0001
,
0000
1000
0100
1000
,
0000
0010
0100
0010
,
0000
1000
0000
0001
,
0000
0100
0100
0100
,
0000
0010
0000
1000
,
0000
0001
0001
0001
,
0000
0010
0000
0001
,
0000
0100
0100
0100
,
0000
0010
0000
0001
,
0000
1000
1000
1000
,
0000
0010
0000
0100
,
0000
0001
0000
0000
,
0000
1000
0000
0010
,
0000
0100
0000
0000
,
0000
0010
0000
0100
,
0000
0001
0000
0000
,
0000
1000
0000
0010
,
0000
0100
0000
0010
,
0000
0001
0000
1000
,
0000
0001
1000
0001
,
1000
0010
0000
0100
,
0000
0010
0100
0010
,
0100
0001
0000
0100
,
0000
0001
0100
0001
,
0100
0010
0000
1000
,
0000
0010
1000
0010
,
1000
1010
0000
0110
,
0000
0001
0100
0001
,
0100
0101
0000
0110
,
0000
0010
1000
0010
,
0100
0110
0000
0101
,
0000
0010
1000
0010
,
0100
0110
0000
0101
,
0000
0010
1000
0010
,
0100
0001
0100
0010
,
1000
0100
0001
0010
,
0100
0001
1000
0010
,
0100
0010
0100
0001
,
1000
1001
0100
0110
,
0010
0011
0100
0110
,
1000
1100
0100
0110
,
0010
0011
0001
0011
,
0100
0110
0010
1010
,
0100
0110
0000
0101
,
0000
0110
0000
0000
;

//--------------- dance-single - B. M'Rey ----------------
#NOTES:
     dance-single:
     B. M'Rey:
     Medium:
     8:
     0,0,0,0,0:
0000
0000
0000
0000
,
0000
0000
0000
0000
,
0000
0000
0000
0000
,
0000
0000
0000
0000
,
0000
0000
0000
0000
,
0000
0000
0000
0000
,
0000
0100
0010
0001
,
0100
0000
0010
1000
0000
0100
0001
0000
,
1000
0010
1000
0001
,
0100
0000
0010
1000
0000
1000
0001
0000
,
0100
0001
0010
0001
,
0100
0000
0010
0000
1000
0000
0001
0100
,
0010
0001
0100
0001
,
0100
0000
0010
0000
0100
0000
0001
0010
,
1000
0001
0100
0001
,
0100
0010
1000
1001
,
0110
0100
0010
0001
,
0100
0000
0010
0001
1000
0000
0010
1000
,
0100
1001
1001
0010
,
0100
0000
0010
0000
0100
0010
0000
0001
,
1000
0010
0100
0010
,
0100
0000
0010
0000
1000
0001
0000
0001
,
0010
0100
0010
0001
,
1000
0000
0001
0000
0100
0010
0000
0100
,
1000
0001
0100
0001
,
1000
0000
0100
0001
1000
0000
0010
0001
,
1000
0010
0100
0010
,
0100
0001
0010
0101
,
1010
0101
0100
0010
,
1000
0100
0010
0101
,
1010
0101
1000
0001
,
0100
0001
0100
1010
,
0101
0110
1000
0010
,
1000
0000
0001
1000
0010
0000
0100
0010
,
1000
0100
0000
0001
,
0000
0010
0100
0010
,
0000
0001
0000
0010
,
0000
0001
1000
0001
,
0000
0010
0000
1000
,
0000
0001
0010
0001
,
0000
1001
0000
0110
,
0000
0011
0000
1100
,
0000
0000
0001
0010
0100
0000
0001
0010
,
0100
0010
0110
0011
,
1100
0000
0100
0001
0010
0000
0100
0001
,
0010
0100
1010
0110
,
0101
0000
0010
1000
0100
0000
0001
0100
,
1000
0010
0101
0011
,
1100
0000
0001
0010
0100
0000
0010
0100
,
1000
0100
0010
0100
,
0010
0000
0001
1000
0010
0000
0100
0001
,
1000
0000
0010
0100
1000
0000
0010
0000
,
1000
0000
0001
0010
0100
0000
0010
0001
,
1000
0000
0100
1000
0010
0000
0001
0000
,
0010
0000
0001
0010
0100
0000
1010
0000
,
0110
0000
0001
0000
0100
0010
0001
0000
,
1000
0100
0001
0000
0110
0000
0011
0000
,
1000
0010
0100
0010
,
0100
0000
0001
0010
1000
0000
0101
0000
,
0011
0000
0100
0001
1000
0000
0100
0000
,
0010
0000
0001
1000
0100
0000
0011
0000
,
1100
0000
0100
0001
0010
0000
0100
0010
,
1000
0011
0010
0110
,
0010
1100
1000
0011
,
0010
0011
0110
0011
,
0110
0101
1100
0011
,
1100
0101
0011
0110
,
1001
1001
0000
0101
,
0000
0110
1001
0000
;

//--------------- dance-single - B. M'Rey ----------------
#NOTES:
     dance-single:
     B. M'Rey:
     Hard:
     9:
     0,0,0,0,0:
0000
0000
0000
0000
,
0000
0000
0000
0000
,
0000
0000
0000
0000
,
0000
0000
0000
0000
,
0000
0000
0000
0000
,
0000
0000
0000
0000
,
0000
0000
0010
1000
0100
0000
0100
0000
,
0010
0000
0010
1000
0010
0000
0001
0100
,
0010
0001
0010
0001
,
0010
0000
0001
1000
0010
0000
0001
0010
,
0001
0000
0010
0000
0100
0000
0001
0010
,
0001
0000
0001
0010
0100
0000
0110
0000
,
1001
0000
0100
1000
0010
0000
0001
0100
,
0010
0000
0010
1000
0010
0000
0011
0000
,
0101
0000
0010
0100
0001
0000
0001
1000
,
0001
0000
0010
0100
0010
0000
0011
0000
,
1100
0000
0100
1000
0100
0000
0001
0010
,
0001
0100
0010
0100
,
0010
0000
0100
0010
0001
0000
0001
1000
,
0001
0000
0100
0010
0001
1000
0010
1000
,
0100
0010
0100
0000
0100
1000
0010
0000
,
0001
1000
0001
0000
0001
0100
0010
1000
,
0001
0010
0001
0000
0010
1000
0001
0000
,
0001
0010
0100
0000
0010
1000
0010
0100
,
0010
0100
0001
0000
0100
0010
0001
0000
,
0001
0100
0010
0000
0001
1000
0010
0000
,
0001
0000
0010
1000
0100
0000
0010
0000
,
0100
1000
0000
1000
0010
0000
0101
0000
,
0101
0000
0010
0000
0001
0100
0010
0000
,
0001
0100
0000
1000
0100
0000
1100
0000
,
0110
0000
0010
0000
0001
0010
0100
0000
,
0010
0100
0000
0001
0100
0000
0011
0000
,
0110
0000
0001
0100
0010
0000
0100
0000
,
0100
0010
0000
1000
0010
0000
0100
0000
,
0010
0000
0110
0000
0100
0010
0100
0000
,
0010
0000
1010
0000
0000
0101
0000
0000
,
0010
0001
0010
0001
,
0010
0000
0101
0000
0000
1001
0000
0000
,
0001
0010
0001
0100
,
0001
0000
0110
0000
0000
0101
0000
0000
,
0010
0000
0001
0010
0100
0000
0001
1000
,
0010
0000
0010
0100
0001
0000
0001
0010
,
0101
0000
0010
0100
0001
1000
0001
1000
,
0001
0010
0100
0000
0011
0000
1100
0000
,
0110
0000
0010
0100
0001
0010
0001
1000
,
0001
0100
0010
0000
0110
0000
0011
0000
,
0110
0000
0100
0010
0001
0100
0010
0100
,
0010
0100
0001
0000
0110
0000
0110
0000
,
1001
0000
0001
1000
0010
0100
0010
0100
,
0010
0000
0110
0000
0100
0010
0000
1000
,
0001
0000
0100
0010
0001
0100
0010
0000
,
0100
0000
0001
0000
0100
0010
0001
1000
,
0100
1000
0100
0000
0100
1000
0000
0100
,
0010
0000
0001
0100
0010
1000
0100
1000
,
0100
0010
0001
0000
0001
0100
0010
0000
,
0100
0010
0001
0000
0010
1000
0001
1000
,
0001
0010
0001
0000
0100
1000
0100
0000
,
0010
0100
0010
0000
0010
0100
0001
0000
,
1000
0000
0010
1000
0100
0010
0001
0010
,
0100
0000
0010
0000
0010
1000
0001
1000
,
0001
0100
0010
0000
0001
0000
0001
1000
,
0010
1000
0010
0000
0001
0010
0100
0010
,
0001
0000
0001
1000
0000
0010
0100
0000
0100
0010
0000
1000
,
0001
0000
0001
0010
0000
0010
0001
0000
0001
1000
0000
1000
,
0010
0000
0000
0000
0010
0000
0001
0000
0000
0100
0000
0000
0001
0000
0000
0100
0000
0000
0001
0000
0000
1000
0000
0000
,
0010
1000
0010
1000
0001
0010
0001
0010
,
0100
0010
0001
0100
0010
0100
0001
0100
,
0010
1001
0000
0110
,
0000
0101
1001
0000
;

//--------------- dance-double - B. M'Rey ----------------
#NOTES:
     dance-double:
     B. M'Rey:
     Easy:
     5:
     0,0,0,0,0:
00000000
00000000
00000000
00000000
,
00000000
00000000
00000000
00000000
,
00000000
00000000
00000000
00000000
,
00000000
00000000
00000000
00000000
,
00000000
00000000
00000000
00000000
,
00000000
00000000
00000000
00000000
,
00000000
00001000
00000000
00000000
,
00000000
00010000
00000000
00000000
,
00000000
00000100
00000000
00000000
,
00000000
00001000
00000000
00000000
,
00000000
00000100
00000000
00001000
,
00000000
00000010
00000100
00000010
,
00000000
00010000
00000000
00000100
,
00000000
00010000
00000100
00010000
,
00000000
00001000
00000000
00010000
,
00000000
00001000
00010000
00001000
,
00000000
01000000
00000000
00100000
,
00000000
10000000
00000000
00100000
,
00000000
10000000
01000000
10000000
,
00000000
00100000
01000000
00100000
,
00000000
00001000
01000000
00001000
,
00000000
00010000
01000000
00010000
,
00000000
00100000
00010000
00100000
,
00000000
00001000
01000000
00001000
,
00000000
00010000
00000100
00010000
,
00000000
00000010
00001000
00000010
,
00000000
00000100
00000000
00000001
,
00000000
00000010
00000010
00000010
,
00000000
00000100
00000000
00010000
,
00000000
00001000
00001000
00001000
,
00000000
00100000
00000000
00001000
,
00000000
01000000
01000000
01000000
,
00000000
00100000
00000000
00010000
,
00000000
10000000
10000000
10000000
,
00000000
01000000
00000000
00000000
,
00000000
00001000
00000000
00010000
,
00000000
00000100
00000000
00000000
,
00000000
00001000
00000000
00000001
,
00000000
00000010
00000000
00000000
,
00000000
00000100
00000000
00010000
,
00000000
00000010
00000000
00000000
,
00000000
00001000
00000000
00000000
,
00000000
00000001
00000000
00001000
,
00000000
00000001
00001000
00000001
,
00001000
00000100
00000000
00010000
,
00000000
00000100
00010000
00000100
,
00010000
00000010
00000000
00010000
,
00000000
00000010
00010000
00000010
,
00010000
00001000
00000000
01000000
,
00000000
00001000
01000000
00001000
,
01000000
01001000
00000000
00011000
,
00000000
00000100
00010000
00000100
,
00010000
00010100
00000000
00011000
,
00000000
00001000
01000000
00001000
,
00100000
00101000
00000000
01100000
,
00000000
00010000
10000000
00010000
,
00100000
00110000
00000000
01100000
,
00000000
00001000
01000000
00001000
,
00010000
00000100
00010000
00000010
,
00001000
00000001
00000010
00010000
,
00000100
00000001
00001000
00000010
,
00000100
00000010
00000100
00000001
,
00001000
11000000
00010000
00110000
,
00100000
01100000
00010000
00110000
,
10000000
10010000
00010000
01010000
,
01000000
01100000
00100000
01100000
,
00001000
01001000
01000000
00000101
,
00001000
00001001
00000000
00001010
,
00000000
00001100
00000000
00000000
;

//--------------- dance-double - B. M'Rey ----------------
#NOTES:
     dance-double:
     B. M'Rey:
     Medium:
     7:
     0,0,0,0,0:
00000000
00000000
00000000
00000000
,
00000000
00000000
00000000
00000000
,
00000000
00000000
00000000
00000000
,
00000000
00000000
00000000
00000000
,
00000000
00000000
00000000
00000000
,
00000000
00000000
00000000
00000000
,
00000000
00010000
00000000
00001000
,
00000000
00100000
00100000
00100000
,
00000000
01000000
00000000
00010000
,
00000000
10000000
10000000
10000000
,
00000000
00100000
00100000
00010000
,
01000000
00001000
00010000
00000011
,
00001010
00000100
00010000
00000100
,
00010000
00001000
00010000
00001100
,
00000110
00000001
00001000
00000001
,
00001000
00000100
00010000
00010010
,
01001000
00001000
01000000
00010000
,
10000000
01000000
00000000
01000000
,
00000000
00011000
00011000
01000000
,
00100000
00000000
01000000
00000000
00100000
01000000
00000000
00001000
,
00010000
00000100
00001000
00000100
,
00001000
00000000
00000100
00000000
00010000
00000010
00000000
00000010
,
00001000
00000001
00001000
00000010
,
00000100
00000000
00000010
00000000
00010000
00001000
00000000
00010000
,
00100000
00010000
10000000
00010000
,
00100000
00000000
01000000
00010000
10000000
00000000
00100000
00001000
,
00010000
00000100
00001000
00000100
,
00001000
00000010
00010000
00001010
,
01010000
00000010
00000100
00000001
,
00001000
00000100
00010000
00001100
,
01010000
00001000
00010000
00001000
,
01000000
00001000
01000000
10100000
,
01010000
00001000
00100000
00001000
,
00100000
00000000
01000000
00100000
00010000
00000000
01000000
00010000
,
10000000
00010000
00000000
01000000
,
00000000
00001000
00000000
00000000
,
00000000
00010000
00000000
00000010
,
00000000
00000100
00000000
00000000
,
00000000
00000010
00000000
00000100
,
00000000
00000001
00000000
00000000
,
00000000
00001000
00000000
00000010
,
00000000
00000100
00000000
00000010
,
00000000
00000000
00000001
00000010
00010000
00000000
00001000
00100000
,
00010000
00100000
00100000
00100000
,
00010000
00000000
00010000
00000100
00001000
00000000
00000001
00000100
,
00001000
00000001
00001000
00001000
,
01000000
00000000
00001000
00010000
00000100
00000000
00000001
00000100
,
00010000
00001000
00000100
00000100
,
00000010
00000000
00000100
00010000
00001000
00000000
00010000
00001000
,
01000000
00001000
00100000
00001000
,
00100000
00000000
01000000
10000000
00010000
00000000
01000000
00001000
,
00010000
00000000
00000010
00000100
00010000
00000000
00000010
00000000
,
00010000
00000000
00001000
01000000
00010000
00000000
01000000
00100000
,
10000000
00000000
00010000
10000000
00100000
00000000
00010000
00000000
,
00100000
00000000
00010000
00100000
01000000
00000000
10100000
00000000
,
11000000
00000000
00001000
00000000
01000000
00100000
00010000
00000000
,
10000000
01000000
00010000
00000000
01001000
00000000
00001100
00000000
,
00010000
00000100
00001000
00000100
,
00001000
00000000
00000010
00010000
00001000
00000000
00000010
00000000
,
00010000
00000000
00001000
00000010
00001000
00000000
00000001
00000000
,
00000010
00000000
00000100
00010000
00001000
00000000
00000010
00000000
,
00001000
00000000
00001000
00000100
00010000
00000000
00000010
00010000
,
01000000
00010000
00010000
00010000
,
00010000
00000100
00001000
00000001
,
00000010
00000001
00001000
00000001
,
00000010
00000001
00001000
00000001
,
00001000
00000001
00000010
00000100
,
00000001
10010000
00000000
01010000
,
00000000
01001000
10100000
00000000
;

//--------------- dance-double - B. M'Rey ----------------
#NOTES:
     dance-double:
     B. M'Rey:
     Hard:
     9:
     0,0,0,0,0:
00000000
00000000
00000000
00000000
,
00000000
00000000
00000000
00000000
,
00000000
00000000
00000000
00000000
,
00000000
00000000
00000000
00000000
,
00000000
00000000
00000000
00000000
,
00000000
00000000
00000000
00000000
,
00000000
00000010
00001000
00000100
,
00010000
00000000
00000010
00001000
00000000
00000100
00000001
00000000
,
00001000
00000010
00001000
00000001
,
00000100
00000000
00010000
01000000
00000000
01000000
00010000
00000000
,
10000000
00000000
00110000
00000000
10000000
00000000
00010000
00100000
,
00010000
00000000
00010000
00100000
00001000
00000000
00101000
00000000
,
01010000
00000000
00001000
01000000
00100000
00000000
00001000
00010000
,
00000100
00000000
00000100
00000010
00000100
00000000
01001000
00000000
,
00011000
00000000
00000010
00010000
00001000
00000000
00001000
01000000
,
00001000
00000000
00010000
00000100
00010000
00000000
00011000
00000000
,
11000000
00000000
01000000
10000000
01000000
00000000
00001000
00100000
,
00001000
00010000
00000010
00010000
,
00000010
00000000
00010000
00000010
00000001
00000000
00000001
00000100
,
00000001
00000000
00001000
00000100
00000010
00010000
00000100
00010000
,
00001000
00100000
00001000
00000000
00001000
01000000
00100000
00000000
,
00010000
10000000
00010000
00000000
00010000
10000000
00100000
01000000
,
00001000
00100000
00001000
00000000
00100000
10000000
00010000
00000000
,
00010000
00100000
01000000
00000000
00100000
10000000
00100000
00001000
,
00100000
00001000
00000010
00000000
00001000
01000000
00010000
00000000
,
00010000
01000000
00100000
00000000
00001000
00010000
00000010
00000000
,
00000001
00000000
00000010
00000100
00000001
00000000
00001000
00000000
,
00000001
00000100
00000000
00000100
00000010
00000000
00001100
00000000
,
00001100
00000000
00000010
00000000
00000100
00010000
00001000
00000000
,
00000100
00010000
00000000
00100000
00010000
00000000
00110000
00000000
,
00011000
00000000
00001000
00000000
00000100
00001000
01000000
00000000
,
00001000
01000000
00000000
00010000
01000000
00000000
00110000
00000000
,
01100000
00000000
00010000
01000000
00001000
00000000
01000000
00000000
,
01000000
00001000
00000000
00100000
00001000
00000000
00010000
00000000
,
00001000
00010000
00000000
00000100
,
00000000
00000010
00000001
00000010
,
00000000
00000100
00000000
00000010
,
00000000
00000100
00010000
00000100
,
00000000
00001000
00000000
00010000
,
00000000
00000100
00000010
00000100
,
00000000
00010100
00000000
00001001
,
00000000
00001010
00000000
11000000
,
00000000
00000000
00010000
01000000
00010000
10000000
00010000
10000000
,
00010000
00100000
01000000
00000000
00110000
00000000
11000000
00000000
,
00001001
00000000
00000001
00001000
00000010
00000100
00000010
00010000
,
00000010
00001000
00000001
00000000
00001001
00000000
00011000
00000000
,
00010100
00000000
00000100
00010000
00001000
01000000
00010000
01000000
,
00010000
01000000
00100000
00000000
01001000
00000000
01001000
00000000
,
00010010
00000000
00000010
00010000
00000100
00001000
00000100
00001000
,
00000100
00000000
00001100
00000000
00001000
00100000
00000000
10000000
,
00010000
00000000
01000000
00100000
00001000
00010000
00000010
00000000
,
00010000
00000000
00001000
00000000
00010000
00000010
00000001
00001000
,
00000100
00001000
00000100
00000000
00000100
00001000
00000000
00000100
,
00010000
00000000
00001000
01000000
00100000
10000000
00010000
10000000
,
00010000
01000000
00001000
00000000
00001000
00010000
00000010
00000000
,
00010000
00000010
00000001
00000000
00000010
00010000
00001000
00010000
,
00001000
00100000
00001000
00000000
01000000
10000000
01000000
00000000
,
00100000
01000000
00100000
00000000
00100000
01000000
00001000
00000000
,
00010000
00000000
00000010
00010000
00001000
00100000
00010000
00100000
,
00001000
00000000
00100000
00000000
00100000
10000000
00010000
10000000
,
00010000
01000000
10000000
00000000
00010000
00000000
00010000
01000000
,
00001000
01000000
00001000
00000000
00000100
00001000
00010000
00001000
,
00000100
00001100
00001000
01001000
,
00001000
01010000
00010000
00001100
,
00000100
00000011
00000110
00000011
,
00000110
00000101
00001100
00000011
,
00001100
00000110
00010010
00011000
,
10010000
10010000
00000000
01010000
,
00000000
01100000
00011000
00000000
;
