#TITLE:Traces;
#ARTIST:TaQ;
#GENRE:TRANCE;
#CREDIT:B. M'Rey;
#MUSIC:Traces.ogg;
#BANNER:Traces-bn.png;
#BACKGROUND:Traces-bg.png;
#CDTITLE:./CDTITLES/Music From Beatmania IIDX.PNG;
#SAMPLESTART:71.111;
#SAMPLELENGTH:12;
#OFFSET:-0.058;
#BPMS:0=76,18=152,98=76,130=152,226=76,228=38,229=19,230=9.5;
#DISPLAYBPM:76:152;

//--------------- dance-single - B. M'Rey ----------------
#NOTES:
     dance-single:
     B. M'Rey:
     Beginner:
     2:
     0,0,0,0,0:
0000
0000
0000
0000
,
0000
0000
0000
0000
,
0000
0000
0100
0000
,
0010
0000
1000
0000
,
0001
0000
0010
0000
,
0000
0000
0100
0000
,
0000
0000
0001
0000
,
0000
0000
1000
0000
,
0000
0000
0010
0000
,
0100
0000
0001
0000
,
0010
0000
0001
0000
,
0100
0000
0010
0000
,
1000
0000
0001
0000
,
0010
0000
0001
0000
,
0100
0000
0010
0000
,
1000
0000
0100
0000
,
0010
0000
1000
0000
,
0001
0000
0010
0010
,
0010
0000
0100
0000
,
0001
0000
1000
1000
,
1000
0000
0010
0000
,
0100
0000
0001
0001
,
0001
0000
0010
0000
,
0100
0000
0010
0010
,
0010
0000
1000
0000
,
0010
0000
0100
0000
,
0001
0000
0010
0000
,
0100
0000
0001
0000
,
1000
0000
1001
0000
,
0010
0000
0100
0000
,
0000
0000
0001
0000
,
1000
0000
0010
0000
,
0000
0000
0100
0000
,
0000
0001
1000
0000
,
0000
0010
0100
0000
,
0000
0000
0010
0000
,
0000
1000
0001
0000
,
0000
0100
0010
0000
,
0000
0000
0000
0001
1000
0000
0000
0000
,
0000
0000
0010
0000
,
0000
0100
0010
0000
,
0000
0000
1000
0000
,
0001
0100
0010
0000
,
1000
0000
0001
0000
,
0100
0000
0110
0000
,
0001
0000
1000
0000
,
0010
0100
0001
0000
,
0010
0000
0100
0000
,
1000
0000
1001
0000
,
0010
0000
0101
0000
,
0010
0000
1010
0000
,
0100
0000
1001
0000
,
0010
0000
0101
0000
,
0010
0000
0110
0000
,
1000
0000
0110
0000
,
0001
0000
0101
0000
,
0010
0000
1000
0000
,
0001
0100
0010
0000
;

//--------------- dance-single - B. M'Rey ----------------
#NOTES:
     dance-single:
     B. M'Rey:
     Easy:
     4:
     0,0,0,0,0:
0000
0000
0000
0000
,
0000
0000
0000
0000
,
0000
0000
0100
0000
,
0001
0000
1000
0000
,
0010
0000
0100
0001
,
0000
0010
1000
0010
,
0000
0100
0010
0100
,
0000
0001
1000
0010
,
0000
0010
0101
0000
,
0110
0000
1010
0000
,
0101
0000
0110
0000
,
1001
0000
0101
0000
,
0110
0000
1000
0001
,
1000
0000
0010
0100
,
0010
0000
0001
1000
,
0100
0000
0010
0100
,
0101
0000
0001
1000
,
0010
0100
0001
0010
,
0001
0100
0010
1000
,
0010
0100
0001
0100
,
0010
1000
0001
0010
,
0100
1000
1000
0100
,
0010
0001
0001
1000
,
0010
0100
1000
0001
,
0100
0010
1001
0000
,
0100
0000
0010
0000
,
0001
0000
1000
0000
,
0100
0000
0010
0000
,
1000
0000
0000
0001
1000
0000
0000
0010
,
0100
0000
0001
0010
0100
0000
0010
0000
,
0000
0000
0000
1000
0010
0000
0000
0100
,
0001
0000
0010
0100
1000
0000
0010
0000
,
0100
0001
1001
1000
,
0010
0100
0101
0000
,
0010
1000
0100
0000
,
0001
0000
0010
0000
,
0001
0100
0010
0000
,
1000
0001
0100
0000
,
0010
1000
0001
0000
,
0010
0000
0100
0000
,
0010
1000
0100
0001
,
0000
0001
0010
0100
,
0000
1000
0010
0100
,
0000
0010
0100
0001
,
0000
0010
1000
0100
,
0000
0001
0010
0001
,
0000
0100
0010
0100
,
0000
1000
0100
1000
,
0000
0001
0101
0000
,
0010
0000
1010
0000
,
0100
0000
0101
0000
,
0010
0000
1010
0000
,
0100
0000
0110
0000
,
0001
0000
0101
0000
,
0010
0000
1010
0000
,
0100
0000
0110
0000
,
0001
0000
1001
0000
,
0100
0000
0010
0001
0100
0000
0000
0000
;

//--------------- dance-single - B. M'Rey ----------------
#NOTES:
     dance-single:
     B. M'Rey:
     Medium:
     6:
     0,0,0,0,0:
0000
0000
1000
0000
,
0010
0000
0000
0100
0001
0000
0000
0000
,
0010
0000
1000
0000
,
0100
0000
0001
0000
,
0010
0000
0001
0010
,
0001
0000
1000
0100
,
1000
0000
0010
0100
,
0010
0000
0001
0010
,
0001
1000
0110
0001
,
0100
0110
0100
1010
,
0100
0101
0010
1010
,
0100
0101
0010
0110
,
1000
0101
0001
0110
,
1000
0110
0001
0011
,
0100
0110
1000
1100
,
0001
0011
0100
0110
,
1000
0000
0110
0000
0100
1000
0001
0000
,
0010
0100
0001
0000
0100
0010
0001
0000
,
0010
0100
0010
0000
0001
1000
0001
0000
,
0001
0100
0010
0000
0001
0100
0001
0000
,
0001
0100
0010
0000
0001
0010
0100
0000
,
0010
0100
0010
0000
0010
1000
0001
0000
,
0010
0100
0010
0000
0001
0100
0001
0000
,
0001
0010
0100
0000
0001
1000
0001
0000
,
0100
0010
0100
0000
0001
1000
0010
0000
,
0100
0010
0100
0000
1000
0100
1000
0000
,
0001
0010
0001
0000
0100
0010
0100
0000
,
1000
0100
0010
0000
0001
0010
0100
0000
,
0010
0100
0010
0000
1001
0000
0010
0100
,
0001
0010
0100
1000
,
0001
0000
0100
0010
1000
0000
0001
0000
,
0100
0000
0010
1000
0001
0000
0100
0000
,
1000
0001
1000
0010
,
0100
0000
0001
0000
0100
0001
0100
0000
,
0010
1000
0010
0000
0100
0000
0010
0000
,
1000
0100
0001
0010
,
0100
0000
0001
0100
0001
0000
1001
0000
,
0100
0000
0010
0100
0010
0000
0110
0000
,
1000
0010
1000
0000
1010
0000
0110
0000
,
0101
0000
0010
0100
0010
0000
1000
0100
,
1000
0001
0101
0110
,
1010
0000
0101
0000
0100
0010
0100
0000
,
0001
0100
0001
0000
0110
0000
1010
0000
,
0101
0000
0110
0000
0010
0100
0010
0000
,
1000
0100
1000
0000
0101
0000
0110
0000
,
1010
0000
0001
0100
0001
0000
0010
1000
,
0010
0110
0101
0110
,
1010
0000
0001
0100
0001
0000
0010
1000
,
0010
0000
0100
0000
0001
0100
0001
0000
,
0010
1000
0010
0000
0100
0010
0100
0000
,
0001
0100
0001
0000
0010
0100
0010
0000
,
1000
0100
1000
0000
0101
0000
0110
0000
,
1010
0000
0101
0000
0100
0010
1000
0000
,
0001
0100
0001
0000
0010
1000
0010
0000
,
1000
0010
1000
0000
0100
0001
0100
0000
,
0010
1000
0010
0000
0101
0000
0110
0000
,
1010
0000
0101
0000
0110
0000
0000
0001
,
1000
0000
0000
0000
0001
0000
0000
0000
0100
0000
0000
0010
0001
0000
0010
0000
0100
0000
0000
0000
0000
0000
0000
0000
0000
0000
0000
0000
0000
0000
0000
0000
;

//--------------- dance-single - B. M'Rey ----------------
#NOTES:
     dance-single:
     B. M'Rey:
     Hard:
     8:
     0,0,0,0,0:
0000
0000
0000
1000
0001
0000
0000
0010
,
0100
0000
0000
0001
0000
0000
1000
0000
0010
0000
0000
0000
0000
0000
0000
0000
,
0100
0000
0000
0000
1000
0001
1000
0000
,
0010
0100
0010
0000
1000
0100
1000
0000
,
0001
0010
0001
0000
0100
0010
0100
0000
,
1000
0000
0001
0000
0100
0001
0100
0000
,
0010
0000
1000
0000
0010
0100
0010
0000
,
0001
0000
0010
0000
1000
0100
1000
0000
,
0010
0000
0100
0000
0001
0100
0010
0000
,
1000
0100
1000
0000
0001
0010
0001
0000
,
0100
0010
0100
0000
0001
0010
0001
0000
,
1000
0100
1000
0000
0010
0100
0010
0000
,
1000
0100
1000
0000
0001
0100
0001
0000
,
0010
1000
0010
0000
0100
0010
0100
0000
,
0001
0100
0001
0000
0100
0010
0100
0000
,
1000
0100
1000
0000
0001
0010
0001
0000
,
0100
0010
0100
0000
0001
0100
0001
0100
,
0001
0100
0001
0000
1000
0010
1000
0010
,
1000
0010
1000
0000
0100
0010
0100
0010
,
0100
0010
0100
0000
0001
0100
0001
0100
,
0001
0100
0001
0000
0010
1000
0010
1000
,
0010
1000
0010
0000
0100
0010
0100
0010
,
0100
0010
0100
0000
0001
0100
0001
0100
,
0001
0100
0010
0000
1000
0010
0010
0000
,
0100
0001
0001
0000
1000
0000
0001
0000
,
0100
0010
1000
0000
0100
0000
0010
0000
,
0100
0010
1000
0000
0010
0000
0001
0000
,
0001
0100
0010
0000
0100
0000
0010
0000
,
0001
1000
0010
0000
0101
0010
1000
1001
,
0100
0000
0000
0010
0000
0000
0100
0000
0001
0000
0010
0000
1000
0000
0000
0000
,
0100
0000
0001
0010
1010
0000
0001
0100
,
0110
0000
0000
0101
0000
0000
0010
0000
1000
0000
0001
0000
1000
0000
0010
0000
,
0001
1000
0100
0001
0010
0100
1000
0000
0100
0000
1000
0000
0100
0000
1000
0000
,
0001
0010
0100
0010
0001
0010
0100
1000
,
0010
0100
0010
1000
0001
0010
0001
0000
,
0100
1000
0001
0000
0100
1000
0010
0000
,
0001
0010
0001
0000
0100
0010
0001
1000
,
0001
0010
0100
1000
0001
1000
0100
0010
,
0001
0010
0001
0100
0001
1000
0010
0000
,
0001
1000
0100
0000
0001
0010
0001
0000
,
0100
1000
0001
0000
0110
0000
0011
0000
,
0110
0000
0001
0100
0001
0000
0100
0010
,
0001
0000
0010
1000
0110
0000
0101
0000
,
0011
0000
0100
1000
0001
0000
0100
0010
,
0100
0000
0101
0000
0110
0000
0001
0100
,
0001
0000
0001
0010
0100
0000
0100
0010
,
0000
0010
0001
0000
0001
0010
0100
1000
,
0010
0000
0001
0000
0100
1000
0100
1000
,
0100
0000
0001
0000
0010
0100
0010
0100
,
0001
0100
0010
1000
0001
0100
0001
0100
,
0001
1000
0100
1000
0001
0010
0100
1000
,
0001
1000
0001
1000
0100
0010
0100
1000
,
0100
1000
0010
1000
0001
0100
0001
0010
,
0100
0010
0100
1000
0001
1000
0010
1000
,
0100
0010
0100
0010
0001
0100
0001
0100
,
0001
0000
0010
0000
0100
0000
1000
0000
0001
1000
0010
0100
0010
0100
0010
1000
,
0100
1000
0010
0100
0001
1000
0010
1000
0100
0000
0000
0000
0000
0000
0001
0000
,
0100
0000
0000
0010
0000
0000
1000
0000
0001
0000
0100
0000
0010
0000
0100
0000
0001
0000
0000
0000
0000
0000
0000
0000
0000
0000
0000
0000
0000
0000
0000
0000
;

//--------------- dance-double - B. M'Rey ----------------
#NOTES:
     dance-double:
     B. M'Rey:
     Easy:
     4:
     0,0,0,0,0:
00000000
00000000
00000000
00000000
,
00000000
00000000
00000000
00000000
,
00000000
00000000
00100000
00000000
,
00010000
00000000
01000000
00000000
,
00001000
00000000
00010000
00000000
,
00000000
00000000
00000100
00000000
,
00000000
00000000
00000010
00000000
,
00000000
00000000
00001000
00000000
,
00000000
00000000
00000001
00000000
,
00000010
00000000
00000100
00000000
,
00001000
00000000
00000100
00000000
,
00010000
00000000
00001000
00000000
,
01000000
00000000
00010000
00000000
,
10000000
00000000
00010000
00000000
,
00100000
00000000
00001000
00000000
,
00010000
00000000
00000010
00000000
,
00000100
00000000
00001000
00000100
,
00000010
00010000
00001000
01000000
,
00001000
00100000
00010000
01000000
,
00010000
10000000
00100000
10000000
,
01000000
00100000
00001000
00010000
,
00000100
00001000
00001000
00000100
,
00000010
00000001
00000001
00000100
,
00000010
00001000
00010000
00001000
,
01000000
00010000
00100000
00000000
,
00010000
00000000
01000000
00000000
,
00001000
00000000
00100000
00000000
,
01000000
00000000
00010000
00000000
,
10000000
00000000
00000011
00000000
,
00001000
00000000
00000100
00000000
,
00000000
00000000
00000001
00000000
,
00001000
00000000
00000010
00000000
,
00000000
00000000
00000100
00010000
,
00001000
01000000
01010000
00000000
,
00001000
00100000
00010000
00000000
,
10000000
00000000
00100000
00000000
,
01000000
10000000
00010000
00000000
,
01000000
00001000
00010000
00000000
,
00000010
00001000
00000100
00000000
,
00010000
00000000
00000010
00000000
,
00010000
00001000
00000100
00001000
,
00000000
00001000
00100000
01000000
,
00000000
10000000
00010000
00100000
,
00000000
00010000
00100000
00001000
,
00000000
00010000
00000010
00000001
,
00000000
00000010
00010000
00000010
,
00000000
00000100
00000001
00000100
,
00000000
00001000
00000100
00001000
,
00000000
00000001
01010000
00000000
,
00001000
00000000
00011000
00000000
,
01000000
00000000
01010000
00000000
,
00100000
00000000
00110000
00000000
,
10000000
00000000
10100000
00000000
,
01000000
00000000
11000000
00000000
,
00010000
00000000
00110000
00000000
,
01000000
00000000
01010000
00000000
,
00001000
00000000
00011000
00000000
,
00000100
00000000
00001000
00000010
00000100
00000000
00000000
00000000
;

//--------------- dance-double - B. M'Rey ----------------
#NOTES:
     dance-double:
     B. M'Rey:
     Medium:
     5:
     0,0,0,0,0:
00000000
00000000
00010000
00000000
,
00000100
00000000
00000000
00001000
00000010
00000000
00000000
00000000
,
00000000
00000000
00001000
00000000
,
00000010
00000000
00010000
00000000
,
00001000
00000000
01000000
00010000
,
00000000
00100000
10000000
00100000
,
00000000
01000000
00100000
01000000
,
00000000
00010000
10000000
00100000
,
00000000
00100000
00001100
00000000
,
00001001
00000000
00000011
00000000
,
00010100
00000000
00011000
00000000
,
00001100
00000000
00010100
00000000
,
00011000
00000000
01000000
00010000
,
01000000
00000000
00100000
10000000
,
00100000
00000000
00010000
10000000
,
01000000
00000000
00010000
01000000
,
01001000
00000000
00000000
00000000
00001000
00100000
00001000
00000000
,
00010000
00000100
00000001
00000000
00000100
00001000
00000010
00000000
,
00001000
00000001
00001000
00000000
00000010
00010000
00000010
00000000
,
00000010
00001000
01000000
00000000
00010000
00100000
00010000
00000000
,
00010000
00100000
00001000
00000000
00000100
00001000
01000000
00000000
,
00001000
01000000
00001000
00000000
00001000
00010000
00000100
00000000
,
00000010
00000001
00000010
00000000
00000100
00010000
00000100
00000000
,
00000100
00001000
01000000
00000000
00010000
00100000
00010000
00000000
,
10000000
00100000
10000000
00000000
00001100
00000000
00000000
00000000
,
00010000
00000000
00000010
00000000
,
00000001
00000000
00001000
00000000
,
00000100
00000000
00000010
00000000
,
00010000
00000000
00000000
00001000
00010000
00000000
00000000
00000100
,
00001000
00000000
00000010
00010000
00001000
00000000
00010000
00000000
,
00000000
00000000
00000000
01000000
00010000
00000000
00000000
10000000
,
01000000
00000000
00100000
00010000
10000000
00000000
01000000
00000000
,
00100000
00001000
00011000
00000010
,
00001000
00000000
00000001
00000000
00001000
00000001
00001000
00000000
,
00000100
00010000
00000100
00000000
00000010
00000000
00000100
00000000
,
00010000
00001000
01000000
00010000
,
00001000
00000000
00000010
00001000
00000010
00000000
10100000
00000000
,
01000000
00000000
00010000
01000000
00010000
00000000
01010000
00000000
,
10000000
00010000
10000000
00000000
10010000
00000000
00110000
00000000
,
01100000
00000000
00001000
00100000
00001000
00000000
00010000
00000010
,
00010000
00000100
00001100
00001001
,
00000101
00000000
01001000
00000000
01000000
00100000
01000000
00000000
,
00010000
01000000
00010000
00000000
01001000
00000000
00011000
00000000
,
00000011
00000000
00000110
00000000
00000100
00000010
00000100
00000000
,
00001000
00000001
00001000
00000000
00110000
00000000
00101000
00000000
,
00011000
00000000
00000010
00000100
00000010
00000000
00010000
01000000
,
00010000
00011000
10100000
10010000
,
01010000
00000000
00001000
00100000
00001000
00000000
00010000
00000100
,
00000010
00000000
00001000
00000000
00000100
00001000
00000100
00000000
,
00010000
00001000
00100000
00000000
01000000
00010000
01000000
00000000
,
00001000
01000000
00001000
00000000
00010000
00000100
00010000
00000000
,
00000010
00000001
00000010
00000000
00001100
00000000
00001001
00000000
,
00000101
00000000
00110000
00000000
00100000
00001000
01000000
00000000
,
00010000
10000000
00010000
00000000
01000000
00001000
00000100
00000000
,
00001000
00000100
00001000
00000000
00010000
00000100
00010000
00000000
,
00000010
00001000
00000010
00000000
10100000
00000000
10010000
00000000
,
00110000
00000000
01001000
00000000
01010000
00000000
00000000
00001000
,
00100000
00000000
00000000
00000000
00001000
00000000
00000000
00000000
00010000
00000000
00000000
00000010
00000001
00000000
00000010
00000000
00000100
00000000
00000000
00000000
00000000
00000000
00000000
00000000
00000000
00000000
00000000
00000000
00000000
00000000
00000000
00000000
;

//--------------- dance-double - B. M'Rey ----------------
#NOTES:
     dance-double:
     B. M'Rey:
     Hard:
     7:
     0,0,0,0,0:
00000000
00000000
00000000
00010000
00001000
00000000
00000000
00100000
,
01000000
00000000
00000000
00010000
00000000
00000000
10000000
00000000
00100000
00000000
00000000
00000000
00000000
00000000
00000000
00000000
,
00100000
00000000
00001000
00000000
,
00010000
00000000
00000100
00000000
,
00000010
00000000
00000100
00000010
,
00000100
00000000
00010000
00001000
,
00010000
00000000
00000010
00001000
,
00000010
00000000
00000001
00000010
,
00000001
00001000
01100000
00010000
,
01000000
01001000
01000000
00011000
,
01000000
01010000
00001000
00011000
,
01000000
01100000
00010000
01010000
,
00100000
00001100
00001000
00110000
,
00000100
00110000
00000100
00100100
,
01000000
01100000
10000000
11000000
,
00010000
01010000
00100000
01100000
,
00001000
00000000
01010000
00000000
00000010
00010000
00000010
00010000
,
00000010
00010000
00000010
00000000
00001000
00000001
00001000
00000001
,
00001000
00000001
00001000
00000000
00000100
00000010
00000100
00000010
,
00000100
00000010
00000100
00000000
00010000
00000100
00010000
00000100
,
00010000
00000100
00010000
00000000
00001000
01000000
00001000
01000000
,
00001000
01000000
00001000
00000000
00010000
00001000
00010000
00001000
,
00010000
00001000
00010000
00000000
00000100
00010000
00000100
00010000
,
00000100
00010000
00001000
00000000
00100000
00001000
00001000
00000000
,
00000100
00000001
00000001
00000000
00000001
00001000
00000010
00000000
,
00000001
00000010
00000001
00000000
00001000
00000001
00001000
00000000
,
00000100
00000010
00000100
00000000
00010000
00001000
00010000
00000000
,
00100000
00010000
00001000
00000000
00000100
00001000
00010000
00000000
,
00001000
00010000
00001000
00000000
10100000
00000000
01000000
00100000
,
00010000
10000000
00100000
01000000
,
00001000
00000000
00010000
00000010
00001000
00000000
00000001
00000000
,
00000100
00000000
00000010
00010000
00001000
00000000
01000000
00000000
,
10000000
00000000
00010000
00000000
00010000
00100000
00001000
00100000
,
01000000
10000000
00100000
10000000
00010000
10000000
01000000
00100000
,
00001000
01000000
00001000
00010000
00000010
00001000
00000010
00000000
,
00010000
00000100
00000010
00000000
00001000
00000100
00000001
00000000
,
00000100
00001000
00000100
00000000
00010000
00001000
01000000
00010000
,
10000000
01000000
00010000
10000000
00100000
10000000
00010000
01000000
,
00001000
01000000
00001000
00100000
00001000
00010000
00000010
00000000
,
00000001
00001000
00000100
00000000
00000010
00010000
00000010
00000000
,
00000100
00001000
00000001
00000000
10010000
00000000
00110000
00000000
,
11000000
00000000
00010000
10000000
00010000
00000000
10000000
00100000
,
00010000
00000000
00100000
00001000
00110000
00000000
00010010
00000000
,
00001010
00000000
00000001
00000100
00000010
00000000
00001000
00000100
,
00001000
00000000
00001001
00000000
00001010
00000000
00000100
00001000
,
00000100
00000000
00000100
00010000
00001000
00000000
00001000
00010000
,
00000000
00010000
00000010
00000000
00000010
00010000
00001000
00100000
,
01000000
00000000
00010000
00000000
01000000
10000000
01000000
10000000
,
01000000
00000000
00010000
00000000
10000000
00100000
10000000
00100000
,
00001000
00010000
00000010
00001000
00000100
00010000
00000100
00010000
,
00000100
00001000
00000001
00001000
00000010
00010000
00001000
01000000
,
00010000
01000000
00010000
01000000
00001000
00100000
00001000
00010000
,
00001000
00010000
00000100
00010000
00001000
01000000
00001000
00010000
,
00000100
00010000
00000100
00001000
00000001
00001000
00000010
00001000
,
00000001
00000010
00000001
00000010
00000100
00001000
00000100
00001000
,
00000100
00000000
00010000
00000000
00001000
00000000
01000000
00000000
00100000
01000000
00010000
00100000
00010000
00100000
00010000
01000000
,
00001000
01000000
00100000
10000000
01000000
00100000
00010000
00100000
00001000
00000000
00000000
00000000
00000000
00000000
00000010
00000000
,
00001000
00000000
00000000
00100000
00000000
00000000
10000000
00000000
00010000
00000000
01000000
00000000
00100000
00000000
01000000
00000000
00010000
00000000
00000000
00000000
00000000
00000000
00000000
00000000
00000000
00000000
00000000
00000000
00000000
00000000
00000000
00000000
;
