#TITLE:合体せよ!ストロングイェーガー!!;
#ARTIST:L.E.D.;
#TITLETRANSLIT:THE STRONG JAEGER!!;
#GENRE:NU-NRG;
#CREDIT:B. M'Rey;
#MUSIC:THE STRONG JAEGER!!.ogg;
#BANNER:THE STRONG JAEGER!!.png;
#BACKGROUND:THE STRONG JAEGER!!-bg.png;
#CDTITLE:./CDTITLES/Music From Beatmania IIDX.PNG;
#SAMPLESTART:63.6;
#SAMPLELENGTH:12;
#OFFSET:-0.377;
#BPMS:0=155;
#STOPS:32=0.774,254=0.968;

//--------------- dance-single - B. M'Rey ----------------
#NOTES:
     dance-single:
     B. M'Rey:
     Beginner:
     2:
     0,0,0,0,0:
0000
0000
0000
0000
,
0000
0000
0000
0000
,
0000
0000
0000
0000
,
1000
0000
0000
0000
,
0001
0000
0000
0000
,
0100
0000
0010
0000
,
0110
0000
1000
0000
,
1001
0000
0001
0000
,
1001
0000
0100
0000
,
0010
0000
1000
0000
,
0100
0000
1000
0000
,
0001
0000
0010
0000
,
0000
0000
0100
0000
,
0010
0000
1000
0000
,
0001
0000
0010
0000
,
0001
0000
0100
0000
,
0000
0000
0010
0000
,
0000
0000
1000
1000
,
1000
0000
0001
0000
,
0000
0000
0010
0010
,
0010
0000
0100
0000
,
0000
0000
0001
0001
,
0001
0000
1000
0000
,
0000
0000
0110
0000
,
0000
0000
0001
0000
,
0000
0000
0000
0000
,
0000
0000
0100
0000
,
0000
0000
0000
0000
,
0000
0000
0010
0000
,
0000
0000
0000
0000
,
0000
0000
1000
0000
,
0000
0000
0000
0000
,
0000
0000
1001
0000
,
0010
0000
0100
0000
,
0010
0000
0001
0000
,
0010
0000
0001
0000
,
0100
0000
0010
0000
,
1000
0000
0100
0000
,
1000
0000
0010
0000
,
0100
0000
0001
0000
,
0010
0000
1001
0000
,
0000
0000
0010
0000
,
0000
0000
0100
0000
,
0000
0000
0001
0000
,
0000
0000
1001
0000
,
0000
0000
0110
0000
,
0000
0000
0101
0000
,
0000
0000
1010
0000
,
0000
0000
0100
0000
,
0000
0000
0000
0000
,
0000
0000
0010
0000
,
0000
0000
0000
0000
,
0000
0000
1000
0000
,
0000
0000
0001
0000
,
0000
0000
0100
0000
,
0000
0000
0010
0000
,
0000
0000
1000
0000
,
0000
0000
0001
0000
,
0000
0000
0010
0000
,
0000
0000
0001
0001
,
0000
0000
1001
0000
,
0000
0000
0100
0000
,
0000
0000
0010
0000
,
0000
0000
0000
0000
1100
0000
0000
1000
,
0000
0000
0000
0000
0000
0000
0000
0010
,
0000
0000
0000
0000
0000
0000
0000
0100
,
0000
0100
0000
0000
0000
0000
0000
0010
,
0000
0010
0000
0000
0000
0000
0000
0001
,
0000
0000
0000
0000
0000
0000
0000
1000
,
0000
0000
0000
0000
0000
0000
0000
0100
,
0000
0100
0000
0000
0000
0000
0000
0001
,
0000
0001
0000
0000
0000
0000
0000
1001
;

//--------------- dance-single - B. M'Rey ----------------
#NOTES:
     dance-single:
     B. M'Rey:
     Easy:
     5:
     0,0,0,0,0:
0000
0000
0000
0000
,
0000
0000
0000
0000
,
0000
0000
0000
0000
,
1001
0000
0000
0000
,
0100
0000
0000
0000
,
0011
0000
0000
0000
,
0110
0000
1000
0000
,
0001
0000
0100
0000
,
0110
0000
1000
0000
,
0001
0000
0100
0000
,
0010
0000
1000
0000
,
0010
0000
0100
0000
,
0001
0000
0110
0000
,
0001
0000
1000
0000
,
0010
0000
0100
0000
,
0010
0000
1001
0000
,
0000
0000
0100
0000
,
0010
0000
1000
0001
,
1000
0001
0100
0000
,
0010
0000
0100
0010
,
0100
0010
0001
0000
,
1000
0000
0010
1000
,
0010
1000
0100
0000
,
0001
0000
0101
0000
,
0000
0000
1000
0000
,
0000
0000
0010
0000
,
0000
0000
0100
0000
,
0000
0000
0001
0000
,
0000
0000
0001
0000
,
0000
0000
0100
0000
,
0000
0000
0110
0000
,
0011
0000
1100
0000
,
0101
0000
0010
1000
,
0010
0000
0100
0001
,
0100
0000
0010
0100
,
0010
0000
1000
0100
,
1000
0000
0001
0010
,
0001
0000
0100
0010
,
0100
0000
0001
1000
,
0001
0000
0010
0001
,
0010
0000
1001
0000
,
0000
0000
0110
0000
,
0000
0000
0101
0000
,
0000
0000
1010
0000
,
0000
0000
0110
0000
,
0010
0000
0001
0000
,
0001
0000
1000
0000
,
1000
0000
0010
0000
,
0001
0000
1001
0000
,
0000
0000
0000
0000
,
0000
0000
0110
0000
,
0000
0000
0000
0000
,
0000
0000
1001
0000
,
0000
0000
0110
0000
,
0000
0000
0011
0000
,
0000
0000
1010
0000
,
0000
0000
1000
0000
,
0001
0000
0100
0000
,
0010
0000
1000
0000
,
0001
0000
0010
0000
,
0001
0000
0100
0000
,
0010
0000
1000
0000
,
0010
0000
0100
0000
,
0001
0000
0000
0000
0110
0000
0000
0001
,
0000
0000
0000
1000
0000
0000
0000
0010
,
0000
0000
0000
0100
0000
0000
0000
0010
,
0000
0100
0000
0010
0000
0100
0000
0010
,
0000
0100
0000
0010
0000
0100
0000
0010
,
0000
0000
0000
0001
0000
0000
0000
1000
,
0000
0000
0000
0010
0000
0000
0000
0100
,
0000
0010
0000
0100
0000
0010
0000
0100
,
0000
0010
0000
0100
0000
0010
0000
0110
;

//--------------- dance-single - B. M'Rey ----------------
#NOTES:
     dance-single:
     B. M'Rey:
     Medium:
     8:
     0,0,0,0,0:
0000
0000
0000
0000
,
0000
0000
0000
0000
,
0000
0000
0000
0000
,
1001
0000
0001
0000
,
0001
0000
0100
0000
,
0101
0000
0001
0000
,
0110
0000
0001
0000
,
0011
0000
1100
0000
,
1010
0000
0010
1000
,
0001
0100
0001
0100
,
0001
1000
0010
0100
,
0010
0100
0001
0010
,
0001
0000
0100
0001
0010
0000
0100
0000
,
0001
0100
0001
0010
,
0100
0010
0001
1000
,
0010
1000
1010
0000
,
0101
0000
0001
1000
,
0100
0000
1000
0000
0001
0010
0100
0000
,
0010
1000
0100
0000
0001
0000
0100
0000
,
0001
0000
1000
0000
0010
1000
0100
0000
,
0010
0001
0100
0000
0010
0000
1000
0000
,
0100
0000
1000
0000
0001
0100
0010
0000
,
0001
1000
0100
0000
0001
0000
0100
0000
,
0010
0100
0020
0000
,
0002
0000
1033
0000
,
0001
0000
0100
0000
,
1000
0000
0101
0000
,
0010
0000
0001
0000
,
0100
0000
1100
0000
,
0001
0000
0100
0000
,
0001
0000
1010
0000
,
0110
0000
0101
0000
,
0110
0000
0010
1000
,
0010
0100
0001
1000
,
0010
0100
0010
1000
,
0001
0100
0010
1000
,
0001
0100
0010
0100
,
0001
1000
0010
1000
,
0001
1000
0100
0010
,
0001
1000
0010
0100
,
0001
0000
1000
0000
0100
0010
1000
0000
,
0010
0000
1001
0000
0010
0001
0100
0000
,
0010
0000
1100
0000
0001
0010
0100
0000
,
0001
0000
0110
0000
0001
1000
0100
0000
,
0010
0001
0100
0000
0001
0100
1000
0000
,
0001
0000
1000
0000
0100
0010
1000
0000
,
0001
0000
0010
0000
0100
1000
0010
0000
,
0001
0010
1000
0000
0100
0001
0010
0000
,
0100
1000
0010
0000
1100
0000
0000
0000
,
0000
0000
0000
0000
,
0000
0000
1001
0000
,
0000
0000
0000
0000
,
0000
0000
0011
0000
,
0001
0000
1100
0000
,
0001
0000
1001
0000
,
1010
0000
0110
0011
,
1010
0011
0001
0010
,
0100
0000
1000
0001
0010
0000
0100
0000
,
0001
0000
0010
1000
0100
0000
1000
0000
,
0100
0000
0010
0100
0001
0000
0010
0000
,
0001
0000
1000
0100
0001
0000
0010
0000
,
0100
0000
0010
1000
0001
0000
0010
0000
,
0100
0000
1000
0001
0010
0000
0100
0000
,
0001
0000
0100
1000
0110
0000
0000
0100
,
0000
1000
0000
0010
0000
0100
0000
0010
,
0000
0100
0000
0010
0000
1000
0000
0001
,
0010
0100
0000
0010
1000
0100
0000
0001
,
0100
0010
0000
0001
0100
1000
0000
0010
,
0000
1000
0000
0010
0000
0100
0000
0001
,
0000
1000
0000
0001
0000
1000
0000
0010
,
0001
0100
0000
0010
0100
1000
0000
0010
,
0001
0100
0000
0001
0100
1000
0000
0110
;

//--------------- dance-single - B. M'Rey ----------------
#NOTES:
     dance-single:
     B. M'Rey:
     Hard:
     10:
     0,0,0,0,0:
0000
0000
0000
0000
,
0000
0000
0000
0000
,
0000
0000
0000
0000
,
0110
0000
0100
0000
0001
0000
0100
1000
,
0001
0000
0010
0000
0001
0000
0010
1000
,
0100
0000
0010
0000
0001
0000
1000
0100
,
0001
0000
1000
0000
0001
0000
0010
0001
,
0100
0000
1000
0000
0001
0010
1000
0000
,
1010
0000
0110
0000
0001
1000
0010
0000
,
0100
0010
0001
0000
0100
1000
0001
0000
,
0001
0010
0100
0000
0100
1000
0010
0000
,
0010
1000
0001
0000
0101
0000
0011
0000
,
1100
0000
0101
0000
0001
0100
0001
0000
,
0100
0010
0100
0000
0001
0010
0100
0000
,
0010
0100
0010
0000
0001
0100
0010
0000
,
0010
1000
0010
0000
0101
0000
0100
0000
,
0010
0000
0100
0000
0001
0010
0001
1000
,
0100
0010
0001
0000
0011
0000
1100
0000
,
0110
0000
0011
0000
0100
1000
0100
0010
,
0100
0010
0001
0000
1010
0000
0110
0000
,
0011
0000
1001
0000
0001
0100
0010
0100
,
0001
1000
0010
0000
0110
0000
0010
1000
,
0100
0010
0100
0000
0110
0000
0001
1000
,
0010
0100
0010
0100
0202
0000
0000
0000
,
0000
0000
0000
0300
1003
0000
0000
0000
,
0010
0000
0100
0001
,
0100
0001
0100
0000
,
0010
0000
1000
0010
,
1000
0010
0100
0000
,
0001
0000
0010
0100
,
0010
0100
0001
0000
,
1000
0000
0010
0100
,
0001
0000
0010
0000
0001
1000
0100
0000
,
0001
0100
0001
0000
0001
1000
0100
0000
,
0100
1000
0001
0000
0001
0100
0010
0000
,
0010
1000
0100
0000
0010
0100
0010
0000
,
0010
1000
0001
0000
0010
0100
0010
0000
,
0001
1000
0100
0000
0001
0010
0100
0000
,
0100
1000
0010
0000
0010
0100
0001
0000
,
0001
0100
0001
0000
0010
0100
0001
0000
,
0001
1000
0010
0000
0110
0000
1001
0000
,
0110
0000
0010
0001
0100
0000
1010
0000
,
0101
0000
0100
0001
0010
0000
1100
0000
,
0011
0000
0010
1000
0100
0000
1000
0001
,
0100
0000
0010
1000
0110
0000
0011
0000
,
0101
0000
1000
0001
1010
0000
0110
0000
,
0011
0000
1000
0100
0011
0000
1100
0000
,
0011
0000
0010
0100
0001
0000
0100
0001
,
0010
0000
1000
0100
0010
0000
1000
0000
,
0001
0010
0001
0000
,
0000
0000
0010
1000
,
0010
1000
0001
0000
,
0000
0000
0001
1000
,
0010
1000
1010
0000
,
0001
0100
0101
0000
,
0110
0000
1010
0000
,
0101
0000
0000
0000
0001
0010
0100
0000
,
0001
0100
0001
0000
0010
0100
0001
0000
,
0010
1000
0100
0000
0100
0010
0001
0000
,
0100
1000
0010
0000
1010
0000
0110
0000
,
0101
0000
1001
0000
0001
1000
0010
0000
,
0010
1000
0100
0000
0001
1000
0001
0000
,
0010
0100
0010
0000
0100
1000
0100
0000
,
0001
0100
0010
0000
0101
0000
0000
0100
,
0010
0100
0000
0100
0010
0001
0000
0001
,
0010
0001
0000
0100
1000
0001
0000
0100
,
0010
0001
0100
0001
0010
0001
1000
0010
,
1000
0100
0010
0100
1000
0001
0100
0001
,
0100
0010
0000
0001
0100
0001
0000
0010
,
0100
0001
0000
0100
1000
0100
0000
0001
,
0100
0010
0100
0001
0010
0001
1000
0001
,
0010
0100
1000
0100
0010
0100
1000
0010
;

//--------------- dance-double - B. M'Rey ----------------
#NOTES:
     dance-double:
     B. M'Rey:
     Easy:
     5:
     0,0,0,0,0:
00000000
00000000
00000000
00000000
,
00000000
00000000
00000000
00000000
,
00000000
00000000
00000000
00000000
,
00010000
00000000
00000000
00000000
,
00001000
00000000
00000000
00000000
,
01000000
00000000
00010000
00000000
,
01010000
00000000
00100000
00000000
,
00001000
00000000
01000000
00000000
,
01010000
00000000
00100000
00000000
,
00001000
00000000
00010000
00000000
,
00000100
00000000
00000010
00000000
,
00000100
00000000
00001000
00000000
,
00000001
00000000
00001010
00000000
,
00000100
00000000
00010000
00000000
,
00001000
00000000
00100000
00000000
,
00001000
00000000
00001010
00000000
,
00000000
00000000
00000001
00000000
,
00000010
00000000
00001000
00000001
,
00001000
00000001
00000100
00000000
,
00010000
00000000
00000100
00010000
,
00000100
00010000
00001000
00000000
,
00100000
00000000
01000000
00100000
,
01000000
00100000
00001000
00000000
,
00000010
00000000
10010000
00000000
,
00000000
00000000
00010000
00000000
,
00000000
00000000
00000000
00000000
,
00000000
00000000
10000000
00000000
,
00000000
00000000
00000000
00000000
,
00000000
00000000
00100000
00000000
,
00000000
00000000
00000000
00000000
,
00000000
00000000
01000000
00000000
,
00000000
00000000
00000000
00000000
,
00000000
00000000
01010000
01000000
,
00001000
00000000
00010000
00000010
,
00010000
00000000
00000100
00010000
,
00000100
00000000
00001000
00000001
,
00001000
00000000
00000010
00000100
,
00000010
00000000
00010000
00000100
,
00010000
00000000
00001000
00100000
,
00001000
00000000
00010000
00001000
,
00010000
00000000
01001000
00000000
,
00000000
00000000
10100000
00000000
,
00000000
00000000
11000000
00000000
,
00000000
00000000
00001010
00000000
,
00000000
00000000
10100000
00000000
,
10000000
00000000
00010000
00000000
,
00010000
00000000
01000000
00000000
,
01000000
00000000
00010000
00000000
,
00000100
00000000
00001000
00000000
,
00000000
00000000
00000000
00000000
,
00000000
00000000
00000001
00000000
,
00000000
00000000
00000000
00000000
,
00000000
00000000
00000010
00000000
,
00000000
00000000
00000101
00000000
,
00000000
00000000
00001100
00000000
,
00000000
00000000
00011000
00000000
,
00000000
00000000
00010000
00000000
,
00000010
00000000
00001000
00000000
,
00000100
00000000
00010000
00000000
,
00001000
00000000
01000000
00000000
,
00001000
00000000
00100000
00000000
,
00010000
00000000
10000000
00000000
,
00010000
00000000
00100000
00000000
,
00001000
00000000
11000000
00000000
;

//--------------- dance-double - B. M'Rey ----------------
#NOTES:
     dance-double:
     B. M'Rey:
     Medium:
     8:
     0,0,0,0,0:
00000000
00000000
00000000
00000000
,
00000000
00000000
00000000
00000000
,
00000000
00000000
00000000
00000000
,
00011000
00000000
00000000
00000000
,
01000000
00000000
00000000
00000000
,
00001010
00000000
00000000
00000000
,
01000010
00000000
00001000
00000000
,
00101000
00000000
10010000
00000000
,
10100000
00000000
00100000
10000000
,
00010000
01000000
00010000
01000000
,
00010000
00100000
00001000
00010000
,
00001000
00010000
00000100
00000010
,
00000100
00000000
00010000
00000100
00001000
00000000
00000010
00000000
,
00000001
00000100
00000001
00001000
,
00000010
00001000
00000100
00010000
,
00000010
00010000
00010010
00000000
,
00000101
00000000
00000001
00001000
,
00000100
00000000
00001000
00000000
00000001
00000010
00001000
00000000
,
00000010
00010000
00000100
00000000
00001000
00000000
00100000
00000000
,
00001000
00000000
01000000
00000000
00010000
01000000
00100000
00000000
,
10000000
00010000
01000000
00000000
00001000
00000000
00010000
00000000
,
00000100
00000000
00010000
00000000
00001000
01000000
00100000
00000000
,
00010000
10000000
01000000
00000000
00100000
00000000
01000000
00000000
,
00001000
01000000
00002000
00000000
,
00000200
00000000
00103300
00000000
,
00000000
00000000
00001000
00000000
,
00000000
00000000
00010000
00000000
,
00000000
00000000
00000100
00000000
,
00000000
00000000
00000100
00000000
,
00000000
00000000
00010000
00000000
,
00000000
00000000
00010010
00000000
,
00000011
00000000
00011000
00000000
,
00010001
00000000
00001000
01000000
,
00001000
00100000
01000000
10000000
,
00010000
00100000
00010000
10000000
,
01000000
00100000
00001000
00010000
,
00000100
00001000
00000010
00001000
,
00000100
00010000
00001000
00010000
,
00000100
00010000
00001000
01000000
,
00100000
10000000
00010000
01000000
,
00001000
00000000
00010000
00000000
00000100
00000010
00001000
00000000
,
00000010
00000000
00110000
00000000
10000000
00010000
01000000
00000000
,
00001000
00000000
01010000
00000000
00000010
00001000
00000100
00000000
,
00000001
00000000
00001100
00000000
00000001
00000100
00000010
00000000
,
00010000
00001000
01000000
00000000
00001000
01000000
10000000
00000000
,
00010000
00000000
10000000
00000000
01000000
00010000
00100000
00000000
,
00001000
00000000
00010000
00000000
00000100
00001000
00000010
00000000
,
00000001
00000010
00001000
00000000
00000001
00000100
00010000
00000000
,
00001000
00100000
00010000
00000000
00101000
00000000
00000000
00000000
,
00000000
00000000
00000000
00000000
,
00000000
00000000
00010100
00000000
,
00000000
00000000
00000000
00000000
,
00000000
00000000
00101000
00000000
,
00001000
00000000
00110000
00000000
,
00001000
00000000
00011000
00000000
,
00010010
00000000
00000110
11000000
,
00000101
01010000
00010000
00100000
,
01000000
00000000
10000000
00010000
00100000
00000000
01000000
00000000
,
00010000
00000000
10000000
01000000
00001000
00000000
01000000
00000000
,
00001000
00000000
00010000
00001000
00000100
00000000
00010000
00000000
,
00000100
00000000
00001000
00000001
00000100
00000000
00000010
00000000
,
00000001
00000000
00000010
00001000
00000010
00000000
00010000
00000000
,
00001000
00000000
01000000
00010000
00100000
00000000
00001000
00000000
,
00000010
00000000
00001000
00100000
00011000
00000000
00000000
00001000
,
00000000
00100000
00000000
00010000
00000000
01000000
00000000
00010000
,
00000000
01000000
00000000
00010000
00000000
00100000
00000000
00001000
,
00010000
00000100
00000000
00010000
00000010
00000100
00000000
00000001
,
00000100
00001000
00000000
00000001
00000100
00001000
00000000
00000010
,
00000000
00001000
00000000
00000010
00000000
00010000
00000000
00001000
,
00000000
01000000
00000000
00001000
00000000
01000000
00000000
00100000
,
00010000
10000000
00000000
00100000
10000000
01000000
00000000
00100000
,
00001000
00010000
00000000
00001000
00010000
00100000
00000000
00010100
;

//--------------- dance-double - B. M'Rey ----------------
#NOTES:
     dance-double:
     B. M'Rey:
     Hard:
     10:
     0,0,0,0,0:
00000000
00000000
00000000
00000000
,
00000000
00000000
00000000
00000000
,
00000000
00000000
00000000
00000000
,
00011000
00000000
00001000
00000000
,
00001000
00000000
01000000
00000000
,
01001000
00000000
00001000
00000000
,
01100000
00000000
10000000
00000000
00010000
00000000
00100000
00010000
,
01000000
00000000
10000000
00000000
00010000
00100000
01000000
00000000
,
01100000
00000000
00010100
00000000
00000001
00001000
00000010
00000000
,
00000100
00000010
00000001
00000000
00000100
00001000
00000001
00000000
,
00000001
00001000
00000100
00000000
00000100
00010000
00000010
00000000
,
00000010
00010000
00001000
00000000
00101000
00000000
00011000
00000000
,
10010000
00000000
00010100
00000000
00000100
00010000
00000100
00000000
,
00010000
00000010
00010000
00000000
00001000
01000000
00100000
00000000
,
01000000
00100000
01000000
00000000
00001000
00010000
00000010
00000000
,
00000010
00001000
00000010
00000000
00011000
00000000
00010000
00000000
,
00000100
00000000
00010000
00000000
00001000
00100000
00001000
01000000
,
00100000
10000000
00010000
00000000
10010000
00000000
00000101
00000000
,
00001001
00000000
00001010
00000000
00000100
00000010
00000100
00010000
,
00000100
00010000
00001000
00000000
01010000
00000000
01100000
00000000
,
01001000
00000000
00101000
00000000
00001000
00010000
00000010
00010000
,
00001000
01000000
00010000
00000000
10010000
00000000
00010000
00100000
,
00001000
00010000
00001000
00000000
00011000
00000000
00000010
00001000
,
00000100
00010000
00000100
00010000
00022000
00000000
00000000
00000000
,
00000000
00000000
00000000
00030000
00103000
00000000
00000000
00000000
,
00001000
00000000
01000000
00000000
,
10000000
00000000
01100000
00000000
,
10000000
00000000
00100000
00000000
,
01000000
00000000
00001010
00000000
,
00000001
00000000
00000010
00000000
,
00000001
00000000
00001100
00000000
,
00010010
00000000
00010100
00000000
,
00011000
00000000
00000000
00000000
00001000
00100000
01000000
00000000
,
00010000
01000000
00010000
00000000
00010000
10000000
01000000
00000000
,
01000000
10000000
00100000
00000000
00100000
01000000
00001000
00000000
,
00001000
00010000
00000010
00000000
00000100
00000010
00000100
00000000
,
00000100
00000010
00000001
00000000
00001000
00000100
00001000
00000000
,
00000001
00000100
00000010
00000000
00000001
00001000
00000100
00000000
,
00000100
00010000
00001000
00000000
00001000
00100000
00010000
00000000
,
00010000
00100000
00010000
00000000
01000000
00001000
00000010
00000000
,
00000010
00010000
00001000
00000000
01001000
00000000
00001001
00000000
,
11000000
00000000
10000000
00010000
01000000
00000000
10100000
00000000
,
01010000
00000000
01000000
00010000
00100000
00000000
00001010
00000000
,
00000101
00000000
00000100
00001000
00000001
00000000
00001000
00000100
,
00010000
00000000
00001000
00100000
00011000
00000000
00001010
00000000
,
00000110
00000000
00010000
00000010
00011000
00000000
00010100
00000000
,
00011000
00000000
00100000
01000000
00011000
00000000
11000000
00000000
,
00011000
00000000
00001000
00100000
00010000
00000000
00100000
00010000
,
10000000
00000000
01000000
00001000
01001000
00000000
00000000
00000000
,
00000000
00000000
00000000
00000000
,
00000000
00000000
01100000
00000000
,
00000000
00000000
00000000
00000000
,
00000000
00000000
10100000
01000000
,
00010000
01000000
01010000
00000000
,
00001000
00010000
00011000
00000000
,
00010100
00000000
00000110
00000000
,
00000101
00000000
00000000
00000000
00000001
00000010
00010000
00000000
,
00000100
00010000
00000100
00000000
00001000
00000001
00000010
00000000
,
00001000
00000100
00000001
00000000
00000001
00001000
00000100
00000000
,
00000010
00001000
00000010
00000000
00001010
00000000
00010010
00000000
,
00011000
00000000
00101000
00000000
00001000
00100000
00010000
00000000
,
00010000
00100000
01000000
00000000
00001000
00100000
00001000
00000000
,
00010000
00000100
00010000
00000000
00000100
00001000
00000100
00000000
,
00000001
00000100
00010000
00000000
00000101
00000000
00000000
00000001
,
00010000
00000001
00000000
00000001
00010000
00001000
00000000
00001000
,
00010000
00001000
00000000
01000000
00100000
00001000
00000000
01000000
,
00100000
00010000
01000000
00010000
10000000
00010000
00100000
01000000
,
00100000
00001000
01000000
00001000
00010000
00000010
00001000
00000010
,
00001000
00000100
00000000
00000010
00001000
00000010
00000000
00010000
,
00001000
00000010
00000000
00001000
01000000
00001000
00000000
00010000
,
10000000
01000000
10000000
00010000
00100000
00010000
10000000
00010000
,
01000000
00100000
10000000
00100000
01000000
00100000
10000000
00010000
;
