#TITLE:Shining Dream;
#ARTIST:MAGIC Project;
#GENRE:STYLISH;
#CREDIT:B. M'Rey;
#MUSIC:Shining Dream.ogg;
#BANNER:Shining Dream.png;
#BACKGROUND:Shining Dream-bg.png;
#CDTITLE:./CDTITLES/KEYBOARDMANIA.png;
#SAMPLESTART:3.087;
#SAMPLELENGTH:12;
#OFFSET:-0.379;
#BPMS:0=155.081;

//--------------- dance-single - B. M'Rey ----------------
#NOTES:
     dance-single:
     B. M'Rey:
     Beginner:
     1:
     0,0,0,0,0:
0000
0000
0000
0000
,
0000
0000
0000
1000
,
0000
0001
0000
0000
,
0000
0100
0000
0000
,
0000
0010
0000
0000
,
0000
1001
0000
1000
,
0000
0010
0000
0000
,
0000
0100
0000
0000
,
0000
0001
0000
0000
,
0000
0000
0000
1000
,
0000
0010
0000
0000
,
0000
0100
0000
0000
,
0000
0010
0000
0000
,
0000
0001
0000
0000
,
0000
1000
0000
0000
,
0000
0010
0000
0000
,
0000
0100
0000
0000
,
0000
0001
0000
0000
,
0000
1000
0000
1000
,
0000
0001
0000
0001
,
0000
0100
0000
0100
,
0000
0110
0000
0000
,
0000
0001
0000
0000
,
0000
0010
0000
0000
,
0000
0100
0000
0000
,
0000
0010
0000
0000
,
0000
1000
0000
0000
,
0000
0001
0000
0000
,
0000
0010
0000
0000
,
0000
0001
0000
0000
,
0000
0100
0000
0000
,
0000
0010
0000
0000
,
0000
1000
0000
0000
,
0000
0100
0000
0000
,
0000
1000
0000
0000
,
0000
0010
0000
0000
,
0000
0100
0000
0000
,
0000
0010
0000
0000
,
0000
0001
0000
1000
,
0000
0010
0000
0000
,
0000
0100
0000
0000
,
0000
0010
0000
0000
,
0000
0001
0000
1000
,
0000
0100
0000
0000
,
0000
0010
0000
0000
,
0000
0001
0000
0000
,
0000
0000
0000
1000
,
0000
0010
0000
0000
,
0000
0100
0000
0000
,
0000
0010
0000
1000
,
0000
0001
0000
0000
,
0000
0100
0000
0000
,
0000
0010
0000
0000
,
0000
1000
0000
0000
,
0000
0001
0000
0000
,
0000
0100
0000
0100
,
0000
0010
0000
0010
,
0000
1001
0000
1001
;

//--------------- dance-single - B. M'Rey ----------------
#NOTES:
     dance-single:
     B. M'Rey:
     Easy:
     3:
     0,0,0,0,0:
0000
0000
0000
0000
,
0000
0000
0000
1000
,
0000
0001
0000
0010
,
0100
0010
0000
1000
,
0000
0010
0000
0100
,
0000
0001
0000
1000
,
0001
0100
0000
0001
,
0000
0010
0000
1000
,
0010
0100
0000
0020
,
0000
0000
0030
1000
,
0100
1000
0000
0001
,
0000
0010
0000
0100
,
0001
0010
0000
1000
,
0000
0020
0000
0030
,
0000
0100
0000
0001
,
0000
1000
0000
0010
,
0000
0200
0000
0000
,
0000
0300
0000
0000
,
0000
0001
1000
0001
,
0000
0010
0100
0010
,
0000
1000
0100
1000
,
0000
0101
0000
0000
,
0000
0010
0000
1000
,
0000
0001
0100
0010
,
0000
1000
0000
0010
,
0000
0100
0010
1000
,
0000
0001
0000
0100
,
0000
0010
0100
0001
,
0000
1000
0000
0010
,
0000
0100
0010
1000
,
0000
0001
0010
0100
,
0000
1000
0000
0001
,
0000
1000
0010
0100
,
0000
1000
0000
0010
,
0000
1000
0100
0010
,
0000
0001
0010
0100
,
0000
0010
0000
1000
,
0000
0010
0000
0100
,
0000
0000
0000
0001
,
1000
0010
0000
0100
,
0000
0001
0000
1000
,
0010
0100
0000
0010
,
0000
1000
0000
0001
,
0010
0001
0000
0100
,
0000
0010
0000
1000
,
0100
0001
0000
0010
,
0000
0000
0000
0100
,
1000
0100
0000
0001
,
0000
0010
0000
0100
,
0010
1000
0000
0001
,
0000
0010
0000
0001
,
0000
0100
0000
0010
,
0000
1000
0000
0010
,
0000
0001
0000
0000
,
0000
1000
0000
0000
,
0000
0001
0010
0001
,
0000
0100
0010
0100
,
0000
1000
0000
0001
;

//--------------- dance-single - B. M'Rey ----------------
#NOTES:
     dance-single:
     B. M'Rey:
     Medium:
     5:
     0,0,0,0,0:
0000
0000
0000
0000
,
0000
0000
0000
1000
,
0010
0000
0100
0000
0000
0001
0000
0000
,
0010
0100
0000
0010
,
0100
0001
1000
0010
,
0100
0101
0000
1000
,
0100
0000
1000
0000
0000
0010
0000
0000
,
0100
0010
0000
0001
,
0010
0100
0000
2020
,
0000
0000
3030
0001
,
0010
0000
0001
0000
0000
0100
0000
0000
,
0010
1000
0010
0001
,
0100
0010
1000
0100
,
0001
0020
0000
0130
,
1000
0000
0100
0000
0000
0001
0000
0000
,
0010
0100
0000
0110
,
0000
2002
0000
0000
,
0000
3003
0000
0010
,
0000
1000
0100
1000
,
0001
0010
0001
0100
,
0010
1000
0100
1000
,
0001
0110
0000
0000
,
0000
0000
0001
0000
0010
0000
0001
1000
,
0100
0000
0010
0000
1000
0001
0100
0000
,
0000
0000
0001
0000
0010
0000
0001
0010
,
0100
0010
1000
0110
,
0000
0000
0001
0000
1000
0000
0100
0001
,
0010
0000
1000
0000
0100
1000
0001
0000
,
0000
0000
0010
0000
0001
0000
0100
0001
,
0010
1000
0100
0101
,
0000
0110
0000
1010
,
0000
0100
0001
0010
,
0000
0100
0001
0100
,
0010
2000
0000
3000
,
0010
0001
1000
1010
,
0000
0100
0010
0101
,
0000
0010
1000
0100
,
0001
0010
0000
0202
,
0000
0000
0303
0010
,
1000
0000
0100
0000
0000
0001
0000
0000
,
0010
0100
0000
1000
,
0100
0010
1000
0001
,
0100
0010
0000
1000
,
0100
0000
0001
0000
0000
0010
0000
0000
,
0100
0010
0000
1000
,
0100
0001
0000
2002
,
0000
0000
3003
0010
,
0100
0000
0001
0000
0000
0010
0000
0000
,
0001
1000
0010
0100
,
0010
0001
0010
1000
,
0100
0002
0000
1003
,
0010
0000
0001
0000
0000
0100
0000
0000
,
0010
1000
0000
0110
,
0000
2002
0000
0000
,
0000
3003
0000
0100
,
0000
1000
0100
1000
,
0010
0100
0001
0010
,
0100
0000
0110
0000
0000
0101
0000
0000
;

//--------------- dance-single - B. M'Rey ----------------
#NOTES:
     dance-single:
     B. M'Rey:
     Hard:
     7:
     0,0,0,0,0:
0000
0000
0000
0000
,
0000
0000
0000
0000
0000
0000
0001
0010
,
0100
0010
0100
0000
0010
1000
0000
1000
,
0001
0000
1001
0000
0010
0000
0100
0010
,
0100
0010
0001
0010
,
0001
0000
0100
0000
0001
0000
0100
1000
,
0001
0100
0001
0000
0001
0100
0000
0100
,
0010
0000
0110
0000
0001
0000
0100
0010
,
0100
1000
0010
0000
0001
0010
0002
0000
,
1000
0000
1000
0000
1003
0000
0010
0100
,
0001
0010
0001
0000
0001
0010
0000
0010
,
0001
1001
0110
1010
,
0101
0000
0010
0100
0010
0000
0001
0000
,
0010
0001
0010
1000
,
0010
0100
0001
0000
0100
1000
0000
0010
,
0001
0000
0110
0000
0001
0000
0001
1000
,
0001
0000
0020
0000
0001
0001
0000
1000
,
1000
0031
1000
0010
,
0100
0000
0100
1000
0010
0000
0001
0010
,
0001
0000
0100
1000
0100
0000
0010
1000
,
0001
0000
0100
0010
0001
0000
0001
1000
,
0100
1100
0000
0000
,
0000
0100
0010
0000
0001
0100
0001
0100
,
0010
0000
0001
0010
0001
0100
0001
0000
,
0010
0000
0100
0000
1000
0000
0100
0010
,
0001
0000
0100
1000
0001
0010
0100
0000
,
0001
0000
0100
0000
0010
0000
0010
0100
,
0010
0000
0100
1000
0001
0010
0100
0000
,
1000
0000
0010
0000
0001
0000
0001
0100
,
0010
0000
0100
0010
0001
0100
0010
0000
,
0010
0000
0001
0000
0001
0100
0010
0000
,
0100
0000
0010
0100
0001
0010
0001
0000
,
0001
0100
0010
0000
0010
0100
0001
0000
,
0010
1000
0100
0000
1000
0000
0001
0000
,
1100
0000
0001
0100
0000
0010
0001
0000
,
0001
0010
0100
0000
0001
0010
0100
0000
,
0001
0010
0001
0100
,
0010
1000
0010
0000
0001
0000
0020
0000
,
0000
0000
0031
0000
0000
0000
1000
0100
,
0010
0100
0010
0000
0100
0001
0000
0001
,
1000
0000
1001
0000
0100
0000
0010
0100
,
0010
0100
1000
0100
,
1000
0000
0010
0000
1000
0000
0010
0001
,
1000
0010
1000
0000
1000
0010
0000
0010
,
0100
0000
0110
0000
1000
0000
0010
0100
,
0010
0001
0100
0000
1000
0100
2000
0000
,
0001
0000
0001
0000
3001
0000
0100
0010
,
1000
0100
1000
0000
1000
0100
0000
0100
,
1000
1001
0110
0101
,
1010
0000
0100
0010
0100
0000
1000
0000
,
0100
1000
0100
0001
,
0100
0010
1000
0000
0010
0001
0000
0100
,
1000
0000
0110
0000
1000
0000
1000
0001
,
1000
0000
0200
0000
1000
1000
0000
0001
,
0001
1300
0001
0100
,
0010
0000
0010
0001
0100
0000
1000
0100
,
1000
0000
0010
0001
0010
0000
0100
0001
,
1000
0000
0010
0000
0000
1001
0000
0000
;

//--------------- dance-double - B. M'Rey ----------------
#NOTES:
     dance-double:
     B. M'Rey:
     Easy:
     2:
     0,0,0,0,0:
00000000
00000000
00000000
00000000
,
00000000
00000000
00000000
00010000
,
00000000
00001000
00000000
00100000
,
00010000
00100000
00000000
01000000
,
00000000
00001000
00000000
00010000
,
00000000
00000100
00000000
00000010
,
00000100
00001000
00000000
00000100
,
00000000
00000010
00000000
00010000
,
00001000
00100000
00000000
00002000
,
00000000
00000000
00003000
01000000
,
00010000
01000000
00000000
00001000
,
00000000
00100000
00000000
01000000
,
00010000
00100000
00000000
10000000
,
00000000
00200000
00000000
00300000
,
00000000
01000000
00000000
00010000
,
00000000
10000000
00000000
00100000
,
00000000
00002000
00000000
00000000
,
00000000
00003000
00000000
00000000
,
00000000
00010000
00000000
00010000
,
00000000
00000100
00000000
00000100
,
00000000
00001000
00000000
00001000
,
00000000
00001001
00000000
00000000
,
00000000
00000001
00000000
00000010
,
00000000
00000100
00010000
00000010
,
00000000
00001000
00000000
00000010
,
00000000
00000100
00000010
00010000
,
00000000
00001000
00000000
01000000
,
00000000
00010000
01000000
00001000
,
00000000
00100000
00000000
00010000
,
00000000
10000000
00010000
01000000
,
00000000
00001000
00010000
00000100
,
00000000
00001000
00000000
00000010
,
00000000
00001000
00000001
00000100
,
00000000
00001000
00000000
00000001
,
00000000
00001000
00000010
00010000
,
00000000
00000100
00010000
00001000
,
00000000
00010000
00000000
01000000
,
00000000
00010000
00000000
00000010
,
00000000
00000000
00000000
00000100
,
00000000
00000001
00000000
00000000
,
00000000
00001000
00000000
00000000
,
00000000
00000010
00000000
00000000
,
00000000
11000000
00000000
01000000
,
00100000
01000000
00000000
10000000
,
00000000
00010000
00000000
00100000
,
00001000
01000000
00000000
20000000
,
00000000
30000000
00000000
00010000
,
00100000
00010000
00000000
00001000
,
00000000
00010000
00000000
00000010
,
00010000
00001000
00000000
00000100
,
00000000
00000010
00000000
00000100
,
00000000
00010000
00000000
00001000
,
00000000
01000000
00000000
00001000
,
00000000
00200000
00000000
00000000
,
00000000
00300000
00000000
00000000
,
00000000
10000000
00000000
10000000
,
00000000
00010000
00000000
00010000
,
00000000
00001001
00000000
00001001
;

//--------------- dance-double - B. M'Rey ----------------
#NOTES:
     dance-double:
     B. M'Rey:
     Medium:
     4:
     0,0,0,0,0:
00000000
00000000
00000000
00000000
,
00000000
00000000
00000000
00010000
,
00000100
00000000
00001000
00000000
00000000
00000010
00000000
00000000
,
00010000
00000100
00000000
00010000
,
00000100
00000001
00001000
00000010
,
00000001
10100000
00000000
01000000
,
00001000
00000000
01000000
00000000
00000000
00100000
00000000
00000000
,
10000000
00100000
00000000
00010000
,
00100000
10000000
00000000
02200000
,
00000000
00000000
03300000
00010000
,
10000000
00000000
00010000
00000000
00000000
01000000
00000000
00000000
,
00001000
00010000
00001000
00000010
,
00001000
00000100
00010000
00001000
,
00000010
00002000
00000000
00003100
,
00010000
00000000
00000100
00000000
00000000
00001000
00000000
00000000
,
01000000
00010000
00000000
01010000
,
00000000
00022000
00000000
00000000
,
00000000
00033000
00000000
00000010
,
00000000
00000001
00001000
00000001
,
00000000
00000010
00000100
00000010
,
00000000
00001000
00000100
00001000
,
00000000
01010000
00000000
00000000
,
00000000
00000000
00010000
00000000
00100000
00000000
00010000
10000000
,
01000000
00000000
00010000
00000000
00100000
00001000
01000000
00000000
,
00000000
00000000
00001000
00000000
00010000
00000000
00001000
00010000
,
00000100
00010000
01000000
00001010
,
00000000
00000000
00000001
00000000
00001000
00000000
00000100
00000010
,
00001000
00000000
00010000
00000000
00000100
00010000
00001000
00000000
,
00000000
00000000
00100000
00000000
00001000
00000000
01000000
00001000
,
00100000
00010000
00000010
01001000
,
00000000
01100000
00000000
10100000
,
00000000
01000000
00001000
00010000
,
00000000
00000100
00000001
00000100
,
00000010
00002000
00000000
00003000
,
00000010
00000100
00010000
00011000
,
00000000
01000000
00001000
01100000
,
00000000
00010000
00100000
00001000
,
00010000
10000000
00000000
00220000
,
00000000
00000000
00330000
00010000
,
01000000
00001000
00000000
00010000
,
00000000
00000100
00000000
00000010
,
00000001
00000100
00000000
00000001
,
00000000
00001000
00000000
00001000
,
00000100
00000000
00000010
00000000
00000000
00010000
00000000
00000000
,
00000100
00010000
00000000
00001000
,
00000100
00000001
00000000
20200000
,
00000000
00000000
30300000
01000000
,
00100000
00000000
00010000
00000000
00000000
10000000
00000000
00000000
,
00010000
01000000
00001000
00010000
,
00001000
00000100
00001000
00100000
,
01000000
00020000
00000000
10030000
,
00100000
00000000
00001000
00000000
00000000
00010000
00000000
00000000
,
00000100
00000010
00000000
00010100
,
00000000
00002020
00000000
00000000
,
00000000
00003030
00000000
00010000
,
00000000
00000010
00001000
00000010
,
00000000
00000100
00000001
00000100
,
00000000
00001000
00000000
00000001
;

//--------------- dance-double - B. M'Rey ----------------
#NOTES:
     dance-double:
     B. M'Rey:
     Hard:
     6:
     0,0,0,0,0:
00000000
00000000
00000000
00000000
,
00000000
00000000
00000000
00000000
00000000
00000000
00000100
00001000
,
00010000
00001000
00010000
00000000
00001000
01000000
00000000
01000000
,
00010000
00000000
01010000
00000000
00100000
00000000
00001000
00100000
,
00001000
00100000
00010000
00100000
,
00010000
00000000
10000000
00000000
00010000
00000000
10000000
00100000
,
00010000
01000000
00010000
00000000
00010000
01000000
00000000
01000000
,
00100000
00000000
01100000
00000000
00010000
00000000
01000000
00100000
,
01000000
10000000
00100000
00000000
00010000
00100000
00020000
00000000
,
10000000
00000000
10000000
00000000
10030000
00000000
01000000
00100000
,
00001000
00010000
00001000
00000000
00001000
00010000
00000000
00010000
,
00001000
01001000
00001010
00010010
,
00000101
00000000
00000010
00000001
00000010
00000000
00000100
00000000
,
00000010
00000100
00000010
00001000
,
00000010
00000100
00000001
00000000
00000100
00010000
00000000
00001000
,
00000100
00000000
00011000
00000000
00000100
00000000
00000100
00001000
,
00000100
00000000
00000020
00000000
00000100
00000100
00000000
00001000
,
00001000
00000031
00001000
00000010
,
00000001
00001000
00000001
00001000
,
00000010
00010000
00000010
00001000
,
00000100
00010000
00001000
00010000
,
00000010
01001000
00000000
00000000
,
00000000
00001000
01000000
00000000
00010000
00100000
00010000
00100000
,
00001000
00000000
00010000
01000000
00010000
10000000
00010000
00000000
,
00100000
00000000
00001000
00000000
01000000
00000000
00001000
00010000
,
00000010
00000000
00000100
00001000
00000001
00000010
00010000
00000000
,
00001000
00000000
00010000
00000000
00000100
00000000
00000100
00000001
,
00000100
00000000
00000001
00001000
00000100
00010000
00001000
00000000
,
01000000
00000000
00100000
00000000
00010000
00000000
00010000
10000000
,
01000000
00000000
10000000
01000000
00100000
10000000
01000000
00000000
,
01000000
00000000
00001000
00000000
00001000
00010000
00000010
00000000
,
00010000
00000000
00000010
00010000
00001000
00100000
00001000
00000000
,
00001000
00010000
00000100
00000000
00000100
00010000
00000010
00000000
,
00000100
00001000
00000100
00000000
00001000
00000000
00000001
00000000
,
00011000
00000000
00000001
00010000
00000000
00001000
00000100
00000000
,
00000100
00001000
01000000
00000000
00010000
10000000
00100000
00000000
,
01000000
10000000
01000000
00100000
,
00001000
00010000
00001000
00000000
00000100
00000000
00002000
00000000
,
00000000
00003100
00000000
00001000
,
00010000
00000000
00000010
00000000
00000000
00000100
00000000
00000000
,
00000010
00000001
00000000
00001000
,
00000001
00000010
00001000
00000001
,
00000100
00000000
00010000
00000000
01000000
00000000
00010000
00001000
,
00100000
00010000
00100000
00000000
00100000
00010000
00000000
00010000
,
00000010
00000000
00010010
00000000
01000000
00000000
00010000
00000010
,
00010000
00001000
01000000
00000000
10000000
01000000
20000000
00000000
,
00010000
00000000
00010000
00000000
30010000
00000000
10000000
01000000
,
00100000
00001000
00100000
00000000
00100000
00001000
00000000
00001000
,
00100000
01100000
00001100
00001010
,
01010000
00000000
00000100
00010000
00000100
00000000
00001000
00000000
,
00000100
00001000
00000100
00000001
,
00000100
00010000
01000000
00000000
00010000
00000010
00000000
00000100
,
00001000
00000000
00000101
00000000
00001000
00000000
00001000
00000010
,
00001000
00000000
00000200
00000000
00001000
00001000
00000000
00000001
,
00000001
00001300
00000010
00010000
,
00001000
01000000
00100000
01000000
,
00010000
00100000
01000000
10000000
,
00010000
00000000
10010000
00000000
00000000
00010010
00000000
00000000
;
