#TITLE:STAY;
#SUBTITLE:(Mod bouncy Version);
#ARTIST:TOMOSUKE;
#GENRE:BOUNCY TECHNO;
#CREDIT:B. M'Rey;
#MUSIC:STAY (Mod bouncy Version).ogg;
#BANNER:STAY (Mod bouncy Version)-bn.png;
#BACKGROUND:STAY (Mod bouncy Version)-bg.png;
#CDTITLE:./CDTITLES/Dance Maniax.png;
#SAMPLESTART:46.35;
#SAMPLELENGTH:12;
#OFFSET:-0.030;
#BPMS:0=125;

//--------------- dance-single - B. M'Rey ----------------
#NOTES:
     dance-single:
     B. M'Rey:
     Beginner:
     1:
     0,0,0,0,0:
0000
0000
0000
0000
,
0000
0000
0000
0000
,
0000
0000
0000
0000
,
0000
0000
0000
0000
,
0000
0001
0000
0000
,
0000
0100
0000
0000
,
0000
0010
0000
0000
,
0000
1000
0000
0000
,
0000
1001
0000
0010
,
0000
0001
0000
0100
,
0000
0010
0000
0100
,
0000
1000
0000
0010
,
0000
0100
0000
0001
,
0000
0010
0000
0001
,
0000
0100
0000
0010
,
0000
1000
0000
0100
,
0000
0011
0000
1000
,
0000
0010
0000
0100
,
0000
0010
0000
0100
,
0000
0001
0000
0010
,
0000
1000
0000
0010
,
0000
0100
0000
0010
,
0000
1001
0000
0000
,
0000
0000
0000
0000
,
0000
1000
0000
0000
,
0001
1000
0000
0010
,
0000
0100
0000
0000
,
1000
0001
0000
0100
,
0000
0010
0000
0000
,
0000
1000
0000
0000
,
0000
0001
0000
0000
,
0000
0100
0000
0000
,
0000
0110
0000
0000
,
0001
1000
0000
0010
,
0000
0100
0000
0000
,
1000
0010
0000
0100
,
0000
0001
0000
0000
,
0000
0100
0000
0000
,
0000
0010
0000
0000
,
0000
1000
0000
0000
,
0000
1001
0000
0000
,
0000
0010
0000
0000
,
0000
0100
0000
0000
,
0000
0001
0000
0000
,
0000
1000
0000
0000
;

//--------------- dance-single - B. M'Rey ----------------
#NOTES:
     dance-single:
     B. M'Rey:
     Easy:
     2:
     0,0,0,0,0:
0000
0000
0000
0000
,
0000
0000
0000
0000
,
0000
0000
0000
0000
,
0000
0000
0000
0000
,
0000
1000
0000
0001
,
0000
0010
0000
0100
,
0000
0010
0000
1000
,
0000
0001
0000
1000
,
0000
1001
0010
0100
,
0001
0000
0001
0010
,
0100
0000
0100
0010
,
0001
0100
0000
0100
,
0000
1000
0000
1000
,
0001
0100
0000
1000
,
0001
1000
0000
1000
,
0001
0010
0000
0100
,
0000
1100
0000
1000
,
0010
0100
0000
0100
,
0010
1000
0000
0010
,
0000
0001
0000
0010
,
0000
1001
0000
1000
,
0001
0100
0000
1000
,
0000
0110
0000
0000
,
0000
0000
0000
0000
,
0000
0110
0000
1000
,
0010
0100
0000
1000
,
0000
0010
0000
1000
,
0010
0100
0000
0010
,
0000
1000
0010
1000
,
0000
0000
0010
0100
,
0000
0000
0010
0100
,
0000
0000
0100
1000
,
0000
0110
0000
1000
,
0100
1000
0000
0010
,
0000
1000
0000
1000
,
0010
1000
0000
0010
,
0000
1000
0100
0010
,
0000
1000
0001
1000
,
0000
0010
0001
0010
,
0000
0010
0100
1000
,
0000
1100
0000
0010
,
0000
1000
0000
0100
,
0000
1000
0000
0001
,
0000
0100
0000
0001
,
0000
1000
0000
0000
;

//--------------- dance-single - B. M'Rey ----------------
#NOTES:
     dance-single:
     B. M'Rey:
     Medium:
     4:
     0,0,0,0,0:
0000
0000
0000
0000
,
0000
0000
0000
0000
,
0000
0000
0000
0000
,
0000
0000
0000
0000
,
0000
1000
0000
0010
,
0000
0100
0010
0110
,
0000
0001
0000
1000
,
0000
0001
0010
0011
,
0000
1010
0000
0001
,
0100
0010
0000
0000
0000
1000
0100
0000
,
0010
0100
0000
0000
0000
0001
0100
0000
,
0010
0001
0000
0100
0000
0010
0000
1000
,
0000
0010
0100
0000
0000
0100
0010
0000
,
1000
0010
0000
0000
0000
0100
0001
0000
,
0010
0100
0000
0000
0000
1000
0100
0000
,
0001
0010
0100
0001
,
1000
0000
1001
0000
0000
0000
0010
1000
,
0100
0000
0101
0000
0000
0000
0010
0100
,
1000
0010
0100
0001
,
0010
0100
0001
1000
,
0010
0000
0110
0000
0000
0000
0001
1000
,
0010
0100
0010
1000
,
0000
1001
0000
0010
,
0000
0100
0000
0001
,
0000
1001
0010
0100
,
0001
0100
0000
0010
0000
1000
0000
0010
,
0000
0200
0000
0000
0300
0000
0000
1000
,
0001
0100
0000
0010
0000
1000
0000
0001
,
0000
0020
0000
0000
0130
0000
0010
0100
,
0000
0000
0001
0000
1000
0000
0001
1000
,
0000
0000
0010
0000
0100
0000
0010
0100
,
0000
0001
1000
0010
,
0100
0000
0101
0000
0010
0000
1000
0010
,
1000
0100
0000
0001
0000
0010
0000
1000
,
0000
0200
0000
0000
0300
0000
0000
0001
,
0100
0000
0010
0000
1000
0010
0000
0100
,
0000
0001
1000
0000
0010
0000
0100
0000
,
0001
0010
0001
1000
,
0010
0100
0010
0100
,
0001
0010
1000
0100
,
0001
0101
0000
1010
,
0000
0110
0000
0101
,
0000
0110
0000
1010
,
0000
1001
0000
0110
,
0000
0101
0000
1010
;

//--------------- dance-single - B. M'Rey ----------------
#NOTES:
     dance-single:
     B. M'Rey:
     Hard:
     6:
     0,0,0,0,0:
0000
0000
0000
0000
,
0000
0000
0000
0000
,
0000
0000
0000
0000
,
0000
0000
0000
0000
,
0000
0100
0010
1100
,
0000
0100
0010
0011
,
0000
0100
0010
1100
,
0000
0010
0100
0101
,
0000
0000
0110
0000
0000
0100
0000
1000
,
0001
0100
0010
0000
1000
0000
0010
1000
,
0001
0100
0001
0000
0010
0000
0100
1000
,
0010
0000
0100
0000
0001
0010
0100
0000
,
0100
1000
0100
0000
0001
0000
0001
1000
,
0100
1000
0010
0000
0001
0000
0100
0010
,
0100
1000
0100
0000
0001
0000
0100
1000
,
0001
1000
0100
0010
,
0100
1000
0001
0000
0100
0000
0100
1000
,
0001
0100
0010
0000
1000
0000
0001
0100
,
0001
1010
1100
0110
,
0100
0010
0000
0100
0000
1000
0010
0000
,
0001
0000
1001
0000
0001
0000
0100
0010
,
0001
1000
0000
0010
0001
1000
0001
0000
,
0010
0000
0110
0000
0001
0010
0001
0000
,
0000
0000
0001
0000
0001
1000
0010
0000
,
0000
0000
0101
0000
0010
0000
0001
0010
,
0001
0100
0000
1000
0000
0001
0000
0100
,
0000
0001
0100
0000
0001
0000
0100
0010
,
0100
0010
0000
1000
0000
0001
0000
0010
,
0000
0000
0100
0000
0001
0000
0000
0000
0100
0000
0010
0000
0001
0000
0000
0001
,
0000
0000
0010
0000
0001
0000
0100
0000
0010
0000
0100
0000
0001
0000
0000
0010
,
0000
0000
1000
0000
0010
0000
1000
0000
0100
0000
1000
0000
0000
0001
0000
0000
,
0100
0010
0001
0000
0100
1000
0100
0000
,
0100
0010
1001
0000
0100
0000
0001
1000
,
0010
0100
0000
0010
0000
0001
0000
0010
,
0000
0100
0010
0000
0001
0000
1000
0100
,
0010
0000
0100
0000
0001
0100
0000
0010
,
0000
0100
0020
0000
0100
0000
0100
0000
,
0031
0000
0001
0000
0001
0100
0000
0010
,
0000
1000
0001
0000
0001
0100
0010
0000
,
0001
1000
0100
0000
0001
0100
0010
0000
,
0010
0100
1001
0000
0010
0100
0000
1000
,
0001
0020
0000
0000
,
0000
0000
0031
0000
0010
1000
0000
1000
,
0100
0000
0100
0000
0010
1000
0010
0000
,
0001
0010
0000
0000
;

//--------------- dance-double - B. M'Rey ----------------
#NOTES:
     dance-double:
     B. M'Rey:
     Easy:
     2:
     0,0,0,0,0:
00000000
00000000
00000000
00000000
,
00000000
00000000
00000000
00000000
,
00000000
00000000
00000000
00000000
,
00000000
00000000
00000000
00000000
,
00000000
00001000
00000000
00000000
,
00000000
01000000
00000000
00000000
,
00000000
00010000
00000000
00000000
,
00000000
00100000
00000000
00000000
,
00000000
01100000
00001000
00010000
,
00000100
00000000
00000100
00001000
,
00000010
00000000
00000010
00001000
,
00000001
00000100
00000000
00000100
,
00000000
00010000
00000000
00010000
,
00001000
01000000
00000000
10000000
,
00010000
10000000
00000000
10000000
,
00100000
01000000
00000000
00010000
,
00000000
00110000
00000000
00100000
,
00001000
00010000
00000000
00010000
,
00001000
01000000
00000000
00001000
,
00000000
00000100
00000000
00001000
,
00000000
00000011
00000000
00000010
,
00000001
00000100
00000000
00001000
,
00000000
00010010
00000000
00000000
,
00000000
00000000
00000000
00000000
,
00000000
00010010
00000000
01000000
,
00010000
00000010
00000000
00001000
,
00000000
00000100
00000000
00001000
,
00000100
00010000
00000000
00000100
,
00000000
00001000
00000100
00001000
,
00000000
00000000
00000100
00010000
,
00000000
00000000
00000100
00010000
,
00000000
00000000
00010000
00100000
,
00000000
00011000
00000000
01000000
,
00100000
01000000
00000000
00001000
,
00000000
01000000
00000000
01000000
,
00001000
01000000
00000000
00001000
,
00000000
01000000
00010000
00100000
,
00000000
10000000
00010000
10000000
,
00000000
00100000
00010000
00100000
,
00000000
00100000
00001000
01000000
,
00000000
01010000
00000000
00000000
,
00000000
00001000
00000000
00000000
,
00000000
00010000
00000000
00000000
,
00000000
00000010
00000000
00000000
,
00000000
00001000
00000000
00000000
;

//--------------- dance-double - B. M'Rey ----------------
#NOTES:
     dance-double:
     B. M'Rey:
     Medium:
     4:
     0,0,0,0,0:
00000000
00000000
00000000
00000000
,
00000000
00000000
00000000
00000000
,
00000000
00000000
00000000
00000000
,
00000000
00000000
00000000
00000000
,
00000000
00010000
00000000
00001000
,
00000000
00100000
00000000
01000000
,
00000000
00100000
00000000
10000000
,
00000000
00010000
00000000
10000000
,
00000000
00001100
00000000
00000100
,
00010000
00000010
00000000
00000000
00000000
00001000
00000100
00000000
,
00000010
00000100
00000000
00000000
00000000
00000001
00000100
00000000
,
00001000
00000010
00000000
00010000
00000000
00001000
00000000
01000000
,
00000000
00001000
00010000
00000000
00000000
00010000
00001000
00000000
,
01000000
00001000
00000000
00000000
00000000
00100000
01000000
00000000
,
10000000
00010000
00000000
00000000
00000000
00100000
00010000
00000000
,
00001000
00010000
00000100
00000001
,
00001000
00000000
01100000
00000000
00000000
00000000
00010000
00100000
,
01000000
00000000
00000011
00000000
00000000
00000000
00001000
00000010
,
00010000
00000100
00001000
00000010
,
00010000
00000100
00000001
00001000
,
00000010
00000000
00000011
00000000
00000000
00000000
00000100
00010000
,
00001000
01000000
00001000
00100000
,
00000000
00110000
00000000
01000000
,
00000000
10000000
00000000
00010000
,
00000000
00110000
01000000
00001000
,
00000010
00001000
00000000
00010000
00000000
01000000
00000000
00010000
,
00000000
00000020
00000000
00000000
00000030
00000000
00000000
00001000
,
00000100
00010000
00000000
00001000
00000000
01000000
00000000
00010000
,
00000000
20000000
00000000
00000000
31000000
00000000
10000000
01000000
,
00000000
00000000
00010000
00000000
10000000
00000000
00010000
10000000
,
00000000
00000000
00100000
00000000
01000000
00000000
00100000
01000000
,
00000000
00010000
10000000
00100000
,
00001000
00000000
00000011
00000000
00000100
00000000
00010000
00000100
,
00010000
00001000
00000000
00000100
00000000
00001000
00000000
00010000
,
00000000
00002000
00000000
00000000
00003000
00000000
00000000
00000100
,
00001000
00000000
00000001
00000000
00000010
00000001
00000000
00001000
,
00000000
00000100
00010000
00000000
00001000
00000000
00100000
00000000
,
00010000
01000000
00010000
00100000
,
00001000
00010000
00001000
00010000
,
00000010
00001000
00010000
00001000
,
00000010
00011000
00000000
00000100
,
00000000
00010000
00000000
00000010
,
00000000
00010000
00000000
00001000
,
00000000
00100000
00000000
00001000
,
00000000
01000000
00000000
01010000
;

//--------------- dance-double - B. M'Rey ----------------
#NOTES:
     dance-double:
     B. M'Rey:
     Hard:
     6:
     0,0,0,0,0:
00000000
00000000
00000000
00000000
,
00000000
00000000
00000000
00000000
,
00000000
00000000
00000000
00000000
,
00000000
00000000
00000000
00000000
,
00000000
00010000
00000000
00000100
,
00000000
00001000
00000100
00001100
,
00000000
00000010
00000000
00010000
,
00000000
00000010
00001000
00001010
,
00000000
00000000
01010000
00000000
00000000
00001000
00000000
01000000
,
00100000
10000000
00010000
00000000
00100000
00000000
00010000
00100000
,
01000000
10000000
01000000
00000000
00100000
00000000
00001000
00010000
,
00000100
00000000
00001000
00000000
00000001
00000010
00000100
00000000
,
00000100
00001000
00000100
00000000
00000001
00000000
00000001
00001000
,
00000100
00001000
00000010
00000000
00000100
00000000
00010000
00001000
,
00010000
00100000
00010000
00000000
00001000
00000000
00010000
01000000
,
00001000
01000000
00010000
10000000
,
00010000
01000000
00001000
00000000
00010000
00000000
00010000
10000000
,
00100000
01000000
00001000
00000000
00010000
00000000
00000010
00001000
,
00000010
00110000
00101000
01001000
,
00001000
01000000
00000000
00001000
00000000
00010000
00000010
00000000
,
00000001
00000000
10010000
00000000
00010000
00000000
01000000
00100000
,
00001000
00010000
00000000
00000010
00000001
00001000
00000001
00000000
,
00000010
00000000
00001010
00000000
00000100
00010000
00000100
00000000
,
00000000
00000000
00000100
00000000
00000100
00001000
00000001
00000000
,
00000000
00000000
00110000
00000000
01000000
00000000
00010000
01000000
,
00010000
10000000
00000000
01000000
00000000
00010000
00000000
00100000
,
00000000
00010000
00100000
00000000
00010000
00000000
00100000
00001000
,
00100000
00001000
00000000
00010000
00000000
00000010
00000000
00001000
,
00000000
00000000
00000100
00000000
00000001
00000000
00000000
00000000
00000100
00000000
00001000
00000000
00000010
00000000
00000000
00000010
,
00000000
00000000
00001000
00000000
00000010
00000000
00010000
00000000
00000100
00000000
00010000
00000000
00001000
00000000
00000000
01000000
,
00000000
00000000
00100000
00000000
00010000
00000000
00100000
00000000
01000000
00000000
00100000
00000000
00000000
00001000
00000000
00000000
,
01000000
00010000
00001000
00000000
01000000
10000000
01000000
00000000
,
01000000
00010000
00011000
00000000
00000100
00000000
00000001
00001000
,
00000010
00000001
00000000
00000010
00000000
00000100
00000000
00000010
,
00000000
00000001
00000010
00000000
00000100
00000000
00010000
00001000
,
00100000
00000000
00001000
00000000
00000010
00001000
00000000
01000000
,
00000000
00001000
02000000
00000000
00001000
00000000
00001000
00000000
,
03010000
00000000
00010000
00000000
00010000
10000000
00000000
01000000
,
00000000
00100000
00010000
00000000
00010000
10000000
00100000
00000000
,
00010000
10000000
01000000
00000000
00010000
01000000
00001000
00000000
,
00001000
01000000
01010000
00000000
00000000
00000000
00010100
00000000
,
00000000
00001100
00000000
00001001
,
00000000
00001100
00000000
00010100
,
00000000
00010010
00000000
10100000
,
00000000
11000000
00000000
00000000
;
