#TITLE:PINK DREAM;
#ARTIST:PINK PONG;
#GENRE:TRANCE;
#CREDIT:B. M'Rey;
#MUSIC:PINK DREAM.ogg;
#BANNER:PINK DREAM-bn.png;
#BACKGROUND:PINK DREAM-BG.png;
#CDTITLE:./CDTITLES/Music From Beatmania.png;
#SAMPLESTART:45.722;
#SAMPLELENGTH:12;
#OFFSET:-0.070;
#BPMS:0=138;

//--------------- dance-single - B. M'Rey ----------------
#NOTES:
     dance-single:
     B. M'Rey:
     Beginner:
     1:
     0,0,0,0,0:
0000
0000
0000
0000
,
0000
0000
0000
0000
,
0000
1000
0000
0000
,
0000
0010
0000
0000
,
0000
0100
0000
0000
,
0000
0001
0000
0000
,
0000
0010
0000
0000
,
0000
0001
0000
0000
,
0000
0100
0000
0000
,
0000
0010
0000
0000
,
0000
1000
0000
0000
,
0000
0000
0000
0000
,
0000
0010
0000
0000
,
0000
0000
0000
0000
,
0000
0001
0000
0000
,
0000
0000
0000
0000
,
0000
0100
0000
0000
,
0000
0000
0000
0000
,
0000
0110
0000
0000
,
0000
0000
0000
0000
,
0000
1000
0000
0000
,
0000
0000
0000
0000
,
0000
0101
0000
0000
,
0000
0000
0000
0000
,
0000
0100
0000
0000
,
0000
0000
0000
0000
,
0000
1001
0000
0000
,
0000
0000
0000
0000
,
0000
0100
0000
0000
,
0000
0000
0000
0000
,
0000
0110
0000
0000
,
0000
0000
0000
0000
,
0000
0001
0000
1000
,
0000
0001
0000
1000
,
0000
0001
0000
1000
,
0000
0001
0000
0000
,
0000
1000
0000
0000
,
0000
0010
0000
0000
,
0000
0100
0000
0000
,
0000
0001
0000
0000
,
0000
0110
0000
0000
,
0000
1000
0000
0000
,
0000
0001
0000
0000
,
0000
0010
0000
0000
;

//--------------- dance-single - B. M'Rey ----------------
#NOTES:
     dance-single:
     B. M'Rey:
     Easy:
     1:
     0,0,0,0,0:
0000
0000
0000
0000
,
0000
0000
0000
0000
,
0000
1001
0000
0010
,
0000
0100
0000
0010
,
0000
0001
0000
1000
,
0000
0010
0000
0100
,
0000
0101
0000
0010
,
0000
1000
0000
0100
,
0000
0010
0000
1000
,
0000
0001
0000
0010
,
0000
0110
0000
0001
,
0000
1000
0000
0010
,
0000
0100
0000
0001
,
0000
0010
0000
0001
,
0000
0100
0000
1000
,
0000
0010
0000
0100
,
0000
0001
0000
1000
,
0000
0010
0000
0100
,
0000
0110
0000
0001
,
0000
1000
0000
0010
,
0000
0100
0000
0010
,
0000
0001
0000
1000
,
0000
0110
0000
0001
,
0000
0010
0000
0001
,
0000
0100
0000
0010
,
0000
1000
0000
0010
,
0000
0110
0000
0000
,
0000
0001
0000
0000
,
0000
1000
0000
0000
,
0000
0010
0000
0000
,
0000
0110
0000
0000
,
0000
0001
0000
0000
,
0000
1010
0000
0000
,
0000
0110
0000
0011
,
0000
1000
0010
0100
,
0001
0000
0000
0000
,
0000
1010
0000
0100
,
0000
0001
0000
0010
,
0000
0001
0000
1000
,
0000
0010
0000
0100
,
0000
0110
0000
0001
,
0000
1000
0000
0010
,
0000
0100
0000
0010
,
0000
0001
0100
0010
,
1000
0000
0000
0000
;

//--------------- dance-single - B. M'Rey ----------------
#NOTES:
     dance-single:
     B. M'Rey:
     Medium:
     3:
     0,0,0,0,0:
0000
0000
0000
0000
,
0000
0000
0000
0000
,
0000
0100
0010
0001
,
0000
0010
1000
0100
,
0000
0001
1000
0010
,
0000
0001
1000
0010
,
0000
1100
1000
0001
,
0000
0001
1000
0100
,
0000
0100
1000
0001
,
0000
0001
0010
0001
,
0000
1100
1000
0001
,
1000
0010
0000
0001
,
0000
0001
1000
0100
,
0000
0001
0000
0010
,
0000
0010
0100
0001
,
0000
0001
0000
0100
,
0000
0100
0010
0100
,
0000
0001
0000
1000
,
0000
0110
0010
0100
,
1000
0100
0000
0001
,
0000
0100
1000
0010
,
0100
0001
0000
0001
,
0000
0110
0010
0100
,
0000
0010
0000
0100
,
0000
0100
1000
0100
,
0000
0001
0000
0100
,
0000
0101
0000
0001
,
0000
0010
0000
0100
,
0000
0010
0000
1000
,
0000
0001
0000
0100
,
0000
0110
0000
0010
,
0000
0100
0000
1000
,
0000
0011
0000
0100
,
0000
0110
0000
0101
,
0000
0001
0100
0010
,
1000
0010
0000
0000
,
0000
0100
0010
0100
,
0000
0100
1000
0010
,
0000
0100
0010
0001
,
0000
0001
1000
0001
,
0000
0010
1000
0010
,
0000
0001
1000
0100
,
0000
0001
0100
0001
,
1000
0100
0010
0001
,
0100
0000
0000
0000
;

//--------------- dance-single - B. M'Rey ----------------
#NOTES:
     dance-single:
     B. M'Rey:
     Hard:
     6:
     0,0,0,0,0:
0000
0000
0000
0000
,
0000
0000
0000
0000
,
0000
0001
0100
0010
,
0100
0000
0001
0010
1000
0000
0100
0010
,
1000
0100
1000
0010
,
0100
0000
0001
0010
0100
0000
0001
0010
,
0100
1010
1000
0010
,
0100
0000
0001
0010
0100
0000
0001
0100
,
1000
0001
0100
0010
,
0100
0000
0010
0001
1000
0000
0100
0001
,
0010
0100
0010
0100
,
1000
0000
0001
1000
0010
0000
0001
0100
,
1000
0100
1000
0100
,
0010
0000
0001
1000
0100
0000
0010
0001
,
0100
0001
0100
0010
,
1000
0000
0010
0001
0100
0000
0001
1000
,
0100
0010
1000
0100
,
0010
0000
0001
1000
0010
0000
0100
0010
,
1000
0000
0110
0000
1000
0100
0001
0000
,
1000
0001
0010
0000
0100
0010
0001
0000
,
1000
0100
0010
0000
1000
0001
0010
0000
,
1000
0100
0001
0000
0010
1000
0001
0000
,
0010
1000
1001
0000
1000
0000
0010
0000
,
1000
0000
0001
0100
0010
0000
0001
1000
,
0010
0001
1000
0100
,
1000
0000
0010
0001
0100
0000
0001
1000
,
0100
0010
0100
0010
,
0000
0001
0100
0001
,
0000
0010
1000
0010
,
0000
0001
0100
0010
,
0000
0101
0100
0001
,
0000
0010
0100
0010
,
0000
0110
0000
0101
,
0000
1001
0000
0110
,
0000
0001
0100
0001
,
0010
0001
0000
0000
,
0000
0000
0001
0000
0100
0000
0010
0001
,
1000
0000
0001
0000
0100
0000
0010
0100
,
1000
0000
0010
0000
0100
0000
0010
1000
,
0100
0000
0001
0000
1000
0000
0010
0100
,
1000
0000
1001
0000
0010
0000
0100
0001
,
0010
0000
0001
0000
1000
0000
0001
0100
,
0010
0000
0100
0001
1000
0000
0010
0100
,
1000
0001
0010
0001
,
1000
0000
0000
0000
;

//--------------- dance-double - B. M'Rey ----------------
#NOTES:
     dance-double:
     B. M'Rey:
     Easy:
     1:
     0,0,0,0,0:
00000000
00000000
00000000
00000000
,
00000000
00000000
00000000
00000000
,
00000000
00010000
00000000
00000000
,
00000000
00001000
00000000
00000000
,
00000000
00100000
00000000
00000000
,
00000000
01000000
00000000
00000000
,
00000000
00011000
00000000
00000000
,
00000000
00000100
00000000
00000000
,
00000000
00000010
00000000
00000000
,
00000000
00000001
00000000
00000000
,
00000000
00001100
00000000
00000000
,
00000000
00010000
00000000
00000000
,
00000000
00001000
00000000
00000000
,
00000000
01000000
00000000
00000000
,
00000000
00001000
00000000
00000000
,
00000000
00100000
00000000
00000000
,
00000000
01000000
00000000
00000000
,
00000000
10000000
00000000
00000000
,
00000000
11000000
00000000
00000000
,
00000000
00010000
00000000
00000000
,
00000000
00100000
00000000
00000000
,
00000000
00001000
00000000
00000000
,
00000000
00011000
00000000
00000000
,
00000000
00000100
00000000
00000000
,
00000000
00000010
00000000
00000000
,
00000000
00000001
00000000
00000000
,
00000000
00000110
00000000
00000000
,
00000000
00010000
00000000
00000000
,
00000000
00001000
00000000
00000000
,
00000000
00100000
00000000
00000000
,
00000000
00110000
00000000
00000000
,
00000000
10000000
00000000
00000000
,
00000000
00010000
00000000
00000000
,
00000000
01000000
00000000
00000000
,
00000000
00001000
00000000
00010000
,
00000000
00000000
00000000
00000000
,
00000000
00010010
00000000
00000000
,
00000000
00000110
00000000
00000000
,
00000000
00000101
00000000
00000000
,
00000000
00001001
00000000
00000000
,
00000000
00001100
00000000
00000000
,
00000000
00010100
00000000
00000000
,
00000000
00011000
00000000
00000000
,
00000000
01001000
00000000
00000000
,
00000000
01100000
00000000
00000000
;

//--------------- dance-double - B. M'Rey ----------------
#NOTES:
     dance-double:
     B. M'Rey:
     Medium:
     2:
     0,0,0,0,0:
00000000
00000000
00000000
00000000
,
00000000
00000000
00000000
00000000
,
00000000
00110000
00000000
01000000
,
00000000
00100000
00000000
00001000
,
00000000
00010000
00000000
00001000
,
00000000
00000010
00000000
00001000
,
00000000
00011000
00000000
00000100
,
00000000
00000010
00000000
00000001
,
00000000
00000100
00000000
00000010
,
00000000
00010000
00000000
00000100
,
00000000
00011000
00010000
00001000
,
00000000
00100000
00000000
01000000
,
00000000
00100000
10000000
01000000
,
00000000
01000000
00000000
00010000
,
00000000
01000000
00100000
00001000
,
00000000
00001000
00000000
00000100
,
00000000
00010000
00000010
00010000
,
00000000
00000100
00000000
00000100
,
00000000
00001100
00001000
00000001
,
00000000
00000010
00000000
00000100
,
00000000
00010000
00000100
00010000
,
00000000
00001000
00000000
01000000
,
00000000
00011000
00010000
10000000
,
00000000
10000000
00000000
01000000
,
00000000
01000000
00100000
00010000
,
00000000
00010000
00000000
00100000
,
00000000
00110000
00000000
00001000
,
00000000
00010000
00000000
00001000
,
00000000
00010000
00000000
00000010
,
00000000
00001000
00000000
00000010
,
00000000
00001100
00000000
00000010
,
00000000
00000001
00000000
00000100
,
00000000
00000101
00000000
00001000
,
00000000
00001010
00000000
11000000
,
00000000
00010000
10000000
01000000
,
00100000
00002000
00000000
00000000
,
00000000
00013000
00100000
00001000
,
00000000
01000000
00010000
00001000
,
00000000
01000000
00010000
01000000
,
00000000
00010000
10000000
00100000
,
00000000
11000000
10000000
00100000
,
00000000
00001000
00010000
00000010
,
00000000
00000010
00010000
00001000
,
00000000
00001000
00010000
00001000
,
00010000
00000100
00000000
00000000
;

//--------------- dance-double - B. M'Rey ----------------
#NOTES:
     dance-double:
     B. M'Rey:
     Hard:
     5:
     0,0,0,0,0:
00000000
00000000
00000000
00000000
,
00000000
00000000
00000000
00000000
,
00000000
00000100
00001000
00000100
,
00001000
00000010
00010000
00000010
,
00010000
00000100
00010000
00001000
,
01000000
00100000
01000000
00001000
,
00100000
00110000
00100000
00010000
,
00100000
00001000
01000000
00001000
,
01000000
00010000
01000000
00001000
,
00010000
00000010
00010000
00001000
,
00010000
00000000
00000100
00000010
00000001
00000000
00000010
00000000
,
00000001
00000000
00000010
00000001
00001000
00000000
00000010
00000000
,
00001000
00000000
00000100
00000001
00001000
00000000
00000100
00000000
,
00010000
00000000
00001000
00100000
01000000
00000000
00010000
00000000
,
01000000
00000000
00001000
00010000
10000000
00000000
01000000
00000000
,
10000000
00000000
00010000
01000000
00100000
00000000
00001000
00000000
,
01000000
00000000
00001000
00010000
00000100
00000000
00000010
00000000
,
00001000
00000000
00000010
00000100
00010000
00000000
00000100
00000000
,
00010000
01010000
01000000
00010000
,
10000000
00000000
00010000
10000000
00100000
00000000
00001000
00000000
,
00010000
00000010
00001000
00000100
,
00010000
00000000
00000100
00000000
00010000
00000000
00001000
00100000
,
10000000
00000000
00001001
00000000
00001000
00000000
00010000
00000100
,
00001000
00000000
00000100
00000000
00010000
00000000
00001000
00100000
,
10000000
00000000
00010000
00000000
01000000
00000000
10000000
01000000
,
00100000
00000000
00001000
00000000
01000000
00000000
00001000
00010000
,
00000010
00001010
00000000
00001000
,
00000000
00001000
00000000
00000001
,
00000000
00001000
00000000
00000001
,
00000000
00000010
00000000
00000100
,
00000000
00010100
00000000
00000100
,
00000000
00001000
00000000
00000001
,
00000000
00110000
00000000
00100000
,
00000000
01010000
00000000
10100000
,
00000000
10000000
00100000
00010000
,
00100000
01000000
00000000
00000000
,
00000000
00000000
00100000
00000000
01000000
00000000
00001000
00010000
,
00000100
00000000
00000010
00000000
00001000
00000000
00000010
00010000
,
00001000
00000000
00000001
00000000
00001000
00000000
00000001
00000100
,
00010000
00000000
00000100
00000000
00001000
00000000
00000010
00001000
,
00000100
00000000
00010010
00000000
00010000
00000000
10000000
00010000
,
01000000
00000000
00001000
00000000
01000000
00000000
00001000
00010000
,
01000000
00000000
00010000
00000100
00001000
00000000
00000010
00010000
,
00000100
00001000
00100000
00010000
,
00100000
01000000
00000000
00000000
;
