#TITLE:MASTER OF PUPPETS;
#ARTIST:METALICA;
#GENRE:THRASH METAL;
#CREDIT:B. M'Rey;
#MUSIC:Master Of Puppets.ogg;
#BANNER:Master Of Puppets-bn.png;
#BACKGROUND:Master Of Puppets-bg.png;
#CDTITLE:cdtitles/Dancing Stage Legacy.png;
#SAMPLESTART:54.386;
#SAMPLELENGTH:12;
#OFFSET:-0.053;
#BPMS:0=212.028;

//--------------- dance-single - B. M'Rey ----------------
#NOTES:
     dance-single:
     B. M'Rey:
     Beginner:
     2:
     0,0,0,0,0:
0000
0000
0000
0000
,
0000
0000
0000
0000
,
0000
0000
0000
0000
,
1000
0000
0000
0000
,
0000
0000
0000
0000
,
0001
0000
0000
0000
,
0000
0000
0000
0000
,
0100
0000
0000
0000
,
0010
0000
0000
0000
,
1000
0000
0000
0000
,
0001
0000
0000
0000
,
1000
0000
0000
0000
,
0001
0000
0000
0000
,
0000
0000
0000
0000
,
0100
0000
0000
0000
,
0100
0000
0000
0000
,
0001
0000
0000
0000
,
0010
0000
0000
0100
,
0000
0000
0000
1000
,
0000
0000
0000
0010
,
0000
0000
0000
0100
,
0000
0000
0000
0001
,
0000
0000
0000
0000
,
0000
0000
0010
0000
,
0000
0000
0010
0000
,
0000
0001
0000
0000
,
0000
0010
0000
0000
,
0000
0100
0000
0000
,
0000
1000
0000
0000
,
0000
0001
0000
0000
,
1000
0000
0000
0000
,
0010
0000
0000
0000
,
0100
0000
0000
0000
,
0001
0000
0001
0000
,
1000
0000
0000
0000
,
0010
0000
0000
0000
,
0100
0000
0000
0000
,
0010
0000
0010
0000
,
0110
0000
0000
0000
,
1000
0000
0000
0000
,
0001
0000
0000
0000
,
0100
0000
0100
0000
,
0010
0000
0000
0000
,
0001
0000
0000
0000
,
1000
0000
0000
0000
,
0100
0000
0100
0000
,
1001
0000
0000
0000
,
1001
0000
0000
0000
,
1000
0000
0000
0000
,
0010
0000
0000
0000
,
0100
0000
0000
0000
,
0001
0000
0000
1000
,
0000
0000
0000
0010
,
0000
0000
0000
0100
,
0000
0000
0000
0001
,
0000
0000
1000
0000
,
0001
0000
0000
0000
,
0001
0000
0000
0000
,
1000
0000
0000
0000
,
0100
0000
0100
0000
,
0010
0000
0000
0000
,
0001
0000
0000
0000
,
1000
0000
0000
0000
,
0001
0000
0001
0000
,
1001
0000
0000
0000
,
0100
0000
0000
0000
,
0010
0000
0000
0000
,
0100
0000
0100
0000
,
0010
0000
0000
0000
,
1000
0000
0000
0000
,
0001
0000
0000
0000
,
0001
0000
1000
0000
,
1001
0000
0000
0000
,
1001
0000
0000
0000
,
0010
0000
0000
0000
,
0100
0000
0000
0000
,
0001
0000
0000
0000
,
1000
0000
0010
0000
,
0000
0000
0100
0000
,
0000
0000
0001
0000
,
0000
0000
1000
0000
,
0010
0000
0000
0000
,
0100
0000
0000
0000
,
0001
0000
1000
0000
,
0000
0000
0010
0000
,
0000
0000
0100
0000
,
0000
0000
1001
0000
,
0000
0000
1001
0000
,
0000
0000
1000
0000
,
0000
0000
0010
0000
,
0000
0000
0000
0000
,
0000
0000
0000
0000
,
0110
0000
0000
0000
,
0110
0000
0000
0000
;

//--------------- dance-single - B. M'Rey ----------------
#NOTES:
     dance-single:
     B. M'Rey:
     Easy:
     4:
     0,0,0,0,0:
0000
0000
0000
0000
,
0000
0000
0000
0000
,
0000
0000
0000
0000
,
1001
0000
0000
0000
,
0010
0000
0000
0000
,
0100
0000
0000
0000
,
0001
0000
0000
0000
,
1010
0000
0000
0000
,
0100
0000
0000
0000
,
0001
0000
0000
0000
,
0011
0000
0000
0000
,
1100
0000
0000
0000
,
0101
0000
0000
0000
,
0000
0000
0000
0000
,
0010
0000
0100
0000
,
0010
0000
0000
0000
,
1000
0000
0001
0000
,
1000
0000
0000
0010
,
0000
0100
0000
0001
,
0000
0010
0000
0100
,
0000
0000
0000
1000
,
0000
0000
0100
0000
,
0010
0000
0001
0000
,
0000
0000
1000
0000
,
0010
0000
0100
0000
,
0000
0001
0000
1000
,
0000
0010
0000
0000
,
0000
0010
0000
1000
,
0000
0001
0000
0000
,
0200
0000
0000
0000
,
0301
0000
1000
0000
,
0010
0000
0100
0000
,
0001
0000
1000
0000
,
0110
0000
0110
0000
,
0101
0000
0000
0000
,
0010
0000
1000
0000
,
0010
0000
0100
0000
,
0101
0000
0101
0000
,
0110
0000
0000
0000
,
1000
0000
0010
0000
,
0100
0000
0001
0000
,
1010
0000
1010
0000
,
1010
0000
0000
0000
,
0100
0000
0001
0000
,
0010
0000
0100
0000
,
1001
0000
0110
0000
,
0101
0000
0000
0000
,
1010
0000
0000
0000
,
0001
0000
1000
0000
,
0001
0000
0100
0000
,
0010
0000
0100
0000
,
0001
0000
0001
1000
,
0010
0000
0100
0001
,
1000
0000
0010
0100
,
0001
0000
1000
0001
,
0100
0000
0000
0000
,
1000
0000
0001
0000
,
0100
0000
0010
0000
,
0001
0000
1000
0000
,
0110
0000
0110
0000
,
0101
0000
0000
0000
,
0010
0000
1000
0000
,
0010
0000
0100
0000
,
0110
0000
0110
0000
,
0110
0000
0000
0000
,
1000
0000
0001
0000
,
0010
0000
0001
0000
,
0101
0000
0101
0000
,
0101
0000
0000
0000
,
0010
0000
1000
0000
,
0010
0000
0100
0000
,
0110
0000
0110
0000
,
1001
0000
0000
0000
,
1001
0000
0000
0000
,
0010
0000
0100
0000
,
0001
0000
1000
0000
,
0010
0000
0100
0000
,
0010
0000
0100
0000
,
0001
0000
1000
0000
,
0010
0000
0100
0000
,
0001
0000
0100
0000
,
0010
0000
1000
0000
,
0100
0000
1000
0000
,
0010
0000
0100
0000
,
0001
0000
0010
0000
,
0001
0000
0100
0000
,
0010
0000
0110
0000
,
0000
0000
0110
0000
,
0000
0000
1000
0000
,
0001
0000
0010
0000
,
0001
0000
0100
0000
,
0010
0000
0100
0000
,
1001
0000
0000
0000
,
1001
0000
0000
0000
;

//--------------- dance-single - B. M'Rey ----------------
#NOTES:
     dance-single:
     B. M'Rey:
     Medium:
     7:
     0,0,0,0,0:
0000
0000
0000
0000
,
0000
0000
0000
0000
,
0000
0000
0000
0000
,
0001
0000
0100
0000
,
0100
0010
0001
0000
,
0010
0000
0010
0000
,
0001
0100
0010
0000
,
0100
0000
0001
0000
,
0100
0010
0100
0000
,
0001
0000
0010
0000
,
1100
0000
1001
0000
,
0101
0000
1001
0000
,
1010
0000
0000
0000
,
0100
0000
0000
0000
,
0001
1000
0001
1000
,
0001
0000
0010
0000
,
0010
0100
0001
0010
,
0100
0000
0100
1000
,
0010
1000
0010
1000
,
0001
0010
0100
0010
,
0001
0100
0000
0001
,
0000
1000
0001
0010
,
0100
1000
0001
0000
,
0001
0000
0010
1000
,
0001
0010
0100
0000
,
0100
0010
0100
0010
,
0001
0100
0000
0100
,
0000
1000
0100
1000
,
0001
2000
0000
0000
,
0002
0000
0000
0000
0000
0000
0000
3003
,
0010
0000
0001
0000
,
0010
0000
0100
0000
,
1000
0000
0010
0100
,
0001
0100
0010
1000
,
1010
0000
0110
0000
,
0101
1000
0010
1000
,
0100
0010
0001
0010
,
1001
0000
0011
0000
,
0110
0000
0001
0010
,
0100
1000
0001
0010
,
0001
0010
0100
1000
,
1001
0000
0110
0000
,
1001
1000
0001
0100
,
0010
1000
0001
0100
,
0010
1000
0010
0100
,
1010
0000
0110
0000
,
0101
0101
0000
0000
,
0011
0011
0000
0000
,
0100
0010
0100
0010
,
0001
1000
0100
1000
,
0001
0010
0001
1000
,
0010
1000
0001
0100
,
0010
1000
0010
0100
,
0010
0100
0001
0010
,
0001
0010
0001
1000
,
0100
2000
0000
0002
,
3003
0010
0100
1000
,
0100
0010
0001
0100
,
0001
0010
0100
0010
,
0110
0000
1001
0000
,
1100
1000
0010
0100
,
0010
1000
0001
0010
,
0100
1000
0001
1000
,
0110
0000
1100
0000
,
0110
0010
0001
0100
,
0010
1000
0001
1000
,
0100
0010
0001
0010
,
1001
0000
0110
0000
,
0101
0010
0100
1000
,
0001
0010
0100
1000
,
0001
0010
0100
1000
,
0011
0000
0101
0000
,
1010
1010
0000
0000
,
0011
0011
0000
0000
,
0010
1000
0010
1000
,
0001
0010
0100
0010
,
0100
0010
0001
0100
,
0010
1000
0001
0100
,
0010
1000
0010
1000
,
0010
0100
0001
1000
,
0100
0010
0100
0010
,
0100
1000
0010
1000
,
0100
1000
0100
0010
,
0001
0100
0010
0100
,
0001
0100
0010
1000
,
0001
0100
0001
1000
,
0010
0100
1010
1010
,
0000
0000
1100
1100
,
0000
0000
0001
1000
,
0100
0010
0100
1000
,
0010
0100
0001
0100
,
0001
0100
0010
1000
,
1100
1100
0000
0000
,
0011
0011
0000
0000
;

//--------------- dance-single - B. M'Rey ----------------
#NOTES:
     dance-single:
     B. M'Rey:
     Hard:
     9:
     0,0,0,0,0:
0000
0000
0000
0000
,
0000
0000
0000
0000
,
0000
0000
0000
0000
,
1010
1000
0001
0010
,
0001
0100
0020
0000
,
1030
0100
0001
0100
,
0001
1000
0001
0110
,
0110
1000
0100
1000
,
0110
0110
0020
0000
,
0130
1000
0001
0010
,
1100
0000
0000
0101
0000
0000
0110
0000
,
1010
0000
0000
0101
0000
0000
0110
0000
,
0101
0000
0001
0000
,
1000
0000
0010
0000
,
0010
0100
0010
0100
0010
1000
0100
1000
,
0010
0100
0100
0001
,
0010
1000
0001
1000
0010
0100
0010
1000
,
0010
0001
0010
0110
,
0010
0100
0001
1000
0000
0010
0000
0100
,
0000
1000
0000
0100
0000
0001
0000
1000
,
0010
0000
0100
0000
0010
0000
0001
0100
,
0001
0000
0010
1000
0100
0000
0100
1000
,
0001
0010
0000
1000
0000
0100
1000
0000
,
0001
0000
0100
0000
0001
0100
0000
0010
,
0000
1000
0100
1000
0000
0110
0000
0000
,
0110
0000
0001
0010
0000
1000
0000
0010
,
0001
0100
0000
1000
0000
0001
1000
0000
,
0010
0000
0001
0100
0001
0000
0010
0000
,
0100
1000
0002
0100
0000
0000
1000
0000
,
0013
1000
0100
1000
0100
0010
0100
1000
,
0001
0000
0100
1000
0100
0000
0001
0000
,
0001
1000
0001
0000
0100
0000
0001
0000
,
0100
1000
0010
0000
1000
0000
0010
0000
,
0101
0000
0011
0000
,
0110
0110
1001
1001
,
0010
1000
0001
0000
0100
0000
1000
0000
,
0100
1000
0001
0000
0100
0000
0001
1000
,
0010
0000
0011
0000
,
1100
1100
0011
0011
,
0010
1000
0001
0000
0010
0000
0001
0000
,
0100
1000
0001
0000
1000
0000
0010
0000
,
0110
0000
1100
0000
,
0110
0110
1001
1001
,
0001
1000
0010
0000
0001
0000
0010
0000
,
0010
1000
0100
0000
0001
0000
0010
0000
,
1100
0000
0011
0000
,
0101
0101
0000
0000
,
1010
1010
0000
0000
,
0100
1000
0100
1000
0100
0010
0001
1000
,
0001
1000
0100
0010
0100
0010
0001
0100
,
0010
1000
0100
0010
0100
1000
0100
1000
,
0001
0100
0001
0100
0001
1000
0010
1000
,
0100
1000
0100
0010
0100
0010
0001
0010
,
0001
1000
0100
1000
0100
1000
0001
0100
,
0001
0100
0001
1000
0100
0010
0100
0010
,
0001
0010
0200
0000
0010
0000
0010
0000
,
0310
0000
0001
1000
0010
0000
1000
0000
,
0100
0010
0100
0000
0100
0000
0001
0000
,
0001
1000
0001
0000
0100
0000
0100
0000
,
1001
0000
0011
0000
,
0110
0110
1001
1001
,
0001
0010
0100
0000
0001
0000
0010
0000
,
0100
0010
0100
0000
0100
0000
0001
0000
,
0110
0000
1100
0000
,
0101
0101
1010
1010
,
0010
1000
0100
0000
0001
0000
0010
0000
,
0010
1000
0001
0000
0100
0000
0001
0000
,
0110
0000
0011
0000
,
0110
0110
1001
1001
,
0100
0010
0001
0000
0100
0000
0010
0000
,
0001
0100
0010
0000
0001
0000
1000
0000
,
0011
0000
0101
0000
,
0101
0101
0000
0000
,
1010
1010
0000
0000
,
0010
0000
0010
1000
0001
0000
0001
0100
,
0001
0000
0100
1000
0001
0000
0100
0000
,
0010
0100
1000
0001
,
0010
0000
0100
0000
0010
0000
0001
0100
,
0010
0000
0001
0010
0001
0000
0010
0100
,
0010
0001
0100
0001
,
0100
0010
1000
0010
,
1010
0000
0100
0010
0001
0000
0100
0010
,
0000
0001
0000
1000
0001
0000
0010
0000
,
0100
0000
0010
0000
0001
0000
0001
1000
,
0010
0000
0001
0010
0001
0000
0001
1000
,
0100
0010
0001
0100
,
0001
1000
1001
0110
,
0000
0000
0110
1100
,
0000
0000
0000
0000
0010
0000
0010
1000
,
0001
0000
0100
1000
0100
0000
0100
1000
,
0010
0001
0010
0001
,
0100
0010
0100
1000
,
0110
0110
0000
0000
,
1001
1001
0000
0000
;

//--------------- dance-double - B. M'Rey ----------------
#NOTES:
     dance-double:
     B. M'Rey:
     Easy:
     3:
     0,0,0,0,0:
00000000
00000000
00000000
00000000
,
00000000
00000000
00000000
00000000
,
00000000
00000000
00000000
00000000
,
00010000
00000000
00000000
00000000
,
00001000
00000000
00000000
00000000
,
01000000
00000000
00000000
00000000
,
00010000
00000000
00000000
00000000
,
00100000
00000000
00000000
00000000
,
00001000
00000000
00100000
00000000
,
00000000
00000000
00000000
00000000
,
01000000
00000000
10000000
00000000
,
00010000
00000000
01000000
00000000
,
11000000
00000000
00000000
00000000
,
00000000
00000000
00000000
00000000
,
00010000
00000000
10000000
00000000
,
00100000
00000000
00000000
00000000
,
00010000
00000000
00100000
00000000
,
10000000
00000000
00000000
00010000
,
00000000
10000000
00000000
00100000
,
00000000
01000000
00000000
00100000
,
00000000
00000000
00000000
10000000
,
00000000
00000000
00010000
00000000
,
01000000
00000000
00100000
00000000
,
00000000
00000000
10000000
00000000
,
00010000
00000000
01000000
00000000
,
00000000
00100000
00000000
00001000
,
00000000
00010000
00000000
00000000
,
00000000
00000100
00000000
00000010
,
00000000
00000001
00000000
00000000
,
00000000
00000100
00000000
00001000
,
00000110
00000000
00000000
00000000
,
00001001
00000000
00000000
00000000
,
00001100
00000000
00000000
00000000
,
00000010
00000000
00000100
00000000
,
00000010
00000100
00000000
00000000
,
00001000
00000000
00000000
00000000
,
00000001
00000000
00000000
00000000
,
00010010
00000000
00001100
00000000
,
00000010
00010000
00000000
00000000
,
00000100
00000000
00000000
00000000
,
00001000
00000000
00000000
00000000
,
00011000
00000000
00011000
00000000
,
00000100
00001000
00000000
00000000
,
00000010
00000000
00000000
00000000
,
00010000
00000000
00000000
00000000
,
01001000
00000000
00010010
00000000
,
00011000
00000000
00000000
00000000
,
00001100
00000000
00000000
00000000
,
00000001
00000000
00001000
00000000
,
00000001
00000000
00001000
00000000
,
00000010
00000000
00000100
00000000
,
00000010
00000000
00000100
00000001
,
00001000
00000001
00000000
00001000
,
00000001
00001000
00000000
00000010
,
00000001
00000010
00000000
00000100
,
00001000
00000100
00000000
00010000
,
00000010
00000000
00000000
00000000
,
00001000
00000000
00000000
00000000
,
00010000
00000000
00000000
00000000
,
00011000
00000000
00011000
00000000
,
00000010
00000000
00000000
00000000
,
00000100
00000000
00000000
00000000
,
00000010
00000000
00000000
00000000
,
00010010
00000000
00001010
00000000
,
00001100
00000000
00000000
00000000
,
00000010
00000000
00000000
00000000
,
00010000
00000000
00000000
00000000
,
00011000
00000000
00011000
00000000
,
00000100
00000000
00000000
00000000
,
00000010
00000000
00000000
00000000
,
00000100
00000000
00000000
00000000
,
00001010
00000000
00001010
00000000
,
00000100
00010000
00000000
00000000
,
00001000
01000000
00000000
00000000
,
00100000
00000000
01000000
00000000
,
00010000
00000000
10000000
00000000
,
00100000
00000000
01000000
00000000
,
00010000
00000000
00100000
00000000
,
01000000
00000000
10000000
00000000
,
00010000
00000000
00100000
00000000
,
00010000
00000000
01000000
00000000
,
00001000
00000000
00100000
00000000
,
01000000
00000000
00100000
00000000
,
00010000
00000000
01000000
00000000
,
00001000
00000000
00100000
00000000
,
00001000
00000000
01000000
00000000
,
00010000
00000000
01010000
00000000
,
00000000
00000000
01010000
00000000
,
00000000
00000000
00001000
00000000
,
00100000
00000000
01000000
00000000
,
10000000
00000000
00010000
00000000
,
01000000
00000000
00001000
00000000
,
00010100
00000000
00000000
00000000
,
00001001
00000000
00000000
00000000
;

//--------------- dance-double - B. M'Rey ----------------
#NOTES:
     dance-double:
     B. M'Rey:
     Medium:
     7:
     0,0,0,0,0:
00000000
00000000
00000000
00000000
,
00000000
00000000
00000000
00000000
,
00000000
00000000
00000000
00000000
,
01000000
00000000
00001000
00000000
,
00010000
00000000
00001000
00000000
,
00100000
00000000
00001000
00000000
,
00010000
00000000
00000010
00000000
,
00001100
00000000
00000100
00000000
,
00000100
00010000
00001000
00000000
,
00001000
00000000
00000010
00000000
,
00001100
00000000
00001010
00000000
,
00001001
00000000
00000101
00000000
,
00000110
00000000
00000000
00000000
,
00010000
00000000
00000000
00000000
,
00000010
00010000
00000100
00000010
,
00000100
00000000
00000010
00000000
,
00000010
00000100
00000010
00001000
,
00000001
00000000
00000100
00001000
,
00000010
00010000
00000010
00010000
,
00001000
00100000
01000000
10000000
,
01000000
10000000
00000000
00100000
,
00000000
01000000
10000000
01000000
,
00010000
01000000
00100000
00000000
,
00010000
00000000
00100000
10000000
,
00100000
01000000
00100000
00000000
,
00010000
00100000
00010000
01000000
,
00001000
00010000
00000000
00010000
,
00000000
00010000
00000100
00001000
,
00000001
00002000
00000000
00000020
,
00000000
00000000
00000000
00000000
00000000
00000000
00000000
00003030
,
00010000
00001000
00000100
00010000
,
00000100
00010000
00000100
00001000
,
00000010
00010000
00001000
01000000
,
00011000
00000000
01010000
00000000
,
00101000
00000000
00101000
00000000
,
00001000
01000000
00010000
10000000
,
00100000
01000000
00010000
01000000
,
01001000
00000000
10010000
00000000
,
11000000
00000000
00110000
00000000
,
00001000
00010000
00001000
00100000
,
00001000
00010000
00000010
00010000
,
00010100
00000000
00001100
00000000
,
00001001
00000000
00000001
00000100
,
00000010
00001000
00000001
00001000
,
00000001
00001000
00000100
00010000
,
00010010
00000000
00010100
00000000
,
01001000
01001000
00000000
00000000
,
00110000
00110000
00000000
00000000
,
01000000
00100000
00001000
00100000
,
00001000
00100000
01000000
10000000
,
01000000
00100000
01000000
10000000
,
00010000
10000000
00010000
00100000
,
00001000
00010000
00001000
00010000
,
00000100
00010000
00000100
00001000
,
00000100
00000010
00000001
00001000
,
00000001
00000200
00000002
00000303
,
00000010
00001000
00000001
00000010
,
00000001
00001000
00000001
00001000
,
00000010
00001000
00000010
00010000
,
00010100
00000000
01001000
00000000
,
00101000
00000000
00011000
00000000
,
00000010
00000100
00000010
00010000
,
00000010
00010000
00001000
00010000
,
01010000
00000000
01010000
00000000
,
10010000
00000000
11000000
00000000
,
00100000
10000000
00100000
01000000
,
00010000
00100000
00001000
01000000
,
01001000
00000000
01010000
00000000
,
10010000
00000000
00110000
00000000
,
00001000
00010000
00000100
00001000
,
00000001
00001000
00000100
00010000
,
00010010
00000000
00001010
00000000
,
00001001
00001001
00000000
00000000
,
00001001
00001100
00000000
00000000
,
00000010
00010000
00001000
00010000
,
00001000
00100000
01000000
00100000
,
01000000
00100000
00010000
01000000
,
00010000
10000000
00010000
10000000
,
01000000
00100000
00010000
00100000
,
00001000
01000000
00001000
00010000
,
00000010
00010000
00000100
00001000
,
00000100
00001000
00000100
00010000
,
00000010
00010000
00000100
00001000
,
00000100
00000010
00000100
00001000
,
00000010
00010000
00000010
00010000
,
00000100
00010000
00001000
01000000
,
00001000
01000000
01010000
01010000
,
00000000
00000000
10100000
10100000
,
00000000
00000000
00010000
10000000
,
01000000
00100000
00001000
01000000
,
00001000
00010000
00001000
00100000
,
00010000
01000000
00001000
00010000
,
00010100
00010100
00000000
00000000
,
00001001
00001001
00000000
00000000
;

//--------------- dance-double - B. M'Rey ----------------
#NOTES:
     dance-double:
     B. M'Rey:
     Hard:
     9:
     0,0,0,0,0:
00000000
00000000
00000000
00000000
,
00000000
00000000
00000000
00000000
,
00000000
00000000
00000000
00000000
,
00000100
00010000
00001000
01000000
,
00001000
00010000
00000200
00000000
,
00001300
00000010
00000001
00000010
,
00000001
00001000
00000001
00000020
,
00000030
00000100
00000010
00000100
,
00000020
00000030
00002000
00000000
,
00003010
00010000
00001000
01000000
,
00010000
00000000
00000000
00001000
00000000
00000000
00100000
00000000
,
00100000
00000000
00000000
00010000
00000000
00000000
00100000
00000000
,
01010000
00000000
00010000
00000000
,
01000000
00000000
00001000
00000000
,
00001000
00010000
00001000
00010000
00001000
00100000
00010000
00100000
,
01000000
10000000
10000000
00010000
,
01000000
10000000
00010000
10000000
01000000
00100000
01000000
10000000
,
01000000
00010000
01000000
00100000
,
01000000
00100000
00010000
10000000
00000000
01000000
00000000
00100000
,
00000000
10000000
00000000
00100000
00000000
00010000
00000000
10000000
,
01000000
00000000
00010000
00000000
01000000
00000000
00001000
00010000
,
00001000
00000000
01000000
00010000
00000010
00000000
00000010
00001000
,
00000001
00000100
00000000
00001000
00000000
00000001
00001000
00000000
,
00000100
00000000
00010000
00000000
00000100
00010000
00000000
00000010
,
00000000
00001000
00000001
00001000
00000000
00000101
00000000
00000000
,
00000101
00000000
00000010
00000100
00000000
00001000
00000000
00000100
,
00000010
00001000
00000000
00010000
00000000
00000010
00010000
00000000
,
00001000
00000000
00000100
00001000
00000100
00000000
00010000
00000000
,
00001000
00100000
00020000
00000000
00000000
00000000
00000000
00000000
,
01030000
00000000
00001000
00100000
00001000
00010000
00001000
01000000
,
00010000
00000000
00100000
10000000
00100000
00000000
00010000
00000000
,
00010000
10000000
00010000
00000000
00100000
00000000
00010000
00000000
,
00100000
10000000
01000000
00000000
10000000
00000000
01000000
00000000
,
00110000
00000000
01010000
00000000
,
00110000
00110000
10100000
10100000
,
01000000
10000000
00010000
00000000
00100000
00000000
01000000
00000000
,
00100000
01000000
00010000
00000000
10000000
00000000
00010000
00100000
,
00001000
00000000
00010010
00000000
,
00001100
00001100
00000011
00000011
,
00000001
00000100
00000010
00000000
00001000
00000000
00000010
00000000
,
00000100
00001000
00000010
00000000
00001000
00000000
00000100
00000000
,
00010100
00000000
00011000
00000000
,
00010100
00010100
00001001
00001001
,
00000001
00001000
00000100
00000000
00000001
00000000
00000100
00000000
,
00000100
00001000
00000001
00000000
00000010
00000000
00000100
00000000
,
00011000
00000000
00000110
00000000
,
00001010
00001010
00000000
00000000
,
00110000
00110000
00000000
00000000
,
00001000
00100000
00001000
00100000
00001000
00010000
00000100
00001000
,
00000100
00001000
00000001
00000010
00000001
00000010
00000100
00001000
,
00000001
00000100
00000010
00001000
00000010
00010000
00000010
00010000
,
00001000
01000000
00001000
01000000
00001000
00010000
00000100
00010000
,
00001000
00010000
00001000
01000000
00001000
01000000
00010000
01000000
,
00010000
10000000
01000000
10000000
01000000
10000000
00010000
01000000
,
00010000
01000000
00010000
10000000
00100000
01000000
00100000
01000000
,
00010000
01000000
00200000
00000000
00000000
00000000
00000000
00000000
,
00310000
00000000
00001000
00010000
00000100
00000000
00010000
00000000
,
00001000
00100000
00001000
00000000
00001000
00000000
00000100
00000000
,
00000100
00010000
00000100
00000000
00001000
00000000
00001000
00000000
,
00000110
00000000
00001100
00000000
,
00001010
00001010
00000011
00000011
,
00000001
00000100
00000010
00000000
00000001
00000000
00001000
00000000
,
00000010
00001000
00000010
00000000
00000010
00000000
00000001
00000000
,
00000110
00000000
00001010
00000000
,
00010100
00010100
01001000
01001000
,
00001000
01000000
00010000
00000000
00001000
00000000
00010000
00000000
,
00010000
00100000
00001000
00000000
00010000
00000000
00001000
00000000
,
00010100
00000000
00001100
00000000
,
00011000
00011000
00110000
00110000
,
01000000
10000000
00010000
00000000
01000000
00000000
00001000
00000000
,
00010000
01000000
00001000
00000000
00010000
00000000
10000000
00000000
,
00011000
00000000
00110000
00000000
,
00110000
00110000
00000000
00000000
,
00011000
00011000
00000000
00000000
,
00001000
00000000
00001000
00010000
00000100
00000000
00000100
00001000
,
00000100
00000000
00001000
00010000
00000100
00000000
00001000
00000000
,
00000001
00001000
00000010
00000100
,
00010000
00000000
00000010
00000000
00010000
00000000
00001000
00100000
,
00010000
00000000
00001000
01000000
00001000
00000000
01000000
00010000
,
01000000
00100000
10000000
00100000
,
10000000
00010000
01000000
00010000
,
01010000
00000000
00001000
00010000
00000010
00000000
00001000
00000100
,
00000000
00000001
00000000
00001000
00000001
00000000
00000100
00000000
,
00000010
00000000
00000100
00000000
00000001
00000000
00000001
00001000
,
00000100
00000000
00000001
00000100
00000001
00000000
00000001
00001000
,
00000010
00010000
00001000
00100000
,
00001000
01000000
01001000
10010000
,
00000000
00000000
10010000
01010000
,
00000000
00000000
00000000
00000000
00100000
00000000
00100000
01000000
,
00010000
00000000
00100000
10000000
00100000
00000000
00100000
01000000
,
00010000
00001000
00010000
00001000
,
00100000
00010000
00100000
10000000
,
01100000
01100000
00000000
00000000
,
01010000
01010000
00000000
00000000
;
