#VERSION:0.83;
#TITLE:LA BRISE D'ETE;
#ARTIST:Orange Lounge;
#GENRE:BOSSA LOUNGE;
#CREDIT:B. M'Rey;
#MUSIC:LA BRISE D'ETE.ogg;
#BANNER:LA BRISE D'ETE.png;
#BACKGROUND:LA BRISE D'ETE-bg.png;
#CDTITLE:./CDTITLES/MAMBO A GO GO.png;
#SAMPLESTART:33.153;
#SAMPLELENGTH:15;
#OFFSET:-0.153;
#BPMS:0.000=100;
#STOPS:22=0.600,53=0.300;

//--------------- dance-single - B. M'Rey ----------------
#NOTEDATA:;
#STEPSTYPE:dance-single;
#DESCRIPTION:B. M'Rey;
#DIFFICULTY:Beginner;
#METER:3;
#RADARVALUES:0,0,0,0,0;
#CREDIT:B. M'Rey;
#NOTES:
0000
0000
0000
0000
,
0000
0000
0000
0000
,
1000
0000
0000
0000
,
0010
0000
0000
0000
,
0100
0000
0000
0000
,
0001
0000
0000
1001
,
0000
0000
0000
0010
,
0000
0000
0000
0100
,
0000
0000
0000
0001
,
0000
0000
0000
1010
,
0000
0000
0000
0010
,
0000
0000
0000
0100
,
0000
0000
0000
0001
,
0000
0000
0000
1000
0000
0001
0000
0000
,
0000
0000
0000
1000
0000
0010
0000
0000
,
0000
0000
0000
0100
0000
0010
0000
0000
,
0000
0000
0000
0001
0000
1000
0000
0000
,
0000
0000
0000
0010
0000
0100
0000
0000
,
0000
0000
0000
1000
0000
0001
0000
0000
,
0000
0000
0000
0010
0000
1000
0000
0000
,
0000
0000
0000
0100
0000
0001
0000
0000
,
0000
0000
0000
0000
0000
0011
0000
0000
,
0110
0000
0000
1010
0000
0000
0000
0000
,
0000
0000
0000
0000
0000
0110
0000
0000
,
0101
0000
0000
1010
0000
0000
0000
0000
,
0000
0000
0000
0000
0000
0110
0000
0000
,
0101
0000
0000
1010
0000
0000
0000
0000
,
0000
0000
0000
0000
0000
0110
0000
0000
,
0101
0000
0000
1010
0000
0000
0000
0000
,
0000
0000
0000
0000
0000
1000
0000
0001
,
0000
1000
0000
0001
0000
1000
0000
0000
,
0000
0010
0000
0000
0000
0100
0000
0010
,
0000
0100
0000
0010
0000
0100
0000
0000
,
0000
0001
0000
0000
0000
0010
0000
1000
,
0000
0010
0000
1000
0000
0010
0000
0000
,
0000
0100
0000
0000
0000
0010
0000
0001
,
0000
0010
0000
0001
0000
0010
0000
0000
,
0000
0100
0000
0000
0000
0010
0000
0000
;

//--------------- dance-single - B. M'Rey ----------------
#NOTEDATA:;
#STEPSTYPE:dance-single;
#DESCRIPTION:B. M'Rey;
#DIFFICULTY:Easy;
#METER:5;
#RADARVALUES:0,0,0,0,0;
#CREDIT:B. M'Rey;
#NOTES:
0000
0000
0000
0000
,
0000
0000
0000
0000
,
1000
0000
0010
0000
,
0100
0000
0001
0000
,
0010
0000
0001
0000
,
0100
0000
1001
0010
,
0100
0010
0000
0001
,
1000
0010
0000
0100
,
0010
0100
0000
0001
,
0010
1000
0000
0001
,
0010
0001
0000
0100
,
0010
1000
0000
0100
,
0001
0010
0000
1000
,
0001
0000
1001
0000
0000
0010
0000
0000
,
0000
0100
0000
0001
0000
1000
0000
0000
,
0110
0000
0000
0001
0000
1000
0000
0000
,
0000
0010
0000
0100
0000
0010
0000
0000
,
0101
0000
0000
0010
0000
1000
0000
0000
,
0000
0010
0000
0100
0000
0001
0000
0000
,
0101
0000
0000
0010
0000
1000
0000
0000
,
0000
0100
0000
0010
0000
0100
0000
0000
,
0110
0000
0000
0000
0000
0010
1000
0010
,
0000
1000
0010
1000
0000
1010
0000
0000
,
0000
0000
0000
0000
0000
0001
0010
0001
,
0000
0001
0010
0001
0000
0011
0000
0000
,
0000
0000
0000
0000
0000
0010
0100
0010
,
0000
0100
0010
0100
0000
0110
0000
0000
,
0000
0000
0000
0000
0000
0010
1000
0010
,
0000
1000
0010
1000
0000
1010
0000
0000
,
0000
0000
0000
0000
0000
0100
0010
0100
,
0000
0010
0100
0010
0000
0100
0000
0010
,
0000
0001
0000
1000
0000
0001
1000
0001
,
0000
1000
0001
1000
0000
0001
0000
0010
,
0000
0100
0000
0010
0000
1000
0100
1000
,
0000
0100
1000
0100
0000
0001
0000
0010
,
0000
0100
0000
1000
0000
0010
0100
0010
,
0000
0100
0010
0100
0000
0010
0000
0100
,
0000
0001
0000
1000
0000
1010
0000
0000
;

//--------------- dance-single - B. M'Rey ----------------
#NOTEDATA:;
#STEPSTYPE:dance-single;
#DESCRIPTION:B. M'Rey;
#DIFFICULTY:Medium;
#METER:7;
#RADARVALUES:0,0,0,0,0;
#CREDIT:B. M'Rey;
#NOTES:
0000
0000
0000
0000
,
0000
0000
0000
0000
,
1000
0001
0000
0000
0010
0100
0000
0000
,
1000
0100
0000
0000
0001
0010
0000
0000
,
0100
0010
0000
0000
0001
0010
0000
0000
,
1000
0100
0000
0000
1001
0000
0010
0000
,
0100
0000
0001
0000
1000
0010
0100
0000
,
0001
0010
0001
0100
,
0010
0000
1000
0000
0010
0100
0001
0000
,
0010
0100
1000
1001
,
0010
0000
0100
0000
0001
0010
0100
0000
,
1000
0010
0100
0010
,
0001
0000
1000
0000
0010
0100
0001
0000
,
0010
0000
1001
1000
0001
1000
0000
0010
,
0000
0100
0000
0001
0010
0001
0000
0100
,
0000
0110
0000
0001
1000
0001
0000
0010
,
0000
0100
0000
0010
1000
0010
0000
0000
,
0110
0000
0000
0001
0010
0001
0000
0100
,
0000
0010
0000
1000
0100
1000
0000
0010
,
0000
0101
0000
0010
0100
0010
0000
1000
,
0000
0010
0000
0100
0001
0100
0000
0000
,
0101
0000
0000
0000
0000
0010
1000
0010
,
1000
0010
0100
0001
0100
0001
0000
0000
,
0000
0000
0000
0000
0000
0001
0100
0010
,
1000
0100
1000
0100
1000
0001
0000
0000
,
0000
0000
0000
0000
0000
0001
0010
0001
,
0010
0100
1000
0100
1000
0100
0000
0000
,
0000
0000
0000
0000
0000
0100
0010
0100
,
0010
0001
1000
0001
1000
0010
0000
0000
,
0000
0000
0000
0000
0000
0001
1000
0001
,
1000
0010
1000
0010
0100
0010
0000
0001
,
0000
0001
0000
0001
0000
0010
0100
0010
,
0100
0010
1000
0001
1000
0001
0000
0100
,
0000
0100
0000
0100
0000
0100
1000
0100
,
1000
0100
0010
0001
0010
0001
0000
1000
,
0000
1000
0000
1000
0000
0010
0100
0010
,
1000
0010
1000
0001
1000
0001
0000
0001
,
0000
0001
0000
0100
0000
0100
0000
0000
;

//--------------- dance-single - B. M'Rey ----------------
#NOTEDATA:;
#STEPSTYPE:dance-single;
#DESCRIPTION:B. M'Rey;
#DIFFICULTY:Hard;
#METER:10;
#RADARVALUES:0,0,0,0,0;
#CREDIT:B. M'Rey;
#NOTES:
0000
0000
0000
0000
,
0000
0000
0000
0000
,
0010
1000
0010
1000
0001
0100
0010
1000
,
0100
1000
0100
1000
0010
0100
0001
1000
,
0010
0100
0001
0010
0100
0010
0100
1000
,
0001
0010
0100
0010
1100
0000
0010
0100
,
0010
1000
0001
0010
0001
0000
0100
0010
,
0100
1000
0001
1000
0001
0000
0010
0100
,
0001
1000
0100
0010
0100
0000
0010
1000
,
0001
0010
0011
0000
0101
0000
0010
1000
,
0001
1000
0100
0010
0001
0000
0100
1000
,
0001
0010
0100
0010
0100
0000
0100
1000
,
0010
0100
0001
0000
0010
0000
0001
0100
,
0010
0000
0100
0000
1001
0000
0001
0000
0010
0000
0001
0000
0100
0010
0000
1000
,
0000
0010
0000
0000
0100
0000
0001
0000
0100
0000
0010
0000
1000
0001
0000
0010
,
0000
0001
0000
0000
0010
0000
0100
0000
0010
0000
0100
0000
1000
0100
0000
0010
,
0000
0001
0000
0000
0010
0000
0001
0000
1000
0000
0001
0000
1000
0010
0000
0100
,
0000
0001
0000
0000
1000
0000
0010
0000
1000
0000
0001
0000
1000
0010
0000
0100
,
0000
0001
0000
0000
0010
0000
0100
0000
0010
0000
0001
0000
0010
0001
0000
0100
,
0000
0010
0000
0000
0100
0000
0010
0000
1000
0000
0010
0000
0100
0001
0000
0100
,
0000
0001
0000
0000
0100
0000
0010
0000
1000
0000
0010
0000
0100
0010
0000
0100
,
0000
0001
0000
0000
0100
0000
0010
0000
1000
0000
0001
0000
0010
0000
0100
0000
,
1000
0001
0010
0100
1000
0001
0000
1000
,
0000
0100
0000
1000
0000
0001
1000
0100
,
0010
0001
1000
0010
0100
0001
0000
1000
,
0000
0100
0000
0010
0000
0001
1000
0100
,
0010
0001
0100
0010
1000
0100
0000
1000
,
0000
0100
0000
1000
0000
0001
1000
0100
,
0010
0001
0100
0010
1000
0001
0000
1000
,
0000
0001
0000
0000
0000
0001
1000
0100
,
0010
0100
1000
0100
0010
0100
0000
1000
,
0000
0010
0000
0100
0000
1000
0001
0010
,
0100
0010
0001
0010
0100
0010
0000
1000
,
0000
0010
0000
0100
0000
0010
0100
1000
,
0001
1000
0010
1000
0001
0100
0000
1000
,
0000
0001
0000
0010
0000
0010
0100
1000
,
0001
1000
0100
1000
0001
0100
0000
1000
,
0000
0100
0000
1000
0000
0100
0000
0000
;

//--------------- dance-double - B. M'Rey ----------------
#NOTEDATA:;
#STEPSTYPE:dance-double;
#DESCRIPTION:B. M'Rey;
#DIFFICULTY:Easy;
#METER:5;
#RADARVALUES:0,0,0,0,0;
#CREDIT:B. M'Rey;
#NOTES:
00000000
00000000
00000000
00000000
,
00000000
00000000
00000000
00000000
,
00001000
00000000
00000000
00000000
,
00100000
00000000
00000000
00000000
,
01000000
00000000
00000000
00000000
,
10000000
00000000
00000000
00010000
,
00100000
00010000
00000000
01000000
,
00001000
00010000
00000000
00000100
,
00010000
00000100
00000000
00001000
,
00000010
00000001
00000000
00001000
,
00000010
00001000
00000000
00000100
,
00010000
00001000
00000000
01000000
,
00010000
00000100
00000000
00000001
,
00001000
00000000
11000000
00000000
00000000
00100000
00000000
00000000
,
00000000
00001000
00000000
00010000
00000000
00000010
00000000
00000000
,
01010000
00000000
00000000
00100000
00000000
00001000
00000000
00000000
,
00000000
00010000
00000000
00000010
00000000
00010000
00000000
00000000
,
00000110
00000000
00000000
00001000
00000000
00000001
00000000
00000000
,
00000000
00001000
00000000
00000100
00000000
00000010
00000000
00000000
,
00000110
00000000
00000000
00010000
00000000
00001000
00000000
00000000
,
00000000
01000000
00000000
00010000
00000000
01000000
00000000
00000000
,
01010000
00000000
00000000
00000000
00000000
00010000
00001000
00010000
,
00000000
00001000
00010000
00001000
00000000
00011000
00000000
00000000
,
00000000
00000000
00000000
00000000
00000000
00100000
01000000
00100000
,
00000000
00100000
01000000
00100000
00000000
01100000
00000000
00000000
,
00000000
00000000
00000000
00000000
00000000
01000000
00001000
01000000
,
00000000
00001000
01000000
00001000
00000000
01001000
00000000
00000000
,
00000000
00000000
00000000
00000000
00000000
01000000
00010000
01000000
,
00000000
00010000
01000000
00010000
00000000
01010000
00000000
00000000
,
00000000
00000000
00000000
00000000
00000000
00001000
01000000
00001000
,
00000000
01000000
00001000
01000000
00000000
00001000
00000000
01000000
,
00000000
10000000
00000000
00010000
00000000
10000000
00010000
10000000
,
00000000
00010000
10000000
00010000
00000000
10000000
00000000
01000000
,
00000000
00100000
00000000
01000000
00000000
00001000
00100000
00001000
,
00000000
00100000
00001000
00100000
00000000
00010000
00000000
00000100
,
00000000
00001000
00000000
00000010
00000000
00000100
00000001
00000100
,
00000000
00000001
00000100
00000001
00000000
00000100
00000000
00000001
,
00000000
00000010
00000000
00000100
00000000
00010100
00000000
00000000
;

//--------------- dance-double - B. M'Rey ----------------
#NOTEDATA:;
#STEPSTYPE:dance-double;
#DESCRIPTION:B. M'Rey;
#DIFFICULTY:Medium;
#METER:6;
#RADARVALUES:0,0,0,0,0;
#CREDIT:B. M'Rey;
#NOTES:
00000000
00000000
00000000
00000000
,
00000000
00000000
00000000
00000000
,
00001000
00000000
01000000
00000000
,
00010000
00000000
10000000
00000000
,
00100000
00000000
10000000
00000000
,
00010000
00000000
10100000
01000000
,
00001000
00000000
00010000
00000000
00000100
00001000
00000001
00000000
,
00000010
00000100
00000010
00000001
,
00001000
00000000
00000010
00000000
00001000
00000100
00010000
00000000
,
00001000
01000000
00010000
00110000
,
01000000
00000000
00001000
00000000
00010000
00000100
00000010
00000000
,
00000001
00001000
00000100
00001000
,
00010000
00000000
00001000
00000000
01000000
00010000
00100000
00000000
,
01000000
00000000
00110000
00010000
00100000
00010000
00000000
01000000
,
00000000
00001000
00000000
00010000
00000100
00010000
00000000
00000010
,
00000000
00001010
00000000
00010000
00000100
00010000
00000000
00001000
,
00000000
01000000
00000000
00001000
00000010
00001000
00000000
00000000
,
00011000
00000000
00000000
00100000
00001000
00100000
00000000
00010000
,
00000000
10000000
00000000
01000000
00100000
01000000
00000000
10000000
,
00000000
00000101
00000000
00001000
00000001
00001000
00000000
00000100
,
00000000
00001000
00000000
00000010
00000100
00000010
00000000
00000000
,
00000110
00000000
00000000
00000000
00000000
00010000
00001000
00010000
,
00001000
00010000
00000010
00000100
00000010
00000100
00000000
00000000
,
00000000
00000000
00000000
00000000
00000000
00000100
00000010
00010000
,
00001000
00100000
00001000
00100000
00001000
01000000
00000000
00000000
,
00000000
00000000
00000000
00000000
00000000
01000000
00010000
01000000
,
00010000
10000000
01000000
10000000
01000000
10000000
00000000
00000000
,
00000000
00000000
00000000
00000000
00000000
10000000
00010000
10000000
,
00010000
00100000
00001000
00100000
00001000
00010000
00000000
00000000
,
00000000
00000000
00000000
00000000
00000000
01000000
00001000
01000000
,
00001000
00010000
00001000
00010000
00000100
00010000
00000000
00100000
,
00000000
00100000
00000000
00100000
00000000
00010000
00000100
00010000
,
00000100
00010000
00001000
01000000
00001000
01000000
00000000
00010000
,
00000000
00010000
00000000
00010000
00000000
00010000
00001000
00010000
,
00001000
00010000
00000010
00000100
00000010
00000100
00000000
00000001
,
00000000
00000001
00000000
00000001
00000000
00000010
00000100
00000010
,
00000001
00000010
00000001
00001000
00000001
00001000
00000000
00001000
,
00000000
00001000
00000000
00000100
00000000
00000100
00000000
00000000
;

//--------------- dance-double - B. M'Rey ----------------
#NOTEDATA:;
#STEPSTYPE:dance-double;
#DESCRIPTION:B. M'Rey;
#DIFFICULTY:Hard;
#METER:9;
#RADARVALUES:0,0,0,0,0;
#CREDIT:B. M'Rey;
#NOTES:
00000000
00000000
00000000
00000000
,
00000000
00000000
00000000
00000000
,
00001000
00010000
00000000
00000000
00000010
00001000
00000000
00000000
,
00000100
00001000
00000000
00000000
00010000
00000010
00000000
00000000
,
00000100
00000010
00000000
00000000
00010000
00000010
00000000
00000000
,
00001000
01000000
00000000
00000000
00011000
00000000
01000000
00100000
,
01000000
00001000
00010000
00000100
00010000
00000000
00000010
00000100
,
00000010
00000001
00001000
00000001
00001000
00000000
00000100
00000010
,
00010000
00001000
00100000
00010000
00100000
00000000
00010000
01000000
,
10000000
00010000
10010000
00000000
10100000
00000000
01000000
00001000
,
00100000
00001000
01000000
00010000
10000000
00000000
00100000
00010000
,
10000000
01000000
00001000
01000000
00001000
00000000
00001000
00000100
,
00010000
00000010
00001000
00000000
00000100
00000000
00001000
00000001
,
00000100
00000000
00000001
00000000
00011000
00000000
00010000
00000000
00000100
00000000
00010000
00000000
00001000
00100000
00000000
01000000
,
00000000
00100000
00000000
00000000
00010000
00000000
01000000
00000000
00010000
00000000
00100000
00000000
00001000
00010000
00000000
00000100
,
00000000
00010000
00000000
00000000
00000100
00000000
00001000
00000000
00000100
00000000
00001000
00000000
00000001
00001000
00000000
00000010
,
00000000
00010000
00000000
00000000
00000010
00000000
00010000
00000000
00001000
00000000
00010000
00000000
00001000
01000000
00000000
00100000
,
00000000
10000000
00000000
00000000
01000000
00000000
00100000
00000000
01000000
00000000
10000000
00000000
01000000
00100000
00000000
00001000
,
00000000
00010000
00000000
00000000
00000100
00000000
00000010
00000000
00000100
00000000
00001000
00000000
00000100
00001000
00000000
00000010
,
00000000
00010000
00000000
00000000
00000010
00000000
00010000
00000000
00000100
00000000
00010000
00000000
00001000
00100000
00000000
00001000
,
00000000
00100000
00000000
00000000
00001000
00000000
01000000
00000000
00100000
00000000
01000000
00000000
00010000
01000000
00000000
00010000
,
00000000
10000000
00000000
00000000
00010000
00000000
01000000
00000000
00001000
00000000
00010000
00000000
00000010
00000000
00000100
00000000
,
00000001
00001000
00000010
00000100
00000001
00001000
00000000
00000001
,
00000000
00000100
00000000
00000001
00000000
00001000
00000001
00000010
,
00000100
00001000
00000010
00010000
00001000
01000000
00000000
00010000
,
00000000
10000000
00000000
00100000
00000000
01000000
00010000
10000000
,
01000000
00100000
00010000
01000000
00001000
00010000
00000000
00001000
,
00000000
00010000
00000000
00001000
00000000
00100000
00001000
00010000
,
00000010
00000100
00000001
00000010
00000100
00010000
00000000
00000100
,
00000000
00010000
00000000
00000000
00000000
00010000
00000100
00001000
,
00000001
00001000
00000010
00001000
00000001
00001000
00000000
00000010
,
00000000
00010000
00000000
00000100
00000000
00001000
00100000
01000000
,
10000000
01000000
00100000
01000000
10000000
01000000
00000000
00010000
,
00000000
01000000
00000000
00100000
00000000
01000000
00100000
00001000
,
00010000
00001000
00100000
00001000
00010000
00000010
00000000
00000001
,
00000000
00001000
00000000
00000100
00000000
00000100
00010000
00001000
,
01000000
00001000
00010000
00001000
01000000
00100000
00000000
00010000
,
00000000
00100000
00000000
00010000
00000000
00100000
00000000
00000000
;
