#TITLE:DYNAMITE RAVE;
#SUBTITLE:(Onyxium Remix);
#ARTIST:NAOKI;
#GENRE:SYNTHS RAVE;
#CREDIT:B. M'Rey;
#MUSIC:DYNAMITE RAVE (Onyxium Remix).ogg;
#BANNER:DYNAMITE RAVE (Onyxium Remix).PNG;
#BACKGROUND:DYNAMITE RAVE (Onyxium Remix)-bg.png;
#CDTITLE:./cdtitles/Dancing Stage Legacy.png;
#SAMPLESTART:54.410;
#SAMPLELENGTH:12;
#OFFSET:-0.078;
#BPMS:0=150.119;

//--------------- dance-single - B. M'Rey ----------------
#NOTES:
     dance-single:
     B. M'Rey:
     Beginner:
     1:
     0,0,0,0,0:
0000
0000
0000
0000
,
0000
0000
0000
0000
,
0000
0000
0000
0000
,
0000
0000
0000
0000
,
0000
0000
0000
0000
,
1000
0000
0000
0000
,
0001
0000
0000
0000
,
0100
0000
0000
0000
,
0000
0000
0000
0000
,
0001
0000
0001
0000
,
1000
0000
1000
0000
,
0001
0000
0001
0000
,
1000
0000
0000
0000
,
0010
0000
0010
0000
,
0100
0000
0100
0000
,
0010
0000
0010
0000
,
0100
0000
0000
0000
,
0001
0000
1000
0000
,
0010
0000
0000
0000
,
0000
0100
0000
0010
,
0000
0000
0000
0000
,
0001
0000
1000
0000
,
0100
0000
0000
0000
,
0000
0010
0000
0100
,
0000
0000
0000
0000
,
0010
0000
0000
0000
,
0001
0000
0001
0000
,
1000
0000
1000
0000
,
0010
0000
0100
0000
,
0010
0000
0001
0000
,
1001
0000
0100
0000
,
0010
0000
1000
0000
,
0001
0000
0010
0000
,
0001
0000
0100
0000
,
0110
0000
0110
0000
,
0001
0000
1000
0000
,
0010
0100
0010
0000
,
0010
0100
0010
0000
,
0001
0000
1000
0000
,
0010
0000
0100
0000
,
0001
0000
0010
0000
,
0100
0100
0100
0000
,
1001
0000
0000
0000
,
0000
0000
0000
0000
,
0000
0000
0000
0000
,
0000
0000
0000
0000
,
0001
0000
0001
0000
,
1000
0000
1000
0000
,
0010
0000
0010
0000
,
0100
0000
0010
0100
,
0110
0000
0100
0000
,
0010
0000
0010
0000
,
0001
0000
0001
0000
,
1000
0000
0010
0100
,
0001
0000
0000
0000
;

//--------------- dance-single - B. M'Rey ----------------
#NOTES:
     dance-single:
     B. M'Rey:
     Easy:
     3:
     0,0,0,0,0:
0000
0000
0000
0000
,
0000
0000
0000
0000
,
0000
0000
0000
0000
,
0000
0000
0000
0000
,
0000
0000
0000
0000
,
1001
0000
0010
0000
,
0100
0000
0010
0000
,
0001
0000
1000
0000
,
0010
0000
0000
0000
,
0001
1000
0010
1000
,
0010
1000
0001
0010
,
0001
0010
0001
1000
,
0100
1000
0100
0000
,
0010
0100
0010
0100
,
0010
1000
0001
1000
,
0001
1000
0100
0010
,
0100
0010
0100
0000
,
0001
0000
0001
1000
,
0001
0000
0000
0100
0000
0000
0000
0000
,
0000
0010
0001
0010
,
0001
0020
0000
0000
,
0130
0000
0100
0010
,
0001
0000
0000
0010
0000
0000
0000
0000
,
0000
1000
0100
1000
,
0100
0020
0000
0000
,
0031
0000
0000
0000
,
0101
0101
0001
1000
,
0001
1000
0001
0100
,
0010
0100
0010
0100
,
0001
1000
0001
1000
,
0100
1000
0100
0010
,
0100
0010
0001
0010
,
0100
1000
0001
1000
,
0001
1000
0100
0010
,
0100
0000
0100
0000
,
0010
1000
0000
0100
,
0010
0100
0001
0000
,
0001
1000
0010
1000
,
0010
1000
0001
0000
,
0001
0010
0001
0000
,
0010
1000
0010
1000
,
0001
0100
0001
0100
,
0001
0000
1000
0000
,
0010
0100
0001
0000
,
0010
0000
0100
0000
,
0001
0000
1000
0000
,
0001
1000
0010
1000
,
0010
1000
0001
0010
,
0001
0010
0001
1000
,
0100
1000
0100
0000
,
0010
0100
0010
0100
,
0010
1000
0001
1000
,
0001
1000
0100
0010
,
0100
0010
0100
0000
,
0001
0000
0000
0000
;

//--------------- dance-single - B. M'Rey ----------------
#NOTES:
     dance-single:
     B. M'Rey:
     Medium:
     5:
     0,0,0,0,0:
0000
0000
0000
0000
,
0000
0000
0000
0000
,
0000
0000
0000
0000
,
0000
0000
0000
0000
,
0000
0000
0000
0000
,
0001
0000
1000
0000
,
0010
0000
0100
0000
,
0010
0000
0001
0000
,
1000
0001
1000
0000
,
0001
0000
0010
0000
0001
0100
0001
0000
,
0010
0000
1000
0000
0100
1000
0100
0000
,
0010
0000
0100
0000
0001
0010
0001
0000
,
0100
0010
1001
1001
,
0010
0000
0100
0000
0001
0010
0001
0000
,
1000
0000
0100
0000
1000
0100
1000
0000
,
0010
0000
0100
0000
0010
0100
0010
0000
,
0001
1000
1001
1001
,
0010
0000
0100
0001
0010
0000
1000
0100
,
0010
0000
0000
0001
0000
0100
0000
0010
,
0000
0000
1000
0100
0000
0001
0010
0001
,
0000
0100
0000
0000
0000
0000
0000
0000
,
0010
0000
0000
0001
0010
0000
0001
1000
,
0010
0000
0000
0100
0000
0010
0000
0000
,
0000
0000
0001
1000
0000
0010
0100
0001
,
0000
0010
0000
0000
0000
0000
0000
0000
,
1000
0000
0000
0000
,
1001
0000
1001
0000
0001
0010
0001
0000
,
0100
0010
0100
0000
1000
0100
1000
0000
,
0001
0000
0010
0000
0100
0001
0100
0000
,
0000
0010
1000
0000
0100
0010
0100
0000
,
0001
0000
0010
0000
1000
0100
1000
0000
,
0001
0000
0010
0000
0100
0001
0100
0000
,
0010
0000
1000
0000
0100
1000
0100
0000
,
0010
0000
0100
0000
0001
0010
0001
0000
,
1001
0000
0000
0000
0101
0000
0000
0010
,
0000
1000
0100
1000
0000
0100
0010
0001
,
0000
0001
0010
0001
1000
0010
0000
0100
,
0000
0001
0010
0000
1000
0000
0100
0000
,
0010
1001
1001
0000
,
0001
0010
0001
0100
0000
0010
0000
1000
,
0000
0100
1000
0000
0010
0100
0001
0000
,
0010
1000
0100
0010
,
1001
1001
0000
0010
0000
0001
0000
1000
,
0100
1000
0100
1000
,
0100
0001
0000
0100
0000
0001
0000
0100
,
0001
1000
0010
1000
,
0001
0000
0010
0000
0001
0100
0001
0000
,
0010
0000
1000
0000
0100
1000
0100
0000
,
0010
0000
0100
0000
0001
0010
0001
0000
,
0100
0010
1001
1001
,
0010
0000
0100
0000
0001
0010
0001
0000
,
1000
0000
0100
0000
1000
0100
1000
0000
,
0010
0000
0100
0000
0010
0100
0010
0000
,
0001
1000
1001
1001
,
0010
0000
0000
0000
;

//--------------- dance-single - B. M'Rey ----------------
#NOTES:
     dance-single:
     B. M'Rey:
     Hard:
     9:
     0,0,0,0,0:
0000
0000
0000
0000
,
0000
0000
0000
0000
,
0000
0000
0000
0000
,
0000
0000
0000
0000
,
0000
0000
0000
0000
,
1000
0001
1000
0000
0010
0100
0010
0000
,
0001
0010
0001
0000
1000
0100
1000
0000
,
0010
0100
0010
0000
0001
0010
0001
0000
,
1000
0000
0001
0000
1000
0000
0100
0001
,
0010
0000
0001
1000
0000
1000
0010
0000
1000
0000
0001
0000
0010
0000
0001
0000
,
0010
0000
0100
0010
0000
0010
0100
0000
1000
0000
0010
0000
1000
0000
0001
0000
,
1000
0000
0001
0100
0000
0100
0010
0000
0100
0000
0001
0000
1000
0000
0100
0000
,
1000
0000
0001
0010
0000
0010
0100
0000
0110
0000
0000
0000
0011
0000
0000
0000
,
0100
0000
0010
1000
0000
1000
0001
0000
1000
0000
0100
0000
0010
0000
0100
0000
,
1000
0000
0010
1000
0000
1000
0010
0000
1000
0000
0100
0000
0010
0000
0001
0000
,
0100
0000
0010
1000
0000
1000
0100
0000
0010
0000
0100
0000
1000
0000
0010
0000
,
0100
0000
0010
0100
0000
0100
0001
0000
0101
0000
0000
0000
0011
0000
0000
0000
,
0001
0010
0001
0100
0001
1000
0010
0100
,
0001
0100
0010
0100
0010
1000
0010
1000
,
0100
1000
0001
0010
0100
1000
0001
0100
,
0010
0000
0100
0000
0010
0000
0100
0001
0100
0001
0100
0001
0100
0001
0100
0001
,
0100
0010
0001
1000
0010
1000
0001
0100
,
0010
0100
0010
1000
0100
0010
0001
1000
,
0001
0010
0100
1000
0001
1000
0001
0100
,
0001
0010
0100
0010
0100
0010
0001
1000
,
0110
0000
0000
0000
1001
0000
0000
0000
1001
0000
0000
1000
0010
0000
1000
0000
,
0101
0000
0101
0000
0001
0010
0100
0000
,
0010
1000
0001
0010
0100
0010
0100
0000
,
0001
1000
0001
0000
0001
0100
0010
0000
,
0100
1000
0100
1000
0010
0100
0010
0000
,
0010
1000
0100
0000
0100
1000
0001
0000
,
0001
1000
0001
0010
0100
0010
0001
0000
,
0010
1000
0010
0000
0001
1000
0001
0000
,
0011
0110
0101
1010
,
1001
0000
0010
0100
0110
0000
0001
0010
,
0000
0001
1000
0001
0000
0100
0010
0001
,
0000
0010
1000
0100
0010
0100
0000
0001
,
0000
0010
0100
0010
0001
0000
0100
0010
,
0010
1001
1001
0010
,
0100
0010
0100
1000
0000
0001
0000
1000
,
0000
0001
0100
0010
0100
0010
1000
0000
,
0001
0110
0100
1000
,
1001
1001
0000
0010
0000
0100
0010
0000
,
0001
1000
0000
0010
0000
0100
0010
0100
,
0000
0001
0000
1000
0000
0010
0100
0010
,
0000
0001
0000
1000
0000
0110
0000
0000
,
0100
0000
1000
0001
0000
0001
0100
0000
0001
0000
1000
0000
0100
0000
1000
0000
,
0100
0000
0010
0100
0000
0100
0010
0000
0001
0000
0100
0000
0001
0000
1000
0000
,
0001
0000
1000
0010
0000
0010
0100
0000
0010
0000
1000
0000
0001
0000
0010
0000
,
0001
0000
1000
0100
0000
0100
0010
0000
0110
0000
0000
0000
1100
0000
0000
0000
,
0010
0000
0100
0001
0000
0001
1000
0000
0001
0000
0010
0000
0100
0000
0010
0000
,
0001
0000
0100
0001
0000
0001
0100
0000
0001
0000
0010
0000
0100
0000
1000
0000
,
0010
0000
0100
0001
0000
0001
0010
0000
0100
0000
0010
0000
0001
0000
0100
0000
,
0010
0000
0100
0010
0000
0010
1000
0000
1010
0000
0000
0000
1100
0000
0000
0000
,
1000
0000
0000
0000
;

//--------------- dance-double - B. M'Rey ----------------
#NOTES:
     dance-double:
     B. M'Rey:
     Easy:
     3:
     0,0,0,0,0:
00000000
00000000
00000000
00000000
,
00000000
00000000
00000000
00000000
,
00000000
00000000
00000000
00000000
,
00000000
00000000
00000000
00000000
,
00000000
00000000
00000000
00000000
,
00011000
00000000
01000000
00000000
,
00100000
00000000
01000000
00000000
,
00001000
00000000
00010000
00000000
,
00000100
00000000
00000000
00000000
,
00000010
00010000
00000100
00010000
,
00000100
00010000
00001000
01000000
,
00001000
01000000
00001000
00100000
,
00010000
00100000
00010000
00000000
,
10000000
00010000
10000000
00010000
,
10000000
01000000
00100000
01000000
,
00100000
01000000
00001000
00010000
,
00001000
00010000
00001000
00000000
,
00000100
00000000
00000100
00000010
,
00000100
00000000
00000000
00010000
00000000
00000000
00000000
00000000
,
00000000
00001000
00000010
00001000
,
00000010
00002000
00000000
00000000
,
00013000
00000000
00010000
00001000
,
00000010
00000000
00000000
00001000
00000000
00000000
00000000
00000000
,
00000000
00010000
00000100
00010000
,
00000100
00002000
00000000
00000000
,
00003001
00000000
00000000
00000000
,
00000011
00000011
00000001
00000100
,
00000001
00000100
00000001
00001000
,
00000010
00001000
00000010
00001000
,
00000100
00010000
00000100
00010000
,
00001000
00010000
00001000
00100000
,
00001000
00100000
01000000
00100000
,
00001000
01000000
00010000
01000000
,
00010000
01000000
00100000
10000000
,
00100000
00000000
00100000
00000000
,
00010000
01000000
00000000
00001000
,
00010000
00001000
00000100
00000000
,
00000100
00010000
00001000
00010000
,
00001000
00010000
00000010
00000000
,
00000010
00001000
00000010
00000000
,
00001000
00010000
00001000
00010000
,
00000100
00000010
00000100
00000010
,
00000100
00000000
00010000
00000000
,
00001000
01000000
00010000
00000000
,
00100000
00000000
00001000
00000000
,
01000000
00000000
10000000
00000000
,
01000000
10000000
00100000
10000000
,
00100000
10000000
00010000
01000000
,
00010000
01000000
00010000
00100000
,
00001000
00100000
00001000
00000000
,
01000000
00001000
01000000
00001000
,
01000000
00010000
00000100
00010000
,
00000100
00010000
00000010
00001000
,
00000010
00001000
00000010
00000000
,
00000001
00000000
00000000
00000000
;

//--------------- dance-double - B. M'Rey ----------------
#NOTES:
     dance-double:
     B. M'Rey:
     Medium:
     5:
     0,0,0,0,0:
00000000
00000000
00000000
00000000
,
00000000
00000000
00000000
00000000
,
00000000
00000000
00000000
00000000
,
00000000
00000000
00000000
00000000
,
00000000
00000000
00000000
00000000
,
00010000
00000000
00001000
00000000
,
00100000
00000000
00010000
00000000
,
00100000
00000000
01000000
00000000
,
00001000
01000000
00001000
00000000
,
01000000
00000000
00010000
00000000
01000000
00001000
01000000
00000000
,
00010000
00000000
00001000
00000000
00010000
00001000
00010000
00000000
,
00000100
00000000
00010000
00000000
00001000
00000100
00001000
00000000
,
00000010
00000100
00000011
00000011
,
00000100
00000000
00000010
00000000
00010000
00000100
00010000
00000000
,
00001000
00000000
00100000
00000000
00001000
00100000
00001000
00000000
,
01000000
00000000
00010000
00000000
01000000
00010000
01000000
00000000
,
10000000
00010000
01100000
01100000
,
10000000
00000000
00010000
01000000
00001000
00000000
00010000
00100000
,
00001000
00000000
00000000
00010000
00000000
00000010
00000000
00000100
,
00000000
00000000
00000001
00001000
00000000
00000010
00000100
00000010
,
00000000
00000001
00000000
00000000
00000000
00000000
00000000
00000000
,
00000100
00000000
00000000
00001000
00000100
00000000
00001000
00000010
,
00010000
00000000
00000000
00000100
00000000
00010000
00000000
00000000
,
00000000
00000000
00000010
00000001
00000000
00001000
00000010
00010000
,
00000000
00001000
00000000
00000000
00000000
00000000
00000000
00000000
,
00000010
00000000
00000000
00000000
,
00001100
00000000
00001100
00000000
00001000
00000001
00001000
00000000
,
00000010
00000100
00000010
00000000
00000001
00000010
00000001
00000000
,
00001000
00000000
00000100
00000000
00000010
00001000
00000010
00000000
,
00000000
00010000
00001000
00000000
00100000
00010000
00100000
00000000
,
10000000
00000000
00010000
00000000
01000000
00100000
01000000
00000000
,
10000000
00000000
00010000
00000000
00100000
10000000
01000000
00000000
,
00100000
00000000
00010000
00000000
01000000
00010000
01000000
00000000
,
00001000
00000000
01000000
00000000
00010000
00001000
00010000
00000000
,
00010100
00000000
00000000
00000000
00011000
00000000
00000000
01000000
,
00000000
00010000
00100000
00010000
00000000
00100000
00001000
00010000
,
00000000
00010000
00001000
00010000
00000100
00001000
00000000
00000001
,
00000000
00000100
00000010
00000000
00000001
00000000
00000010
00000000
,
00000100
00001001
00001001
00000000
,
00001000
00000100
00001000
00000010
00000000
00010000
00000000
00001000
,
00000000
00100000
00001000
00000000
01000000
00010000
10000000
00000000
,
01000000
00100000
01000000
00010000
,
10100000
10100000
00000000
01000000
00000000
10000000
00000000
00010000
,
00100000
00010000
00100000
00010000
,
00100000
01000000
00000000
00100000
00000000
01000000
00000000
00100000
,
01000000
00001000
00100000
00001000
,
00010000
00000000
00000010
00000000
00010000
00000100
00010000
00000000
,
00001000
00000000
00000100
00000000
00001000
00000100
00001000
00000000
,
00000010
00000000
00001000
00000000
00010000
00000010
00010000
00000000
,
00000100
00001000
00000101
00000101
,
00001000
00000000
00000010
00000000
00010000
00000100
00010000
00000000
,
00001000
00000000
00100000
00000000
00001000
00100000
00001000
00000000
,
01000000
00000000
00010000
00000000
01000000
00010000
01000000
00000000
,
10000000
00010000
01100000
01100000
,
10000000
00000000
00000000
00000000
;

//--------------- dance-double - B. M'Rey ----------------
#NOTES:
     dance-double:
     B. M'Rey:
     Hard:
     8:
     0,0,0,0,0:
00000000
00000000
00000000
00000000
,
00000000
00000000
00000000
00000000
,
00000000
00000000
00000000
00000000
,
00000000
00000000
00000000
00000000
,
00000000
00000000
00000000
00000000
,
00010000
00001000
00010000
00000000
00000010
00001000
00000010
00000000
,
00000100
00010000
00000100
00000000
00001000
00000001
00001000
00000000
,
00000100
00010000
00000100
00000000
00001000
01000000
00001000
00000000
,
00100000
00000000
00001000
00000000
00100000
00000000
01000000
00010000
,
01000000
10000000
00010000
10000000
01000000
00100000
00010000
00100000
,
01000000
00100000
00001000
00010000
00000100
00010000
00000100
00001000
,
00000100
00010000
00000010
00001000
00000010
00001000
00000010
00010000
,
00000100
00010000
00000010
00010000
00001010
00000000
00001100
00000000
,
00000001
00000010
00000001
00001000
00000001
00001000
00000010
00010000
,
00001000
00100000
00001000
00010000
00001000
01000000
00010000
01000000
,
00100000
01000000
00100000
10000000
00010000
10000000
00010000
00100000
,
00010000
01000000
00100000
01000000
01001000
00000000
00011000
00000000
,
00001000
00010000
00001000
01000000
00001000
00010000
00000100
00001000
,
00000010
00001000
00000001
00001000
00000001
00000100
00000001
00000100
,
00000010
00000100
00000001
00000010
00000100
00010000
00001000
01000000
,
00010000
01000000
00010000
02000000
00000000
00000000
00000000
00000000
,
03100000
10000000
00100000
01000000
00010000
01000000
00100000
10000000
,
00010000
10000000
00010000
00100000
00001000
00010000
00000010
00000100
,
00000010
00001000
00000100
00010000
00001000
00010000
00001000
00100000
,
00001000
00010000
00000100
00010000
00000100
00010000
00001000
01000000
,
00010010
00000000
00000000
00000000
00001001
00000000
00000000
00000000
00001001
00000000
00000000
00001000
00000010
00000000
00001000
00000000
,
00010100
00000000
00010100
00000000
00000100
00001000
00010000
00000000
,
00001000
01000000
00100000
10000000
01000000
10000000
01000000
00000000
,
00010000
10000000
00010000
00000000
00010000
01000000
10000000
00000000
,
01000000
00100000
01000000
00100000
00001000
01000000
00001000
00000000
,
00001000
00010000
00000010
00000000
00000010
00010000
00000100
00000000
,
00000100
00010000
00000100
00000010
00000001
00000010
00000100
00000000
,
00000010
00001000
00000010
00000000
00000100
00001000
00000100
00000000
,
00010100
00011000
00001010
01010000
,
00011000
00000000
00100000
01000000
01100000
00000000
00001000
00100000
,
00000000
00001000
00010000
00001000
00000000
01000000
00100000
00010000
,
00000000
00100000
01000000
00001000
00010000
00001000
00000000
00000010
,
00000000
00010000
00000100
00010000
00000010
00000000
00000100
00000001
,
00000001
00001010
00001010
00000100
,
00000001
00000100
00000001
00001000
00000000
00000100
00000000
00001000
,
00000000
00000100
00010000
00001000
00010000
00001000
01000000
00000000
,
00100000
00110000
00010000
10000000
,
10100000
10100000
00000000
01000000
00000000
00010000
01000000
00000000
,
00100000
10000000
00000000
00010000
00000000
01000000
00010000
01000000
,
00000000
00001000
00000000
00010000
00000000
00000010
00001000
00000010
,
00000000
00000001
00000000
00001000
00000000
00000110
00000000
00000000
,
00000100
00010000
00001000
00010000
00000010
00010000
00001000
00100000
,
00001000
00010000
00000010
00001000
00000001
00000010
00000001
00001000
,
00000100
00010000
00000100
00010000
00001000
01000000
00001000
01000000
,
00100000
10000000
00010000
00100000
00110000
00000000
01001000
00000000
,
00001000
00100000
00010000
01000000
00010000
10000000
00100000
10000000
,
00010000
10000000
00010000
00100000
00001000
00100000
01000000
00100000
,
00001000
00010000
00001000
00010000
00000100
00000010
00000100
00001000
,
00000001
00001000
00000001
00001000
00001001
00000000
00001100
00000000
,
00001000
00000000
00000000
00000000
;
