#VERSION:0.83;
#TITLE:DISCO DOG;
#ARTIST:ASLETICS;
#GENRE:80'S DISCO;
#CREDIT:B. M'Rey;
#MUSIC:DISCO DOG.ogg;
#BANNER:DISCO DOG-bn.png;
#BACKGROUND:DISCO DOG-bg.png;
#CDTITLE:./CDTITLES/beatmania 7thMIX -keepin' evolution-.png;
#SAMPLESTART:32.555;
#SAMPLELENGTH:15;
#OFFSET:-0.111;
#BPMS:0=135;
#STOPS:135=0.667;

//--------------- dance-single - B. M'Rey ----------------
#NOTEDATA:;
#STEPSTYPE:dance-single;
#DESCRIPTION:B. M'Rey;
#DIFFICULTY:Beginner;
#METER:4;
#RADARVALUES:0,0,0,0,0;
#CREDIT:B. M'Rey;
#NOTES:
0000
0000
0000
0000
,
0000
0000
0000
0000
,
0000
1000
0000
0000
,
0000
0010
0000
0000
,
0000
0110
0000
0000
,
0000
0001
0000
0000
,
0000
1001
0000
0000
,
0000
0100
0000
0000
,
0000
0110
0000
0000
,
0000
1000
0000
0000
,
0000
0001
0000
0100
,
0000
0010
0000
0000
,
0000
1000
0000
0010
,
0000
0100
0000
0000
,
0000
0001
0000
1000
,
0000
0010
0000
0100
,
0000
0001
0001
1000
,
1000
1001
0000
0000
,
0000
0010
0000
0100
,
0000
0000
0000
0001
,
0000
0000
0000
0010
,
0000
1000
0000
0010
,
0000
0100
0000
0001
,
0000
0000
0000
1000
,
0000
0000
0000
0010
,
0000
0100
0000
0000
,
0000
0001
0000
1000
,
0000
0001
0000
1001
,
0000
0010
0000
0100
,
0000
0001
0000
0100
,
0000
0001
0000
0010
,
0000
1000
0000
1010
,
0000
0100
0000
0001
,
0000
0000
0010
0000
0000
0000
0100
0001
,
0000
0000
0000
1000
0000
0000
0000
0010
,
0000
0000
0000
0100
0000
0000
0000
0100
,
0000
0000
0000
0100
0000
0000
0000
0100
,
0000
0000
0000
0100
0000
0000
0000
0010
,
0000
0000
0000
0101
0000
0000
0000
0010
,
0000
0000
0000
1010
0000
0000
0000
0101
,
0000
0000
0000
1010
0000
0000
0000
0101
,
0000
1010
0000
0101
0000
1010
0000
1001
;

//--------------- dance-single - B. M'Rey ----------------
#NOTEDATA:;
#STEPSTYPE:dance-single;
#DESCRIPTION:B. M'Rey;
#DIFFICULTY:Easy;
#METER:5;
#RADARVALUES:0,0,0,0,0;
#CREDIT:B. M'Rey;
#NOTES:
0000
0000
0000
0000
,
0000
0000
0000
0000
,
0000
1001
0000
0010
,
0000
0100
0000
0001
,
0000
0101
0000
0010
,
0000
1000
0000
0100
,
0000
0110
0000
0001
,
0000
1000
0000
0010
,
0000
0101
0000
0010
,
0000
1000
0000
0010
,
0000
0010
1000
0001
,
1000
0010
1000
0000
,
0100
0001
0000
0010
,
0000
0010
1000
0001
,
0000
0100
0000
0001
,
0000
0010
0000
0100
,
0000
1001
0000
0110
,
0000
0110
0000
1100
,
0000
0001
0010
0001
,
0000
0001
0010
0100
,
0000
0001
1000
0100
,
0000
0100
0000
0100
,
0000
0001
0010
0001
,
0000
0001
0010
0100
,
0000
0001
0010
0001
,
0000
0010
0000
0000
,
0000
0001
1000
0001
,
0100
0001
0010
0100
,
0000
0100
0010
0001
,
1000
0010
1000
0010
,
0100
0001
0010
0001
,
0100
0010
0100
0010
,
0000
0001
0010
0100
,
1000
0000
0100
0000
0010
0000
0001
0010
,
0000
0100
0000
0001
0000
1000
0000
0100
,
0000
1000
0000
0100
0000
0000
0000
0001
,
0000
0000
0000
0001
0000
0000
0000
0100
,
0000
0000
0000
0001
0000
0000
0000
0010
,
0000
1000
0000
0100
0000
0000
0000
0100
,
0000
0010
0000
0001
0000
0000
0000
1001
,
0000
0000
0000
1001
0000
0000
0000
0110
,
0000
0000
0000
0011
0000
0000
0000
0110
;

//--------------- dance-single - B. M'Rey ----------------
#NOTEDATA:;
#STEPSTYPE:dance-single;
#DESCRIPTION:B. M'Rey;
#DIFFICULTY:Medium;
#METER:8;
#RADARVALUES:0,0,0,0,0;
#CREDIT:B. M'Rey;
#NOTES:
0000
0000
0000
0000
,
0000
0000
0000
0000
,
0000
1001
0010
0110
,
0001
1000
0000
0000
0110
0000
0001
1000
,
0000
0000
0110
0000
0000
0001
1000
0000
,
0010
0100
0010
1000
,
0001
0000
1001
0000
0000
0001
1000
0000
,
0010
0000
0000
0001
1000
0000
0010
0000
,
0100
0000
1001
0000
0000
0001
1000
0000
,
0010
0100
0001
0000
1000
0000
0010
0000
,
0100
0011
1000
0010
,
0100
0010
0000
0001
1000
0000
0010
0000
,
0100
0010
0100
0000
1000
0000
0001
0000
,
1000
0100
0010
1000
,
0001
0010
0001
0000
0100
0000
0000
0000
,
0010
1000
0010
0000
0100
0000
0000
0001
,
0010
0100
0010
1000
,
0001
1001
0110
0101
,
1001
0010
0100
0001
,
1000
0001
1000
0000
0010
0000
0100
0000
,
0001
0100
0001
0000
0010
0000
1000
0000
,
0010
1000
1010
0000
0110
0000
0101
0000
,
0110
0000
0001
0000
1000
0000
0001
1000
,
0001
0000
0100
0000
0010
0000
1000
0010
,
1000
0000
0001
0000
0100
0000
0010
0100
,
0010
1001
0000
0000
,
0000
1000
0010
0100
,
0001
0000
0010
0000
0001
0000
1001
1001
,
0000
0010
0100
0010
,
1000
0001
0100
0001
,
0100
1000
0010
1000
,
0010
0000
0100
0000
0010
0000
0101
0101
,
0000
0010
1000
0010
,
0100
0000
0001
0000
0010
0000
1001
0010
,
0000
0100
0000
0010
0000
1000
0000
0001
,
0000
1000
0000
1001
0000
0000
0000
1001
,
0000
0000
0000
1001
0000
0000
0000
1001
,
0000
0000
0000
1001
0000
0001
0000
1000
,
0000
0001
1000
0001
0000
0100
0000
0010
,
0000
0100
0010
0100
0000
1000
0000
0100
,
1000
0100
0000
1000
0100
1000
0000
1001
,
0000
0110
0000
0101
0000
0110
0000
1001
;

//--------------- dance-single - B. M'Rey ----------------
#NOTEDATA:;
#STEPSTYPE:dance-single;
#DESCRIPTION:B. M'Rey;
#DIFFICULTY:Hard;
#METER:11;
#RADARVALUES:0,0,0,0,0;
#CREDIT:B. M'Rey;
#NOTES:
0000
0000
0000
0000
,
0000
0000
0000
0000
,
0000
0000
1010
0000
0100
1000
0010
0000
,
0100
0000
0010
0000
0100
0000
0000
0010
0000
0000
1000
0000
0110
0000
0110
0000
,
0000
0110
0000
0000
1100
0000
0000
0000
0001
0000
1000
0000
0010
0000
0000
0000
,
0010
0000
0100
0000
0011
0000
0011
0000
0000
0110
0000
0000
0010
0000
1000
0000
,
0100
0010
1100
0000
0100
0010
0001
0000
,
0010
0100
0010
0000
0001
0010
1100
1100
,
0000
0110
0000
0000
1100
0000
0000
0000
0010
0000
1000
0000
0100
0000
0000
0000
,
0001
0000
0010
0000
1001
0000
1001
0000
0000
1010
0000
0000
1010
0000
0000
0000
,
0001
0010
0001
0000
0010
0000
0100
0000
,
0001
1000
0010
0000
0100
0010
0100
0000
,
0001
0100
0001
1000
0100
1000
0100
0000
,
0001
0100
0001
0010
0000
2000
0000
0000
,
3001
0100
0010
0000
0100
0000
0001
0010
,
0100
0010
0001
0000
0100
0000
0001
1000
,
0010
1000
0011
0000
0011
0000
1100
0000
,
1010
0000
0010
0100
0010
1000
0100
0000
,
0110
0000
0011
0000
0001
1000
0010
0000
,
0010
1000
0100
0000
0001
0100
0001
0000
,
0001
0100
0010
0000
0001
0010
0001
0000
,
0100
0010
1100
0000
1001
0000
0011
0000
,
0110
0000
0010
0000
0001
1000
0010
0000
,
0010
1000
0001
0000
0100
0010
0100
0000
,
0001
0100
0001
0000
0010
0100
0010
0000
,
0001
0100
0101
0000
0001
0000
0100
0000
,
1000
0000
0010
0100
0001
0100
0001
0010
,
0100
1000
0100
1000
0010
1000
0110
0110
,
0000
0011
0000
0000
0000
0000
1000
0000
0001
0000
0100
0000
0001
0000
1000
0000
,
0010
1000
0100
0000
0010
0000
0100
1000
,
0010
0100
0010
0100
0010
1000
0001
0000
,
0001
1000
0000
1000
0001
0100
0011
0011
,
0000
0110
0000
0000
1100
0000
0000
0000
0001
0000
0100
0000
0010
0000
0100
0000
,
0010
1000
0001
0001
0001
0001
1000
0100
,
0000
0001
0000
0100
0000
0001
1000
0000
,
0010
0100
1000
0100
0000
0001
1000
0001
,
0000
0001
1000
0100
0000
0001
0100
0001
,
0000
0001
1000
0100
0000
0100
1000
0100
,
1000
0001
0000
1010
0000
0010
1000
0010
,
0100
0001
0000
0101
0000
0001
1000
0100
,
0010
0100
1000
0010
1000
0010
1000
0100
,
0010
0100
1000
0100
1000
0001
0000
1100
;

//--------------- dance-double - B. M'Rey ----------------
#NOTEDATA:;
#STEPSTYPE:dance-double;
#DESCRIPTION:B. M'Rey;
#DIFFICULTY:Easy;
#METER:5;
#RADARVALUES:0,0,0,0,0;
#CREDIT:B. M'Rey;
#NOTES:
00000000
00000000
00000000
00000000
,
00000000
00000000
00000000
00000000
,
00000000
00001000
00000000
00000000
,
00000000
01000000
00000000
00000000
,
00000000
01010000
00000000
00000000
,
00000000
10000000
00000000
00000000
,
00000000
11000000
00000000
00000000
,
00000000
00100000
00000000
00000000
,
00000000
00110000
00000000
00000000
,
00000000
00001000
00000000
00000000
,
00000000
00001010
00000100
00001000
,
00000100
00010000
00000100
00000000
,
00000010
00010000
00000000
00001000
,
00000000
00001000
00000010
00010000
,
00000000
00000100
00000000
00010000
,
00000000
00001000
00000000
01000000
,
00000000
00110000
00000000
00000101
,
00000000
00000101
00000000
00000110
,
00000000
00001000
00000001
00001000
,
00000000
00001000
00000100
00000010
,
00000000
00010000
00001000
00100000
,
00000000
00100000
00000000
00100000
,
00000000
10000000
00010000
10000000
,
00000000
10000000
01000000
00001000
,
00000000
00010000
00000010
00010000
,
00000000
00000010
00000000
00000000
,
00000000
00010000
00001000
00010000
,
00000100
00010000
00001000
01000000
,
00000000
01000000
00001000
00100000
,
00010000
01000000
00010000
01000000
,
00001000
00100000
00010000
00100000
,
00001000
00010000
00001000
00010000
,
00000000
00100000
00010000
00000010
,
00000001
00000000
00000010
00000000
00000100
00000000
00001000
00000100
,
00000000
00000001
00000000
00001000
00000000
00000010
00000000
00010000
,
00000000
00000010
00000000
00010000
00000000
00000000
00000000
01000000
,
00000000
00000000
00000000
01000000
00000000
00000000
00000000
00001000
,
00000000
00000000
00000000
01000000
00000000
00000000
00000000
00010000
,
00000000
00001000
00000000
00010000
00000000
00000000
00000000
00010000
,
00000000
00000010
00000000
00000100
00000000
00000000
00000000
00000101
,
00000000
00000000
00000000
00000101
00000000
00000000
00000000
01001000
,
00000000
00000000
00000000
00101000
00000000
00000000
00000000
01001000
;

//--------------- dance-double - B. M'Rey ----------------
#NOTEDATA:;
#STEPSTYPE:dance-double;
#DESCRIPTION:B. M'Rey;
#DIFFICULTY:Medium;
#METER:8;
#RADARVALUES:0,0,0,0,0;
#CREDIT:B. M'Rey;
#NOTES:
00000000
00000000
00000000
00000000
,
00000000
00000000
00000000
00000000
,
00000000
00011000
01000000
01010000
,
10000000
00100000
00000000
00000000
00001100
00000000
00010000
00001000
,
00000000
00000000
00000011
00000000
00000000
00001000
00000001
00000000
,
00000100
00010000
00000100
00000001
,
00001000
00000000
00001001
00000000
00000000
00001000
00000001
00000000
,
00000100
00000000
00000000
00010000
00001000
00000000
01000000
00000000
,
00100000
00000000
00110000
00000000
00000000
00100000
00010000
00000000
,
01000000
00001000
00010000
00000000
00000100
00000000
00001000
00000000
,
00000010
11000000
00010000
01000000
,
10000000
01000000
00000000
00100000
00001000
00000000
00010000
00000000
,
00000010
00010000
00000010
00000000
00000001
00000000
00001000
00000000
,
00000001
00000010
00010000
00000100
,
00001000
00000010
00001000
00000000
00000100
00000000
00000000
00000000
,
00010000
00000010
00010000
00000000
00001000
00000000
00000000
00100000
,
01000000
10000000
01000000
00010000
,
10000000
00101000
00010100
00001100
,
00001010
00010000
00001000
00100000
,
00010000
00100000
00010000
00000000
01000000
00000000
00001000
00000000
,
00100000
00001000
00100000
00000000
01000000
00000000
00010000
00000000
,
01000000
00010000
00001010
00000000
00001100
00000000
00010100
00000000
,
00001100
00000000
00000010
00000000
00000001
00000000
00000010
00000001
,
00000010
00000000
00000100
00000000
00010000
00000000
00001000
00010000
,
00001000
00000000
01000000
00000000
00010000
00000000
10000000
00010000
,
10000000
00101000
00000000
00000000
,
00000000
00001000
01000000
00010000
,
00100000
00000000
01000000
00000000
00100000
00000000
00110000
00110000
,
00000000
01000000
10000000
01000000
,
00010000
10000000
00100000
10000000
,
00100000
00001000
00010000
00001000
,
00010000
00000000
00000100
00000000
00010000
00000000
00000110
00000110
,
00000000
00001000
00000010
00001000
,
00000100
00000000
00010000
00000000
00000010
00000000
00011000
01000000
,
00000000
00010000
00000000
01000000
00000000
00001000
00000000
00010000
,
00000000
00001000
00000000
00011000
00000000
00000000
00000000
00011000
,
00000000
00000000
00000000
00011000
00000000
00000000
00000000
00011000
,
00000000
00000000
00000000
00011000
00000000
00010000
00000000
00001000
,
00000000
00010000
00001000
00010000
00000000
00000010
00000000
00000100
,
00000000
00000010
00000100
00000010
00000000
00000001
00000000
00000110
,
00000000
00000000
00000000
11000000
00000000
00000000
00000000
00000101
,
00000000
11000000
00000000
00000101
00000000
01001000
00000000
00101000
;

//--------------- dance-double - B. M'Rey ----------------
#NOTEDATA:;
#STEPSTYPE:dance-double;
#DESCRIPTION:B. M'Rey;
#DIFFICULTY:Hard;
#METER:11;
#RADARVALUES:0,0,0,0,0;
#CREDIT:B. M'Rey;
#NOTES:
00000000
00000000
00000000
00000000
,
00000000
00000000
00000000
00000000
,
00000000
00000000
01001000
00000000
00100000
00001000
00010000
00000000
,
00000100
00000000
00010000
00000000
00000100
00000000
00000000
00010000
00000000
00000000
00001000
00000000
00010010
00000000
00010010
00000000
,
00000000
00010010
00000000
00000000
00001010
00000000
00000000
00000000
00100000
00000000
00001000
00000000
01000000
00000000
00000000
00000000
,
01000000
00000000
00100000
00000000
11000000
00000000
11000000
00000000
00000000
01100000
00000000
00000000
01000000
00000000
00001000
00000000
,
00100000
01000000
00110000
00000000
00010000
01000000
10000000
00000000
,
01000000
00100000
01000000
00000000
10000000
01000000
00011000
00011000
,
00000000
01001000
00000000
00000000
00001010
00000000
00000000
00000000
00010000
00000000
00000010
00000000
00000100
00000000
00000000
00000000
,
00001000
00000000
00000100
00000000
00001001
00000000
00001001
00000000
00000000
00000101
00000000
00000000
00000101
00000000
00000000
00000000
,
00001000
00000100
00001000
00000000
00000100
00000000
00000010
00000000
,
00010000
00000100
00001000
00000000
00000010
00001000
00000010
00000000
,
00010000
00000010
00010000
00001000
00100000
00001000
00100000
00000000
,
00010000
00000010
00010000
00000100
00000000
00002000
00000000
00000000
,
00013000
00000100
00001000
00000000
00000100
00000000
00010000
00001000
,
00100000
00001000
00010000
00000000
00000010
00000000
00010000
00000100
,
00001000
00000100
00011000
00000000
00011000
00000000
00000101
00000000
,
00010001
00000000
00010000
00000010
00010000
00001000
01000000
00000000
,
01010000
00000000
00110000
00000000
00100000
01000000
10000000
00000000
,
10000000
01000000
00100000
00000000
10000000
00100000
10000000
00000000
,
10000000
00100000
00001000
00000000
00010000
00001000
00010000
00000000
,
00000010
00000100
00000011
00000000
00001001
00000000
00001100
00000000
,
00000110
00000000
00000100
00000000
00010000
00001000
01000000
00000000
,
01000000
00001000
00100000
00000000
00010000
10000000
00010000
00000000
,
00100000
00010000
00100000
00000000
00001000
00010000
00001000
00000000
,
01000000
00010000
01010000
00000000
01000000
00000000
00010000
00000000
,
00000100
00000000
00000010
00000001
00001000
00000001
00001000
00000010
,
00010000
00000100
00010000
00000100
00001000
00000100
00001001
00001001
,
00000000
00011000
00000000
00000000
00000000
00000000
00000100
00000000
00010000
00000000
00000010
00000000
00010000
00000000
00001000
00000000
,
00100000
00001000
01000000
00000000
00010000
00000000
01000000
00100000
,
10000000
01000000
10000000
01000000
10000000
00010000
00100000
00000000
,
00100000
00010000
00000000
00010000
00100000
00001000
00110000
00110000
,
00000000
00011000
00000000
00000000
00001100
00000000
00000000
00000000
01000000
00000000
00000100
00000000
00000010
00000000
00000100
00000000
,
00000010
00000001
00001000
00001000
00001000
00001000
00000001
00000010
,
00000000
00001000
00000000
00000010
00000000
00001000
00000001
00000000
,
00000100
00000010
00000001
00000010
00000000
00001000
00000001
00001000
,
00000000
00001000
00000100
00010000
00000000
01000000
00010000
01000000
,
00000000
01000000
00010000
10000000
00000000
10000000
00010000
10000000
,
00010000
00100000
00000000
01010000
00000000
01000000
00010000
01000000
,
00001000
00010000
00000000
00011000
00000000
00010000
00000100
00000010
,
00000100
00000010
00000000
00000100
00000010
00000100
00000000
00001100
,
00000000
00011000
00000000
00101000
00000000
00011000
00000000
00101000
;
