#VERSION:0.83;
#TITLE:Body (I.C.B. Club Vocal Mix);
#ARTIST:平田智樹 featuring JD Braithwaite;
#ARTISTTRANSLIT:Tomoki Hirata featuring JD Braithwaite;
#GENRE:UK GARAGE;
#CREDIT:B. M'Rey;
#MUSIC:Body (I.C.B. Club Vocal Mix).ogg;
#BANNER:Body (I.C.B. Club Vocal Mix)-bn.png;
#BACKGROUND:Body (I.C.B. Club Vocal Mix)-bg.png;
#CDTITLE:./CDTITLES/Dance maniax.png;
#SAMPLESTART:29.162;
#SAMPLELENGTH:15;
#OFFSET:-0.023;
#BPMS:0=133.859;
#DISPLAYBPM:134;

//--------------- dance-single - B. M'Rey ----------------
#NOTEDATA:;
#STEPSTYPE:dance-single;
#DESCRIPTION:B. M'Rey;
#DIFFICULTY:Beginner;
#METER:3;
#RADARVALUES:0,0,0,0,0;
#CREDIT:B. M'Rey;
#NOTES:
0000
0000
0000
0000
,
0000
0000
0000
0000
,
0000
1000
0000
0000
,
0000
0000
0000
0000
,
0000
0010
0000
0000
,
0000
0000
0000
0000
,
0000
0100
0000
0000
,
0000
0000
0000
0000
,
0000
0001
0000
1000
,
0000
0010
0000
0100
,
0000
0010
0000
0100
,
0000
1000
1000
1000
,
0000
0001
0000
0010
,
0000
0001
0000
0100
,
0000
0010
0000
0100
,
0000
1001
0000
0000
,
0000
0100
0000
0100
,
0000
0010
0010
0010
,
0000
1000
0000
0001
,
0000
1000
0000
0001
,
0000
0010
0000
0010
,
0000
0100
0100
0100
,
0000
0001
0000
1000
,
0000
0010
0000
0100
,
0000
0001
0000
0001
,
0000
1000
1000
1000
,
0000
0010
0000
0100
,
0000
0010
0000
1000
,
0000
0100
0000
0100
,
0000
0010
0010
0010
,
0000
0001
0000
1000
,
0000
0010
0000
0100
,
0000
0010
0000
0000
,
0000
0000
0000
0000
,
0000
1000
0000
0001
,
0000
1000
0000
0001
,
0000
0000
0100
0000
,
0000
0000
0000
0000
,
0000
0010
0000
0100
,
0000
1001
0000
0000
,
0000
0010
0000
0010
,
0000
0100
0100
0100
,
0000
0001
0000
1000
,
0000
0001
0000
1000
,
0000
0100
0000
0100
,
0000
0010
0010
0010
,
0000
1000
0000
0001
,
0000
0100
0000
0010
,
0000
1000
0000
1000
,
0000
0001
0001
0001
,
0000
0100
0000
0010
,
0000
0100
0000
0001
,
0000
0010
0000
0010
,
0000
0100
0100
0100
,
0000
1000
0000
0001
,
0000
0100
0000
0010
,
0000
0100
0000
0000
;

//--------------- dance-single - B. M'Rey ----------------
#NOTEDATA:;
#STEPSTYPE:dance-single;
#DESCRIPTION:B. M'Rey;
#DIFFICULTY:Easy;
#METER:5;
#RADARVALUES:0,0,0,0,0;
#CREDIT:B. M'Rey;
#NOTES:
0000
0000
0000
0000
,
0000
0000
0000
0000
,
0000
1000
0000
0000
,
0000
0000
0000
0000
,
0000
0001
0000
0100
,
0000
0010
0000
1000
,
0000
1001
0000
0110
,
0000
1001
0000
0001
,
0000
1000
0001
0100
,
0000
0010
0100
0001
,
0000
1000
0010
1000
,
0010
0100
0010
0100
,
0000
0001
0010
0001
,
0000
0100
0010
1000
,
0000
0001
0010
0001
,
0100
0010
0000
1000
,
0000
1001
0000
1001
,
0000
0010
0100
0001
,
0000
1000
0000
0010
,
0000
0100
0000
0001
,
0010
1010
0000
1010
,
0000
0100
0001
0010
,
0000
0001
0000
1000
,
0000
0010
0000
0100
,
0000
0101
0000
0101
,
0000
0010
1000
0010
,
0000
0100
0000
0010
,
0000
1000
0000
0001
,
0000
0110
0000
0110
,
0000
1000
0010
0100
,
0000
0010
0000
1000
,
0000
0001
0000
0010
,
0000
0100
0001
0000
,
0000
0000
0000
0000
,
0000
1000
0010
0100
,
0001
0010
0001
0100
,
0010
0000
1000
0000
,
0000
0000
0000
0000
,
0000
0001
0010
0100
,
1000
0110
0000
0000
,
0000
0011
0000
0011
,
0000
1000
0010
1000
,
0000
0100
0000
1000
,
0000
0001
0000
0010
,
0000
0110
0000
0110
,
0000
1000
0010
0001
,
0000
0100
0000
1000
,
0000
0010
0000
0100
,
0000
0110
0000
0110
,
0000
1000
0001
1000
,
0000
0010
0000
0100
,
0000
0001
0000
1000
,
0000
1001
0000
1001
,
0000
0010
0100
0010
,
0000
1000
0000
0001
,
0000
0010
0000
0100
,
0000
0110
0000
0000
;

//--------------- dance-single - B. M'Rey ----------------
#NOTEDATA:;
#STEPSTYPE:dance-single;
#DESCRIPTION:B. M'Rey;
#DIFFICULTY:Medium;
#METER:9;
#RADARVALUES:0,0,0,0,0;
#CREDIT:B. M'Rey;
#NOTES:
0000
0000
0000
0000
,
0000
0000
0000
0000
,
0000
0001
0001
0000
0100
0000
1000
0000
,
0010
0100
0010
0100
,
0010
0100
0001
0000
1000
0000
0001
0000
,
0010
0001
0100
0010
,
1000
0010
0010
0000
1001
0000
1010
0000
,
1010
0000
0110
0000
0101
0000
0000
0020
,
0000
0000
0030
0010
0100
0000
1000
0100
,
0000
0001
0010
0000
1000
0001
0100
0000
,
0000
0000
0000
0100
0010
0001
1000
0000
,
0010
1000
0100
1000
,
0000
0000
0000
0010
1000
0100
0010
0000
,
0000
0001
0010
0001
0000
0020
0000
0000
,
1030
0000
0000
0001
1000
0100
0000
0100
,
0010
0001
0000
0100
0000
0002
0000
0000
,
0003
0000
0000
0000
1100
0000
0000
0001
0000
0000
0000
0000
0101
0000
0000
0100
,
0000
0001
0010
0000
0001
0000
1000
0000
,
0100
0010
0001
0000
0010
0000
0001
0000
,
1000
0000
0010
0001
0100
0000
0100
0001
,
0100
0000
0000
0000
0011
0000
0000
0100
0000
0000
0000
0000
1010
0000
0000
1000
,
0000
0010
0100
0000
0100
0000
0010
0000
,
0001
1000
0010
0000
0100
0000
0001
0000
,
0100
0000
0010
0001
1000
0000
0100
0010
,
0100
0000
0000
0000
1100
0000
0000
0010
0000
0000
0000
0000
1001
0000
0000
1000
,
0000
0100
0010
0000
0100
0000
0001
0010
,
1000
0100
0010
0001
,
1000
0000
1000
0010
0100
0000
0100
0010
,
1000
0000
0000
0000
1100
0000
0000
1000
0000
0000
0000
0000
0110
0000
0000
1000
,
0000
0010
0100
0000
0010
0000
0100
0000
,
0010
1000
0001
0000
1000
0000
0001
0000
,
1000
0100
0010
0100
,
1000
0000
0101
0000
0010
0002
0000
0000
,
0000
0000
0013
0000
,
1000
0001
1100
0000
0110
0000
1000
0010
,
1001
0000
1000
0000
0010
0000
1000
0001
,
0010
0000
1000
0010
0100
0020
0000
0000
,
0000
0000
0000
0000
0000
0000
0000
0030
,
1000
0001
1010
0000
0101
0000
1000
0010
,
0100
2002
0000
0000
,
3003
0000
0000
0000
0101
0000
0000
0100
0000
0000
0000
0000
0110
0000
0000
1000
,
0000
0010
0001
0000
1000
0000
0010
0000
,
0100
0010
0001
0000
0100
0000
0010
0000
,
0100
0010
1000
0010
,
1000
0000
0000
0000
0011
0000
0000
1000
0000
0000
0000
0000
1001
0000
0000
1000
,
0000
0010
0001
0000
0010
0000
0100
0000
,
1000
0010
0100
0000
1000
0000
0100
0000
,
0010
0001
0010
0100
,
0010
0000
0000
0000
0101
0000
0000
0010
0000
0000
0000
0000
1001
0000
0000
1000
,
0000
0100
0001
0000
0010
0000
0100
0000
,
0010
1000
0100
0000
1000
0000
0010
0000
,
1000
0100
1000
0100
,
0010
0000
0000
0000
0101
0000
0000
0010
0000
0000
0000
0000
0110
0000
0000
1000
,
0000
0010
0100
0000
0010
0000
0001
0000
,
0010
1000
0001
0000
0100
0000
0010
0000
,
0100
0010
1000
0010
,
0100
1001
0000
0000
;

//--------------- dance-single - B. M'Rey ----------------
#NOTEDATA:;
#STEPSTYPE:dance-single;
#DESCRIPTION:B. M'Rey;
#DIFFICULTY:Hard;
#METER:11;
#RADARVALUES:0,0,0,0,0;
#CREDIT:B. M'Rey;
#NOTES:
0000
0000
0000
0000
,
0000
0000
0000
0000
,
0000
0010
1000
0000
0010
0000
1000
0000
,
0010
1000
0100
1000
,
0010
1000
0001
0000
1000
0000
0001
0000
,
0010
0001
0100
0010
,
0100
0000
0010
0001
0100
0010
0100
0000
,
1000
0010
1000
0001
0000
1000
0000
0010
,
0000
0000
1001
0001
1000
0001
0100
0000
,
0000
0100
0010
0100
1000
0200
0000
0001
,
0301
0000
1000
0010
0100
0010
1000
0100
,
0010
0001
0100
0010
0100
0001
1000
0000
,
0100
0000
0100
0010
1000
0001
0010
0000
,
0000
0001
0100
0010
1000
0002
0000
0000
,
0013
0000
1000
0100
1000
0100
0000
0001
,
0100
0010
0101
0000
1010
0000
1100
0000
,
0000
0000
0000
0000
0100
0000
0010
1000
0000
0000
0001
0000
0100
0000
0010
1000
,
0000
0000
0100
0000
1000
0000
0100
1000
0000
0010
0000
0100
0000
0000
0001
0000
,
0100
0001
0010
0000
0100
0000
0010
0000
,
1000
0000
0100
0010
1000
0100
0010
0001
,
0100
0000
0001
0000
0100
0000
0001
1000
0000
0000
0010
0000
1000
0000
0100
1000
,
0000
0000
0100
0000
0010
0000
0100
1000
0000
0010
0000
0100
0000
0000
0001
0000
,
0010
0100
0010
0000
0100
0000
1000
0000
,
0001
0000
0100
0010
1000
0010
1000
0001
,
1000
0000
0100
0000
0011
0000
0000
1000
0000
0000
0001
0000
0100
0000
0001
1000
,
0000
0000
0010
0000
1000
0000
0100
1000
0000
0100
0000
0010
0000
0000
0001
0000
,
1000
0001
0010
0000
0100
0000
1000
0000
,
0001
0000
0100
0010
1000
0010
0100
0001
,
1000
0000
0010
0000
1000
0000
0100
1000
0000
0000
0010
0000
0100
0000
0001
0100
,
0000
0000
0001
0000
0010
0000
0001
1000
0000
0010
0000
0100
0000
0000
0010
0000
,
0100
0010
1000
0000
0010
0000
1000
0000
,
0100
0000
0001
0000
0010
0001
0010
0100
,
0010
0100
1100
0000
1000
0010
0200
0000
,
0001
0010
0301
0010
,
0010
0001
1100
0000
1001
0000
0100
0001
,
0010
0001
1000
0100
1000
0001
0010
0001
,
1000
0001
1001
0000
0010
0000
0200
0000
,
0010
1000
0010
1000
,
0310
0001
0110
0000
1100
0000
0011
0000
,
1010
1001
0011
1001
,
0110
0000
0000
0000
0010
0000
0001
1000
0000
0000
0100
0000
0010
0000
0100
0010
,
0000
0000
0100
0000
1000
0000
0001
1000
0000
0100
0000
0010
0000
0000
0100
0000
,
1000
0010
0001
0000
0010
0000
0001
0000
,
0010
0000
1000
0100
1000
0010
0100
0010
,
0100
0000
0001
0000
0100
0000
0010
1000
0000
0000
0010
0000
1000
0000
0100
1000
,
0000
0000
0100
0000
0010
0000
0001
1000
0000
0100
0000
1000
0000
0000
0100
0000
,
1000
0010
0001
0000
0010
0000
0001
0000
,
0010
0000
1000
0100
0010
0001
1000
0100
,
1000
0000
0100
0000
1001
0000
0000
0001
0000
0000
0100
0000
1000
0000
0010
0100
,
0000
0000
0010
0000
0100
0000
0001
0100
0000
0010
0000
1000
0000
0000
0001
0000
,
0100
0001
0010
0000
0100
0000
0001
0000
,
1000
0000
1000
0001
0100
0010
0100
0001
,
1000
0000
0100
0000
1000
0000
0001
0100
0000
0000
0001
0000
0010
0000
0100
1000
,
0000
0000
0001
0000
1000
0000
0001
1000
0000
0100
0000
0010
0000
0000
0001
0000
,
1000
0100
0001
0000
1000
0000
0001
0000
,
1000
0000
0100
0001
0010
0001
0010
0001
,
1000
0010
0110
0000
0000
0000
0000
0000
;

//--------------- dance-double - B. M'Rey ----------------
#NOTEDATA:;
#STEPSTYPE:dance-double;
#DESCRIPTION:B. M'Rey;
#DIFFICULTY:Easy;
#METER:5;
#RADARVALUES:0,0,0,0,0;
#CREDIT:B. M'Rey;
#NOTES:
00000000
00000000
00000000
00000000
,
00000000
00000000
00000000
00000000
,
00000000
00010000
00000000
00000000
,
00000000
00000000
00000000
00000000
,
00000000
00001000
00000000
00100000
,
00000000
00010000
00000000
01000000
,
00000000
00001000
00000000
00010000
,
00000000
00000000
00001000
00000000
00000000
00000000
00000000
00002000
,
00000000
00103000
00001000
01000000
,
00000000
00010000
01000000
00001000
,
00000000
00010000
00000100
00010000
,
00000100
00000010
00000100
00000010
,
00000000
00000001
00000100
00000001
,
00000000
00000010
00000100
00010000
,
00000000
00001000
00100000
00001000
,
01000000
00100000
00000000
10000000
,
00000000
11000000
00000000
11000000
,
00000000
00010000
00100000
00001000
,
00000000
00010000
00000000
00000010
,
00000000
00001000
00000000
00000001
,
00000010
00001100
00000000
00001100
,
00000000
00010000
00000010
00001000
,
00000000
00000010
00000000
00010000
,
00000000
00001000
00000000
00100000
,
00000000
01100000
00000000
01100000
,
00000000
00010000
10000000
00010000
,
00000000
01000000
00000000
00010000
,
00000000
10000000
00000000
00100000
,
00000000
00011000
00000000
00011000
,
00000000
01000000
00001000
00100000
,
00000000
00001000
00000000
00010000
,
00000000
00000100
00000000
00000010
,
00000000
00000001
00000100
00000000
,
00000000
00000000
00000000
00000000
,
00000000
00010000
00000010
00001000
,
00000100
00010000
00000100
00001000
,
00000001
00000000
00000010
00000000
,
00000000
00000000
00000000
00000000
,
00000000
00000100
00010000
00000010
,
00001000
00010010
00000000
00000000
,
00000000
00011000
00000000
00011000
,
00000000
01000000
00010000
01000000
,
00000000
00100000
00000000
01000000
,
00000000
00001000
00000000
00010000
,
00000000
00010100
00000000
00010100
,
00000000
01000000
00010000
00001000
,
00000000
01000000
00000000
00100000
,
00000000
01000000
00000000
10000000
,
00000000
11000000
00000000
11000000
,
00000000
00100000
00010000
00100000
,
00000000
00001000
00000000
00010000
,
00000000
00000100
00000000
00001000
,
00000000
00001100
00000000
00001100
,
00000000
00000001
00000010
00000001
,
00000000
00000100
00000000
00000010
,
00000000
00001000
00000000
00000001
,
00000000
00001001
00000000
00000000
;

//--------------- dance-double - B. M'Rey ----------------
#NOTEDATA:;
#STEPSTYPE:dance-double;
#DESCRIPTION:B. M'Rey;
#DIFFICULTY:Medium;
#METER:9;
#RADARVALUES:0,0,0,0,0;
#CREDIT:B. M'Rey;
#NOTES:
00000000
00000000
00000000
00000000
,
00000000
00000000
00000000
00000000
,
00000000
00001000
00010000
00000000
00000010
00000000
00000100
00000000
,
00000010
00001000
00000100
00010000
,
00001000
00010000
00001000
00000000
01000000
00000000
00100000
00000000
,
00010000
10000000
01000000
00100000
,
01000000
00001000
00100000
00000000
00001000
00000000
00010000
00000000
,
00000100
00000000
00010000
00000000
00000000
00000000
00000000
00002000
,
00000000
00000000
00013000
00000100
00000010
00000000
00000001
00000010
,
00000000
00001000
00000100
00000000
00000001
00001000
00000010
00000000
,
00000000
00000000
00000000
00000010
00000100
00010000
00001000
00000000
,
00100000
00001000
01000000
00001000
,
00000000
00000000
00000000
00010000
00001000
01000000
00010000
00000000
,
00000000
10000000
00010000
10000000
00000000
00020000
00000000
00000000
,
01030000
00000000
00000000
10000000
01000000
00100000
00000000
00100000
,
00001000
00010000
00000000
00000100
00000000
00020000
00000000
00000000
,
00030000
00000000
00000000
00000000
00000010
00000000
00000000
00010000
00000000
00000000
00000000
00000000
00010000
00000000
00000000
00000100
,
00000000
00010000
00000010
00000000
00010000
00000000
00001000
00000000
,
00100000
00010000
01000000
00000000
00010000
00000000
01000000
00000000
,
00100000
00000000
10000000
01000000
00001000
00000000
00001000
01000000
,
00001000
00000000
00000000
00000000
01000000
00000000
00000000
00001000
00000000
00000000
00000000
00000000
00010000
00000000
00000000
00000010
,
00000000
00010000
00000100
00000000
00000100
00000000
00000001
00000000
,
00001000
00000010
00000100
00000000
00000001
00000000
00001000
00000000
,
00000001
00000000
00000100
00001000
00000001
00000000
00000010
00001000
,
00000010
00000000
00000000
00000000
00110000
00000000
00000000
01000000
00000000
00000000
00000000
00000000
10000000
00000000
00000000
00010000
,
00000000
00100000
10000000
00000000
00100000
00000000
01000000
00001000
,
00010000
00100000
00001000
00010000
,
00000100
00000000
00000100
00001000
00000001
00000000
00000001
00001000
,
00000010
00000000
00000000
00000000
00000100
00000000
00000000
00000010
00000000
00000000
00000000
00000000
00000100
00000000
00000000
00000010
,
00000000
00010000
00000100
00000000
00010000
00000000
00000100
00000000
,
00010000
00001000
00100000
00000000
00001000
00000000
00100000
00000000
,
00001000
01000000
00010000
01000000
,
00001000
00000000
00110000
00000000
01000000
20000000
00000000
00000000
,
00000000
00000000
31000000
00000000
,
00001000
00010000
01001000
00000000
01010000
00000000
00001000
00010000
,
00101000
00000000
00001000
00000000
00010000
00000000
00001000
00100000
,
00010000
00000000
00001000
00010000
00000100
00020000
00000000
00000000
,
00000000
00000000
00000000
00000000
00000000
00000000
00000000
00030000
,
00000010
00000100
00001010
00000000
00000011
00000000
00000100
00001000
,
00000001
22000000
00000000
00000000
,
33000000
00000000
00000000
00000000
01000000
00000000
00000000
10000000
00000000
00000000
00000000
00000000
10000000
00000000
00000000
00010000
,
00000000
10000000
00100000
00000000
10000000
00000000
00010000
00000000
,
00100000
00001000
00010000
00000000
00001000
00000000
00010000
00000000
,
00000010
00000000
00001000
00000100
00000001
00000000
00000001
00000100
,
00000001
00000000
00000000
00000000
00000100
00000000
00000000
00000001
00000000
00000000
00000000
00000000
00001000
00000000
00000000
00000010
,
00000000
00001000
00000100
00000000
00000100
00000000
00000010
00000000
,
00010000
00001000
01000000
00000000
00010000
00000000
00100000
00000000
,
00010000
00000000
01000000
10000000
00010000
00000000
00100000
01000000
,
00100000
00000000
00000000
00000000
00011000
00000000
00000000
01000000
00000000
00000000
00000000
00000000
10000000
00000000
00000000
00010000
,
00000000
00100000
10000000
00000000
00100000
00000000
01000000
00010000
,
00001000
00010000
00000010
00001000
,
00000100
00000000
00000100
00010000
00000010
00000000
00000010
00010000
,
00001000
00000000
00000000
00000000
01000000
00000000
00000000
00001000
00000000
00000000
00000000
00000000
01000000
00000000
00000000
00001000
,
00000000
00010000
00000100
00000000
00010000
00000000
00000100
00000000
,
00010000
00001000
00100000
00000000
00001000
00000000
00100000
00000000
,
00001000
00010000
00000100
00010000
,
00000010
01010010
00000000
00000000
;

//--------------- dance-double - B. M'Rey ----------------
#NOTEDATA:;
#STEPSTYPE:dance-double;
#DESCRIPTION:B. M'Rey;
#DIFFICULTY:Hard;
#METER:10;
#RADARVALUES:0,0,0,0,0;
#CREDIT:B. M'Rey;
#NOTES:
00000000
00000000
00000000
00000000
,
00000000
00000000
00000000
00000000
,
00000000
00001000
00010000
00000000
00000100
00000000
00000010
00000000
,
00001000
00000100
00001000
00000100
,
00001000
00000100
00010000
00000000
00001000
00000000
00010000
00000000
,
00000010
00010000
00001000
00100000
,
00010000
00100000
00100000
00000000
01010000
00000000
10010000
00000000
,
10010000
00000000
10100000
00000000
01100000
00000000
00000000
00020000
,
00000000
00000000
01030000
01000000
00100000
01000000
00001000
00000000
,
00000000
00001000
00100000
00001000
00000100
00002000
00000000
00010000
,
00013000
00000000
00000010
00001000
00000001
00001000
00000100
00000010
,
00000001
00000100
00000010
00001000
00000010
00010000
00001000
00000000
,
01000000
00000000
01000000
10000000
00100000
01000000
00010000
00000000
,
00000000
01000000
00001000
00010000
00000100
00000020
00000000
00000000
,
00001030
00000000
00000100
00010000
00000100
00010000
00000000
01000000
,
00010000
00000100
00011000
00000000
00000101
00000000
00001001
00000000
,
00000000
00000000
00000000
00000000
00001000
00000000
00000000
00000001
00000000
00000000
00000100
00000000
00000010
00000000
00000000
00000001
,
00000000
00000000
00000010
00000000
00000001
00000000
00000000
00000010
00000000
00001000
00000000
00000010
00000000
00000000
00010000
00000000
,
00000010
00010000
00001000
00000000
00100000
00000000
00001000
00000000
,
01000000
00000000
00100000
00010000
01000000
00100000
00010000
01000000
,
00001000
00000000
01000000
00000000
00001000
00000000
00000000
00010000
00000000
00000000
10000000
00000000
00010000
00000000
00000000
00010000
,
00000000
00000000
00100000
00000000
10000000
00000000
00000000
00010000
00000000
10000000
00000000
00100000
00000000
00000000
01000000
00000000
,
00001000
00010000
00001000
00000000
00010000
00000000
00000010
00000000
,
00000100
00000000
00000001
00001000
00000100
00001000
00000100
00010000
,
00000100
00000000
00001000
00000000
11000000
00000000
00000000
00010000
00000000
00000000
10000000
00000000
00100000
00000000
00000000
00001000
,
00000000
00000000
01000000
00000000
00001000
00000000
00000000
00001000
00000000
00010000
00000000
00000010
00000000
00000000
00000100
00000000
,
00000001
00000100
00000010
00000000
00010000
00000000
00001000
00000000
,
01000000
00000000
00010000
00100000
00001000
00100000
01000000
10000000
,
00010000
00000000
01000000
00000000
00010000
00000000
00000000
00100000
00000000
00000000
00001000
00000000
00010000
00000000
00000000
00000010
,
00000000
00000000
00001000
00000000
00000001
00000000
00000000
00000010
00000000
00010000
00000000
00000100
00000000
00000000
00010000
00000000
,
00000100
00010000
00001000
00000000
00010000
00000000
00001000
00000000
,
01000000
00000000
00010000
00000000
00000010
00010000
00000010
00001000
,
00000010
00001000
00001100
00000000
00000100
00010000
00002000
00000000
,
00100000
01000000
00013000
00000100
,
00000100
00010000
00000011
00000000
00010001
00000000
00001000
00010000
,
00000010
00010000
00001000
00100000
00001000
01000000
00010000
01000000
,
00100000
01000000
01100000
00000000
00001000
00000000
00200000
00000000
,
00001000
01000000
00010000
00001000
,
00310000
01000000
10010000
00000000
10100000
00000000
00001100
00000000
,
00000101
00001001
00001100
00001010
,
10100000
00000000
00000000
00000000
10000000
00000000
00000000
00010000
00000000
00000000
01000000
00000000
00001000
00000000
00000000
00000100
,
00000000
00000000
00001000
00000000
00000100
00000000
00000000
00001000
00000000
00100000
00000000
00001000
00000000
00000000
00010000
00000000
,
00001000
00010000
00000010
00000000
00001000
00000000
00000010
00000000
,
00000001
00000000
00001000
00000100
00000001
00001000
00000010
00010000
,
00001000
00000000
00010000
00000000
00001000
00000000
00000000
00000100
00000000
00000000
00000010
00000000
00000100
00000000
00000000
00000100
,
00000000
00000000
00001000
00000000
00100000
00000000
00000000
00010000
00000000
00100000
00000000
01000000
00000000
00000000
10000000
00000000
,
00010000
01000000
00010000
00000000
01000000
00000000
00100000
00000000
,
10000000
00000000
01000000
00100000
00010000
00100000
00010000
10000000
,
00010000
00000000
01000000
00000000
00001100
00000000
00000000
00000001
00000000
00000000
00001000
00000000
00000010
00000000
00000000
00000001
,
00000000
00000000
00000100
00000000
00000001
00000000
00000000
00000001
00000000
00000010
00000000
00000100
00000000
00000000
00010000
00000000
,
00000010
00010000
00001000
00000000
01000000
00000000
00010000
00000000
,
00100000
00000000
00001000
01000000
00010000
01000000
00001000
00010000
,
00000010
00000000
00000100
00000000
00000010
00000000
00000000
00001000
00000000
00000000
00000100
00000000
00010000
00000000
00000000
00001000
,
00000000
00000000
01000000
00000000
00100000
00000000
00000000
00010000
00000000
10000000
00000000
01000000
00000000
00000000
10000000
00000000
,
01000000
10000000
00010000
00000000
10000000
00000000
00010000
00000000
,
01000000
00000000
00100000
00000000
00001000
00100000
00001000
00010000
,
00001000
00010010
00000000
00000000
;
