#TITLE:Arrows;
#ARTIST:J-Phoenix84;
#GENRE:HOUSE SPILITUAL;
#CREDIT:B. M'Rey;
#MUSIC:Arrows.ogg;
#BANNER:Arrows-bn.png;
#BACKGROUND:Arrows-bg.png;
#CDTITLE:cdtitles/Dancing Stage Legacy.png;
#SAMPLESTART:15.161;
#SAMPLELENGTH:12;
#OFFSET:-0.028;
#BPMS:0=126.876,96=63.438,108=101.500,126.5=126.876;

//--------------- dance-single - B. M'Rey ----------------
#NOTES:
     dance-single:
     B. M'Rey:
     Beginner:
     1:
     0,0,0,0,0:
0000
0000
0000
0000
,
0000
0000
0000
0000
,
0000
0000
0000
0000
,
0000
0000
0000
0000
,
0001
0000
0000
0000
,
0100
0000
0000
0000
,
0010
0000
0000
0000
,
1000
0000
0000
0000
,
0001
0000
1000
0000
,
0010
0010
0100
0000
,
0001
0000
1000
0000
,
0100
0100
0010
0000
,
0001
0000
1000
0000
,
0001
0001
1000
0000
,
0010
0000
0100
0000
,
0001
0001
1000
0000
,
0100
0000
0000
0000
,
0010
0000
0000
0000
,
1000
0000
0000
0000
,
0001
0000
0000
0000
,
0100
0000
0010
0000
,
1000
0000
0001
0000
,
0010
0000
0001
0000
,
0100
0000
0010
0000
,
0001
0000
1000
0000
,
0000
0100
0000
0000
0000
0000
0000
0000
,
0001
0000
1000
0000
,
0001
0000
0000
0000
0100
0000
0000
0000
0000
0000
0000
0000
0000
0010
0000
0000
,
0000
0000
0000
0000
0000
1000
0000
0000
0000
0000
0000
0000
0000
0000
0001
0000
,
0000
0000
0000
0000
0000
0000
0100
0000
0000
0000
0000
0000
0000
0000
0000
0010
,
0000
0000
1000
0000
,
0001
0000
0000
1000
,
0000
0000
0010
0000
,
0000
0000
0100
0000
,
0000
0001
0000
0000
,
1000
0000
0000
0010
,
0000
0000
0100
0000
,
0000
0001
0000
1000
,
0000
0000
0010
0000
,
0000
0000
1000
0000
,
0001
0000
0100
0100
,
0010
0000
0001
0000
,
1000
0000
0010
0010
,
0100
0000
0001
0000
,
0010
0000
0100
0100
,
1000
0000
0001
0000
,
0010
0000
0001
0001
,
0100
0000
0000
0000
;

//--------------- dance-single - B. M'Rey ----------------
#NOTES:
     dance-single:
     B. M'Rey:
     Easy:
     3:
     0,0,0,0,0:
0000
0000
0000
0000
,
0000
0000
0000
0000
,
0000
0000
0000
0000
,
0000
0000
0000
0000
,
0100
0001
0100
0010
,
0100
0010
1000
0010
,
1000
0100
0010
0100
,
1000
0001
1000
0010
,
0100
0001
0010
0000
0100
1000
0010
0000
,
1000
0000
0001
1000
0000
0010
0001
0000
,
0100
0010
0100
0000
0100
0001
0010
0000
,
1000
0000
0001
1000
0000
1000
0100
0000
,
0010
0100
0010
0000
1000
0001
0100
0000
,
0010
0000
0001
1000
0000
1000
0010
0000
,
0100
0001
0010
0000
0100
1000
0010
0000
,
1000
0000
0001
1000
0000
1000
0100
0000
,
0010
0000
0001
0000
,
0100
0000
0010
0000
,
1000
0000
0010
0000
,
1000
0000
0100
0000
,
1000
0010
0100
0001
,
0100
0010
1000
0100
,
0010
0100
0010
0100
,
1000
0001
0010
0001
,
2000
0000
3100
0010
,
0100
0010
1000
0100
,
0010
0001
0010
0001
,
0010
0100
1000
0010
,
0100
0010
0100
0010
,
1000
0001
0100
0010
,
0100
0010
1000
0001
,
1000
0100
0000
0001
,
0010
0000
0100
0000
1000
0000
0001
1000
,
0000
1000
0100
0000
1000
0000
0100
0000
,
0010
0000
0100
0000
1000
0000
0010
1000
,
0000
1000
0010
0000
1000
0000
0001
0000
,
0100
0000
0010
0000
1000
0000
0100
1000
,
0000
1000
0100
0000
1000
0000
0010
0000
,
0100
0000
0010
0000
0100
0000
0010
1000
,
0000
1000
0100
0000
1000
0000
0100
0000
,
1000
0000
0010
0000
0100
0000
0010
1000
,
0000
1000
0100
0000
1000
0000
0001
0000
,
0010
0000
0100
0000
0010
0000
0001
1000
,
0000
1000
0001
0000
1000
0000
0001
0000
,
0010
0000
0100
0000
1000
0000
0010
1000
,
0000
1000
0010
0000
1000
0000
0100
0000
,
0010
0000
0100
0000
0010
0000
0001
1000
,
0000
1000
0100
0000
0000
0000
0000
0000
;

//--------------- dance-single - B. M'Rey ----------------
#NOTES:
     dance-single:
     B. M'Rey:
     Medium:
     5:
     0,0,0,0,0:
0000
0000
0000
0000
,
0000
0000
0000
0000
,
0000
0000
0000
0000
,
0000
0000
0000
0000
,
0001
0100
0010
1000
,
0100
0000
1000
0010
0000
0010
0100
0000
,
0010
0100
0001
0100
,
0001
0000
0010
0001
0000
0001
0010
0000
,
0010
0100
0010
0000
0010
1000
0001
0000
,
0001
1000
0001
0000
0100
1000
0100
0000
,
0100
0010
0001
0000
0001
1000
0001
0000
,
0100
1000
0100
0000
0001
0010
0001
0000
,
0100
1000
0001
0000
0001
0100
0001
0000
,
0010
0100
0010
0000
0010
1000
0001
0000
,
0100
0010
0100
0000
0100
1000
0010
0000
,
0010
1000
0100
0000
0100
0010
0100
0000
,
0100
0000
1000
0000
0001
0000
1000
0100
,
0001
0000
1000
0000
0010
0000
0100
0001
,
0010
0000
0100
0000
0001
0000
0100
1000
,
0001
0000
0010
0000
0001
0000
1000
0010
,
1000
0000
0100
0000
1000
0000
0001
0010
,
1000
0000
0001
0000
0100
0000
0001
1000
,
0100
0000
0010
0000
0100
0000
0010
0001
,
1000
0000
0001
0000
1000
0000
0001
1000
,
0020
0000
1030
0001
,
1000
0001
1000
0010
,
0100
0010
0100
0010
,
1000
0100
1000
0100
,
1000
0010
0100
0001
,
0100
0001
0100
0010
,
1000
0010
1000
0010
,
0100
0001
0000
1000
,
0100
0000
1000
0000
0100
0000
1000
0010
,
0000
0010
0100
0000
0010
0000
0100
0000
,
0010
0000
1000
0000
0001
0000
1000
0001
,
0000
0001
1000
0000
0010
0000
0100
0000
,
0010
0000
0100
0000
0010
0000
1000
0100
,
0000
0100
1000
0000
0100
0000
1000
0000
,
0001
0000
0010
0000
0001
0000
0010
0001
,
0000
0001
0100
0000
0010
0001
0010
0000
,
1000
0001
1000
0000
1000
0010
0100
0000
,
0100
0001
0010
0000
0010
0001
1000
0000
,
0100
0001
0100
0000
0100
0010
1000
0000
,
1000
0010
0100
0000
0100
0001
0100
0000
,
1000
0001
1000
0000
1000
0010
0100
0000
,
1000
0100
1000
0000
1000
0100
0010
0000
,
0010
0001
1000
0000
1000
0100
1000
0000
,
0100
0010
0100
0000
0000
0000
0000
0000
;

//--------------- dance-single - B. M'Rey ----------------
#NOTES:
     dance-single:
     B. M'Rey:
     Hard:
     7:
     0,0,0,0,0:
0000
0000
0000
0000
,
0000
0000
0000
0000
,
0000
0000
0000
0000
,
0000
0000
0000
0000
,
1000
0001
0100
0010
,
1000
0000
0010
1000
0000
1000
0010
0000
,
0100
0001
1000
0010
,
0100
0000
0010
0100
0000
0100
0001
0000
,
0010
0100
0010
0100
0010
0001
1000
0010
,
0100
0000
0100
0010
0000
0100
1000
0000
,
1000
0100
0010
0100
1000
0100
0010
0001
,
0010
0000
0010
0100
0000
0001
0100
0000
,
0100
0001
0010
0100
0010
0001
0100
0010
,
1000
0000
0010
0100
0000
0001
0100
0000
,
0010
0001
0100
0010
0100
0010
0100
0001
,
1000
0000
1000
0001
0000
0001
0010
0000
,
1000
0000
0100
0000
1000
0000
0001
0010
,
1000
0000
0001
0000
1000
0000
0010
0001
,
0100
0000
0010
0000
1000
0000
0001
0010
,
1000
0000
0100
0000
0010
0000
0100
1000
,
1000
0000
0100
0010
1000
0000
0010
0100
,
1000
0000
1000
0001
0010
0000
0010
0001
,
0100
0000
1000
0100
0010
0000
1000
0010
,
1000
0000
0100
0010
0100
0000
0010
0001
,
2000
0000
0000
0000
0000
0000
0000
0000
0000
3000
0000
0000
1000
0000
0001
0000
0010
0000
0000
0000
0010
0000
0001
0000
,
0100
0000
0100
0001
0010
0000
1000
0001
0010
0000
0010
0001
,
0010
0000
0100
0001
0010
0000
0010
0100
0010
0000
0100
0001
,
0100
0000
0001
0000
0100
0000
0000
0000
1000
0000
0000
0000
0010
0000
0000
0001
,
0000
0000
0000
1000
0000
0000
0000
0000
0000
0010
0000
0000
0000
0000
0000
0000
1000
0000
0000
0000
0000
0000
0000
0000
0000
0000
0000
0000
0100
0000
0000
0000
0000
0000
0000
0000
0000
0000
0000
0000
0001
0000
0000
0000
0000
0000
0000
0000
,
0100
0000
0000
0010
0000
0000
0100
0000
0000
0000
0100
0000
0000
0000
0000
0000
0010
0000
0000
0000
0000
0001
0000
0000
,
0000
0000
0010
0000
0000
0100
0000
0000
0010
0000
0000
0000
0000
0100
0000
0000
0000
0000
1000
0000
0000
0000
0000
1000
,
0000
0100
1000
0010
0000
0000
1000
0000
,
0100
0000
1000
0000
0100
0000
1000
0010
,
0000
0010
0100
0000
0010
0000
0100
0000
,
0010
0000
1000
0000
0001
0000
1000
0001
,
0000
0001
1000
0000
0010
0000
0100
0000
,
0010
0000
0100
0000
0010
0000
1000
0100
,
0000
0100
1000
0000
0100
0001
1000
0000
,
0001
0000
0010
0000
0001
0000
0010
0001
,
0000
0001
0100
0000
0010
0001
0010
0100
,
0010
0100
1000
0010
0100
0000
1000
0001
,
0000
0100
0010
0000
0010
0001
1000
0100
,
0010
0100
0010
0100
1000
0000
1000
0100
,
0000
0001
0010
0000
1000
0001
0100
0010
,
0100
0001
0010
0001
1000
0000
0100
0001
,
0000
0010
1000
0000
0010
0100
0010
0100
,
1000
0100
0010
0001
0100
0000
0100
0001
,
0000
0001
0010
0000
0000
0000
0000
0000
;

//--------------- dance-double - B. M'Rey ----------------
#NOTES:
     dance-double:
     B. M'Rey:
     Easy:
     2:
     0,0,0,0,0:
00000000
00000000
00000000
00000000
,
00000000
00000000
00000000
00000000
,
00000000
00000000
00000000
00000000
,
00000000
00000000
00000000
00000000
,
00010000
00000000
00000000
00000000
,
00001000
00000000
00000000
00000000
,
01000000
00000000
00000000
00000000
,
00100000
00000000
00000000
00000000
,
10000000
00000000
00010000
00000000
,
01000000
00000000
00001000
00000000
,
00010000
00000000
00000010
00000000
,
00010000
00000000
00001000
00000000
,
00100000
00000000
01000000
00000000
,
10000000
00000000
01000000
00000000
,
00100000
00000000
00001000
00000000
,
00010000
00000000
00000100
00000000
,
00001000
00000000
00000000
00000000
,
00000010
00000000
00000000
00000000
,
00000100
00000000
00000000
00000000
,
00000001
00000000
00000000
00000000
,
00001000
00000000
00000000
00000000
,
00000010
00000000
00000000
00000000
,
00010000
00000000
00000000
00000000
,
00000100
00000000
00000000
00000000
,
00001000
00000000
00000010
00000000
,
00000000
00000001
00000000
00000000
,
00001000
00000000
00000000
00000000
,
00000100
00000000
00000000
00000000
,
00000000
00000001
00000000
00000000
,
00000000
00000000
00000100
00000000
,
00000000
00000000
00000010
00000000
,
00000000
00010000
00000000
00001000
,
00000000
00000000
00100000
00000000
,
00000000
00000000
00010000
00000000
,
00000000
00001000
00000000
00000000
,
00000000
00000000
01000000
00000000
,
00000000
00010000
00000000
00000000
,
00000000
00000000
10000000
00000000
,
00000000
01000000
00000000
00000000
,
00000000
00000000
00100000
00000000
,
00000000
00000000
00010000
00000000
,
00000000
00000000
00001000
00000000
,
00000000
00000000
00010000
00000000
,
00000000
00000000
00000100
00000000
,
00000000
00000000
00010000
00000000
,
00000000
00000000
00001000
00000000
,
00000000
00000000
01000000
00000000
;

//--------------- dance-double - B. M'Rey ----------------
#NOTES:
     dance-double:
     B. M'Rey:
     Medium:
     3:
     0,0,0,0,0:
00000000
00000000
00000000
00000000
,
00000000
00000000
00000000
00000000
,
00000000
00000000
00000000
00000000
,
00000000
00000000
00000000
00000000
,
00100000
00001000
00100000
00010000
,
00100000
00010000
01000000
00010000
,
01000000
00001000
00100000
00001000
,
00010000
00000100
00010000
00001000
,
01000000
00001000
01000000
00001000
,
00010000
00000100
00000000
00000100
,
00000010
00000010
00000010
00000001
,
00001000
00000100
00000000
00010000
,
00000010
00000010
00001000
00000001
,
00000010
00000100
00000000
00000010
,
00000001
00000010
00000001
00000010
,
00001000
00000001
00000000
00000100
,
00001000
00000000
00000010
00000000
,
00010000
00000000
00001000
00000000
,
01000000
00000000
00001000
00000000
,
01000000
00000000
00010000
00000000
,
01000000
00001000
00010000
00000100
,
00010000
00001000
00100000
00010000
,
10000000
00010000
10000000
00010000
,
01000000
00100000
10000000
00100000
,
02000000
00000000
13000000
00010000
,
10000000
00010000
00100000
00001000
,
01000000
00010000
01000000
00010000
,
01000000
00001000
00010000
00000100
,
00001000
00000100
00001000
00000100
,
00010000
00000010
00001000
00000100
,
00001000
00000100
00010000
00001000
,
00010000
00000100
00000000
00001000
,
00100000
00010000
10000000
00100000
,
00000000
01000000
10000000
00010000
,
00100000
00010000
01000000
00001000
,
00000000
00001000
01000000
00010000
,
00100000
00001000
00010000
00000010
,
00000000
00000010
00010000
00000100
,
00001000
00000100
00001000
00000100
,
00000000
00001000
00010000
00001000
,
00010000
00000010
00000100
00000010
,
00000000
00000100
00001000
00000001
,
00000010
00001000
00000010
00000001
,
00000000
00000001
00000010
00000001
,
00001000
00000100
00010000
00000010
,
00000000
00000010
00010000
00001000
,
00100000
00001000
00100000
00010000
,
00000000
10000000
00000000
00000000
;

//--------------- dance-double - B. M'Rey ----------------
#NOTES:
     dance-double:
     B. M'Rey:
     Hard:
     6:
     0,0,0,0,0:
00000000
00000000
00000000
00000000
,
00000000
00000000
00000000
00000000
,
00000000
00000000
00000000
00000000
,
00000000
00000000
00000000
00000000
,
00001000
01000000
00010000
00100000
,
00001000
00000000
00100000
00010000
00000000
00010000
01000000
00000000
,
00010000
01000000
00001000
01000000
,
00001000
00000000
00010000
00001000
00000000
00001000
00010000
00000000
,
00010000
10000000
00010000
00100000
00010000
00100000
00001000
01000000
,
00001000
00010000
00001000
00010000
00000100
00010000
00000100
00000000
,
00000100
00000010
00000001
00000010
00000001
00000100
00000001
00000100
,
00000010
00000100
00000010
00010000
00001000
00010000
00001000
00000000
,
01000000
00010000
00001000
00010000
00001000
01000000
00001000
01000000
,
00100000
01000000
00100000
10000000
00100000
10000000
00010000
00000000
,
01000000
00001000
01000000
00001000
01000000
00010000
00001000
00010000
,
00001000
00010000
00000100
00000010
00000100
00000010
00000100
00000000
,
00000100
00000000
00001000
00000000
00000001
00000000
00001000
00000100
,
00000001
00000000
00000010
00000000
00000100
00000000
00010000
00000010
,
00001000
00000000
00000100
00000000
00000001
00000000
00000100
00001000
,
00000010
00000000
00000100
00000000
00000010
00000000
00010000
00000100
,
00010000
00000000
00000010
00000000
00010000
00000000
00001000
00100000
,
00010000
00000000
00001000
00000000
00100000
00000000
00001000
01000000
,
00100000
00000000
10000000
00000000
00100000
00000000
10000000
00010000
,
01000000
00000000
00010000
00000000
01000000
00000000
00010000
01000000
,
00200000
00000000
01300000
00010000
,
01000000
00010000
01000000
00001000
,
00100000
00001000
00100000
00001000
,
00010000
00000010
00010000
00000010
,
00010000
00000100
00001000
00000010
,
00001000
00000010
00001000
00000001
,
00000100
00000001
00000100
00000001
,
00001000
00000010
00000000
00010000
,
00000100
00000000
00010000
00000000
00000100
00000000
00010000
00001000
,
00000000
00001000
01000000
00000000
00001000
00000000
01000000
00000000
,
00001000
00000000
00100000
00000000
00010000
00000000
00100000
00010000
,
00000000
00010000
00100000
00000000
01000000
00000000
10000000
00000000
,
01000000
00000000
10000000
00000000
01000000
00000000
00100000
00001000
,
00000000
00001000
00100000
00000000
00001000
00000000
00100000
00000000
,
00010000
00000000
10000000
00000000
00010000
00000000
10000000
00010000
,
00000000
00010000
01000000
00000000
00100000
00001000
00100000
00001000
,
00010000
00001000
00010000
00000010
00010000
00000010
00001000
00000010
,
00001000
00000001
00000100
00000001
00000100
00000001
00001000
00000010
,
00000100
00000001
00000100
00000001
00000100
00000010
00001000
00000010
,
00001000
00000010
00010000
00000100
00010000
00000100
00010000
00001000
,
01000000
00100000
01000000
00100000
01000000
00001000
00100000
00001000
,
00010000
00000100
00010000
00000010
00010000
00001000
01000000
00001000
,
01000000
00010000
10000000
01000000
10000000
01000000
10000000
00010000
,
00100000
00010000
00100000
00000000
00000000
00000000
00000000
00000000
;
