#VERSION:0.83;
#TITLE:2038;
#ARTIST:Yamajet;
#GENRE:MONDO BOSSA;
#CREDIT:B. M'Rey;
#MUSIC:2038.ogg;
#BANNER:2038-bn.png;
#BACKGROUND:2038-bg.png;
#CDTITLE:./cdtitles/Dancing Stage/Legacy.png;
#SAMPLESTART:84.015;
#SAMPLELENGTH:15;
#OFFSET:-0.316;
#BPMS:0=138;

//--------------- dance-single - B. M'Rey ----------------
#NOTEDATA:;
#STEPSTYPE:dance-single;
#DESCRIPTION:B. M'Rey;
#DIFFICULTY:Beginner;
#METER:3;
#RADARVALUES:0,0,0,0,0;
#CREDIT:B. M'Rey;
#NOTES:
0000
0000
0000
0000
,
0000
0000
0000
0000
,
0000
0000
0000
0000
,
0000
0000
0000
0000
,
0000
0000
1000
0000
,
0000
0000
0100
0000
,
0000
0000
1000
0000
,
0000
0000
0100
0000
,
0000
0000
1000
0000
,
1000
0000
0010
0000
,
0110
0000
0001
0000
,
0001
0000
0010
0000
,
0110
0000
0010
0000
,
0010
0000
0100
0000
,
0110
0000
0001
0000
,
0001
0000
0010
0000
,
0000
1000
0000
1000
,
0000
0001
0000
0001
,
0000
0010
0000
0010
,
0000
0100
0000
0100
,
0000
0010
0000
0001
,
0000
0100
0000
0001
,
0000
0100
0000
0010
,
0000
1000
0000
0001
,
0000
0010
0000
1000
,
0000
0100
0000
0001
,
0000
0010
0000
0001
,
0000
0100
0000
0010
,
0000
0110
0000
1000
,
0000
0001
0000
0010
,
0000
0001
0000
0100
,
0000
0010
0000
1000
,
0000
0001
0000
0010
,
0000
1000
0000
0100
,
0001
0000
0100
0000
,
1000
0000
0001
0000
,
0000
1000
0000
0001
,
0000
0010
0000
1000
,
0100
0000
0001
0000
,
0100
0000
0010
0000
,
0000
0001
0000
0000
,
0000
0100
0000
0000
,
0000
0010
0000
0000
,
0000
1000
0000
0000
,
0000
0001
0000
0000
,
0000
0010
0000
0000
,
0000
0001
0000
0000
,
0000
0110
0000
0000
,
0000
0010
0000
1000
,
0000
0001
0000
0010
,
0000
0001
0000
0100
,
0000
0010
0000
1000
,
0000
0100
0000
1000
,
0000
0010
0000
0100
,
0000
0010
0000
0001
,
0000
0010
0000
0001
,
0000
0100
0000
0001
,
0000
1000
0000
0001
,
1000
0000
0010
0000
,
0100
0000
0010
0000
,
1000
0000
0001
0000
,
0100
0000
0000
0001
,
0100
0000
0010
0000
,
1000
0000
0010
0000
;

//--------------- dance-single - B. M'Rey ----------------
#NOTEDATA:;
#STEPSTYPE:dance-single;
#DESCRIPTION:B. M'Rey;
#DIFFICULTY:Easy;
#METER:5;
#RADARVALUES:0,0,0,0,0;
#CREDIT:B. M'Rey;
#NOTES:
0000
0000
0000
0000
,
0000
0000
0000
0000
,
0000
0000
0000
0000
,
0000
0000
0000
0000
,
0000
0000
1000
0000
,
0001
0000
0010
0000
,
0001
0000
0100
0000
,
0010
0000
1000
0000
,
0001
0000
0100
0010
,
0100
0000
1000
0000
,
1001
0000
0010
0100
,
0001
0000
0010
0000
,
0011
0000
0010
0100
,
0010
0000
1000
0000
,
1010
0000
0100
0010
,
0001
0000
0010
0000
,
0110
0001
1000
0001
,
0100
0001
0100
0010
,
0100
0010
1000
0001
,
1000
0001
1000
0100
,
0010
0100
0000
0100
,
0000
0010
0000
0010
,
0000
0001
0000
0001
,
0000
1000
0000
1000
,
0000
0010
1000
0001
,
0000
0100
0000
0001
,
0000
0001
0100
0001
,
0000
0010
0000
0001
,
0000
0001
0010
0001
,
0000
0100
0000
1000
,
0000
0001
1000
0010
,
0000
0001
0000
0001
,
0000
0100
0010
0001
,
0000
0010
1000
0001
,
0000
0010
0100
0010
,
0000
0010
1000
0100
,
0000
0100
0010
0100
,
0000
0001
0010
0001
,
0000
0001
0100
0010
,
0000
0010
1000
0010
,
0000
0001
0000
1000
,
0000
0010
0000
0100
,
0000
0010
0000
0100
,
0000
1000
0000
0001
,
0000
0010
0000
0001
,
0000
0100
0000
0010
,
0000
1000
0000
0100
,
0000
1001
0000
0000
,
0000
0001
1000
0001
,
0010
0001
0010
0100
,
0000
0100
1000
0100
,
1000
0001
0000
0001
,
0000
0001
1000
0010
,
0100
0010
0000
0010
,
0000
0001
1000
0001
,
0100
0001
0000
0010
,
0000
0010
1000
0010
,
0000
0001
0100
1001
,
0000
0001
1000
0100
,
0000
0100
0010
0110
,
0000
0001
0010
0100
,
0000
0010
1000
1001
,
0000
0001
0010
0001
,
0000
0100
0010
0110
;

//--------------- dance-single - B. M'Rey ----------------
#NOTEDATA:;
#STEPSTYPE:dance-single;
#DESCRIPTION:B. M'Rey;
#DIFFICULTY:Medium;
#METER:8;
#RADARVALUES:0,0,0,0,0;
#CREDIT:B. M'Rey;
#NOTES:
0000
0000
0000
0000
,
0000
0000
0000
0000
,
0000
0000
0000
0000
,
0000
0000
0000
0000
,
0000
0000
0010
1000
,
0001
0010
0000
1000
,
0000
1000
0100
1000
,
0100
0010
0000
0010
,
0000
1000
1010
1000
,
0001
0000
0100
0000
0010
0000
1000
0010
,
0001
0010
0110
0010
,
0100
0000
1000
0000
0100
0000
1000
0100
,
0001
0010
0110
0010
,
0001
0000
1000
0000
0001
0000
1000
0001
,
0100
1000
0110
0010
,
0001
1000
0100
1001
,
0000
0000
0001
1000
0100
0000
0100
0010
,
0001
0000
0100
1000
0001
0000
0010
0100
,
0001
0000
0001
1000
0001
0000
0010
1000
,
0010
0000
0001
0010
0100
0000
0001
0010
,
0001
0000
0100
0000
0100
0000
0001
1000
,
0001
0000
0010
0000
0001
0000
0010
0100
,
0001
0000
0100
0000
0100
0000
0100
1000
,
0001
0000
0010
0000
0100
0000
0001
0010
,
0100
0001
0001
0010
,
0100
0010
0100
0010
,
0001
1000
0010
0100
,
0001
1000
0000
0010
,
0000
1000
0100
1000
,
0100
0010
0001
0010
,
0100
1000
0010
1000
,
0100
0010
0000
0010
,
0000
1000
0001
0010
,
0110
0000
0010
0000
0001
0000
0100
1000
,
0001
0010
0101
0100
,
0010
0000
0100
0000
0001
0000
1000
0001
,
0100
0010
0101
0100
,
0001
0000
0010
0000
0100
0000
0010
1000
,
0100
0000
1000
0000
0110
0000
1000
0100
,
0001
0100
0010
0110
,
0001
1000
0000
1000
,
0000
0100
0000
1000
,
0000
0100
0001
0100
,
0010
1000
0001
0010
,
0100
1000
0000
0010
,
0000
0100
0000
0001
,
0000
0100
0000
1000
,
0000
0011
0000
0110
,
0000
0000
0010
1000
0010
0000
0001
0010
,
0001
0000
0001
1000
0100
0000
0001
0100
,
0001
0000
0010
0100
0001
0000
0100
1000
,
0010
0001
0100
0001
,
1000
0000
0010
0100
0010
0000
0010
1000
,
0001
0000
0100
0010
0100
0000
0100
1000
,
0010
0000
0001
0100
0010
0000
0010
1000
,
0001
0001
1000
0110
,
0101
0000
1010
0000
1100
0000
0001
1000
,
0001
0000
1010
0000
0110
0000
0010
0100
,
0001
0000
1010
0000
0011
0000
0100
0010
,
0100
0000
0011
0000
0101
0000
0010
0100
,
0010
0000
1010
0000
0101
0000
0010
0100
,
0010
0000
0101
0000
1001
0000
0100
0010
,
0001
0000
0110
0000
1010
0000
0010
0100
,
0001
0000
1010
0000
0101
0000
0001
0010
,
0100
0000
0000
0000
;

//--------------- dance-single - B. M'Rey ----------------
#NOTEDATA:;
#STEPSTYPE:dance-single;
#DESCRIPTION:B. M'Rey;
#DIFFICULTY:Hard;
#METER:11;
#RADARVALUES:0,0,0,0,0;
#CREDIT:B. M'Rey;
#NOTES:
0000
0000
0000
0000
,
0000
0000
0000
0000
,
0000
0000
0000
0000
,
0000
0000
0000
0000
,
0000
0000
0001
0100
,
0010
0100
0010
1000
,
0100
1000
0010
0100
,
0010
0000
1000
0000
0001
0001
0100
0000
,
0001
1000
1001
0000
0011
0000
0010
0100
,
0010
0000
1010
0000
0101
0000
1000
0100
,
0010
0000
0101
0000
1001
0000
0100
0001
,
0010
0000
0000
0000
1001
0000
0000
0000
0110
0000
0000
0000
0010
0001
0000
0010
,
0001
1000
0110
0000
1001
0000
1000
0010
,
0001
0000
0011
0000
1100
0000
0010
0100
,
0001
0000
1001
0000
0101
0000
0010
0001
,
0100
0000
0000
0000
0011
0000
0000
0000
1100
0000
0000
0001
1000
0000
0000
1000
,
0001
0000
0100
1000
0001
0010
0100
1000
,
0010
0000
1000
0000
0100
0000
0010
0000
0100
0000
1000
0000
0100
0000
0000
1000
,
0000
0100
0000
0001
0000
0000
0010
0000
0100
0000
1000
0000
0001
0000
1000
0000
,
0100
1000
0010
0100
0010
0100
0001
1000
,
0010
1000
0010
0000
0200
0000
0000
0000
0001
0000
0000
0000
0001
0000
0000
0000
,
0301
0000
1000
0100
2000
0000
0000
0000
0001
0000
0000
0000
0001
0000
0000
0000
,
3001
0010
0001
0000
0200
0000
0000
0000
0010
0000
0000
0000
0010
0000
0000
0000
,
0310
0000
0100
0000
0010
0000
0000
0000
0001
0000
1000
0000
0001
1000
0000
0100
,
0000
0010
0000
1000
0001
0000
0010
0000
0100
0000
1000
0000
0010
0000
1000
0000
,
0010
0100
0010
0000
0100
0000
0001
0000
,
0001
0010
0000
0010
0001
1000
0010
0000
,
0010
1000
0100
0000
0001
1000
0010
0100
,
0010
1000
0001
0000
0001
1000
0001
0000
,
0010
1000
0001
0000
0100
0000
0001
0100
,
0010
0000
1000
0000
0001
0000
0100
0000
0000
0010
0000
0000
0001
0000
0100
0000
,
0010
0000
0000
0001
0000
0000
1000
0000
0001
0000
0010
0000
0100
0000
0000
0000
,
0001
0010
0011
0000
1001
0000
1000
0001
,
0010
0000
1001
0000
0110
0000
1000
0001
,
0100
0000
0110
0000
0011
0000
1000
0001
,
0100
0000
0000
0000
1010
0000
0000
0000
0101
0000
0000
0000
1000
0001
0000
1000
,
0001
0010
1010
0000
0101
0000
0010
1000
,
0001
0000
0110
0000
0011
0000
0100
1000
,
0001
0000
0110
0000
1010
0000
1000
0001
,
0100
0000
0000
0000
1010
0000
0000
0000
0100
0001
0000
0100
0010
0000
0001
0010
,
0100
1000
0010
0000
0001
0000
1000
0000
,
0010
0100
0001
0010
,
0100
0010
0001
1000
,
0001
0100
0001
0010
,
0100
0000
0100
1000
0001
0000
0100
0010
,
0001
0000
0010
0100
0001
0000
0010
0100
,
0010
0000
0001
0010
0001
0000
0100
0010
,
0100
0000
0000
0100
1000
0100
0000
0001
1000
0100
0000
0000
,
0010
0000
0001
1000
0010
1000
0010
1000
,
0100
0010
0001
0010
0001
0010
0100
1000
,
0100
1000
0001
0100
0010
0100
0010
0100
,
0001
0010
0001
0000
0001
0000
0010
0000
,
0010
0000
0010
0100
0001
1000
0001
0100
,
0001
0100
0010
0100
0010
1000
0010
1000
,
0001
1000
0001
0010
0001
0010
0100
0010
,
0100
1000
0001
0000
0001
0000
1000
0000
,
1000
0000
0000
0000
0101
0000
0000
0000
0011
0000
0000
0000
0100
0010
0100
0000
,
0001
0000
0011
0000
1001
0000
0100
0010
,
0100
0000
0000
0000
0110
0000
0000
0000
1001
0000
0000
0000
0100
1000
0100
0000
,
0010
0000
0000
0000
0101
0000
0000
0000
0110
0000
0000
0000
0001
1000
0000
1000
,
0100
0000
0010
0000
0001
0000
0000
0000
1100
0000
0000
0000
0001
0010
0001
0000
,
0100
0000
0101
0000
1010
0000
0100
1000
,
0100
0000
0000
0000
0101
0000
0000
0000
1010
0000
0000
0000
0001
0010
0001
0000
,
0100
0000
0000
0000
0011
0000
0000
0000
1100
0000
0000
0000
0010
0100
0000
0100
,
0001
0000
0000
0000
;

//--------------- dance-double - B. M'Rey ----------------
#NOTEDATA:;
#STEPSTYPE:dance-double;
#DESCRIPTION:B. M'Rey;
#DIFFICULTY:Easy;
#METER:4;
#RADARVALUES:0,0,0,0,0;
#CREDIT:B. M'Rey;
#NOTES:
00000000
00000000
00000000
00000000
,
00000000
00000000
00000000
00000000
,
00000000
00000000
00000000
00000000
,
00000000
00000000
00000000
00000000
,
00000000
00000000
00010000
00000000
,
00000000
00000000
00000100
00000000
,
00000000
00000000
00010000
00000000
,
00000000
00000000
00000100
00000000
,
00000000
00000000
00010000
00000000
,
00010000
00000000
00000010
00000000
,
00000110
00000000
00000001
00000000
,
00000001
00000000
00001000
00000000
,
00001010
00000000
00001000
00000000
,
00001000
00000000
00000010
00000000
,
00001010
00000000
00000100
00000000
,
00000100
00000000
00001000
00000000
,
00000100
00000100
00000010
00000100
,
00010000
00000100
00010000
00001000
,
00010000
00001000
01000000
00010000
,
01000000
00010000
01000000
00100000
,
10000000
00100000
00000000
00100000
,
00000000
10000000
00000000
10000000
,
00000000
00010000
00000000
00010000
,
00000000
01000000
00000000
01000000
,
00000000
00100000
01000000
00001000
,
00000000
00100000
00000000
00001000
,
00000000
00001000
00100000
00001000
,
00000000
00010000
00000000
00001000
,
00000000
00001000
00010000
00001000
,
00000000
01000000
00000000
00010000
,
00000000
00001000
00010000
00000010
,
00000000
00000001
00000000
00000001
,
00000000
00001000
00000010
00000001
,
00000000
00000010
00010000
00001000
,
00000000
01000000
00100000
01000000
,
00000000
01000000
10000000
00010000
,
00000000
00010000
00000100
00010000
,
00000000
00001000
00100000
00001000
,
00000000
00001000
01000000
00100000
,
00000000
00100000
10000000
00100000
,
00000000
00010000
00000000
00000000
,
00000000
01000000
00000000
00000000
,
00000000
00001000
00000000
00000000
,
00000000
00010000
00000000
00000000
,
00000000
00000100
00000000
00000000
,
00000000
00000010
00000000
00000000
,
00000000
00000100
00000000
00000000
,
00000000
00000011
00000000
00000000
,
00000000
00000100
00001000
00000100
,
00010000
00000100
00010000
00001000
,
00000000
00001000
01000000
00001000
,
01000000
00010000
00000000
00010000
,
00000000
00010000
01000000
00100000
,
10000000
00100000
00000000
00100000
,
00000000
00001000
00010000
00001000
,
01000000
00001000
00000000
00100000
,
00000000
00100000
10000000
00100000
,
00000000
00010000
10000000
01010000
,
00000000
00010000
01000000
00001000
,
00000000
00001000
00010000
00011000
,
00000000
00000010
00010000
00000100
,
00000000
00010000
01000000
00000101
,
00000000
00000001
00000010
00000001
,
00000000
00000100
00000010
00000110
;

//--------------- dance-double - B. M'Rey ----------------
#NOTEDATA:;
#STEPSTYPE:dance-double;
#DESCRIPTION:B. M'Rey;
#DIFFICULTY:Medium;
#METER:7;
#RADARVALUES:0,0,0,0,0;
#CREDIT:B. M'Rey;
#NOTES:
00000000
00000000
00000000
00000000
,
00000000
00000000
00000000
00000000
,
00000000
00000000
00000000
00000000
,
00000000
00000000
00000000
00000000
,
00000000
00000000
00010000
00000000
,
00001000
00000000
01000000
00000000
,
00001000
00000000
00010000
00000000
,
00000100
00000000
00000010
00000000
,
00000001
00000000
00000100
00000010
,
00000100
00000000
00001000
00000000
,
10100000
00000000
00010000
01000000
,
00001000
00000000
00010000
00000000
,
00011000
00000000
00010000
00000010
,
00010000
00000000
01000000
00000000
,
01010000
00000000
00001000
00010000
,
00000100
00000000
00010000
00000000
,
00011000
00000000
00000100
00001000
00000010
00000000
00000010
00010000
,
00001000
00000000
01000000
10000000
00010000
00000000
00100000
01000000
,
00001000
00000000
00001000
00010000
00001000
00000000
00100000
10000000
,
00100000
00000000
01000000
00100000
00010000
00000000
00001000
00100000
,
00001000
00000000
01000000
00000000
01000000
00000000
00001000
00100000
,
00001000
00000000
00010000
00000000
00001000
00000000
00010000
00000100
,
00000001
00000000
00000100
00000000
00000100
00000000
00000100
00001000
,
00000001
00000000
00000010
00000000
00001000
00000000
00000100
00010000
,
00001000
00000010
00000010
00000100
,
00000001
00000100
00000001
00000100
,
00000010
00010000
00001000
01000000
,
00100000
10000000
00000000
00010000
,
00000000
10000000
01000000
10000000
,
01000000
00100000
00010000
00100000
,
00001000
00010000
00000100
00010000
,
00000010
00001000
00000000
00001000
,
00000000
00010000
00000010
00001000
,
00001001
00000000
00001000
00000000
00000010
00000000
00000100
00001000
,
00000001
00000010
00110000
00100000
,
01000000
00000000
00100000
00000000
00010000
00000000
10000000
00010000
,
01000000
00100000
01001000
01000000
,
00001000
00000000
00010000
00000000
00000100
00000000
00010000
00000010
,
00000100
00000000
00000010
00000000
00001100
00000000
00010000
00000100
,
00000001
00000100
00010000
00010100
,
00000001
00000001
00000000
00001000
,
00000000
00000010
00000000
00000100
,
00000000
00000010
00000000
00000100
,
00000000
00010000
00000000
00001000
,
00000000
01000000
00000000
00001000
,
00000000
00100000
00000000
00010000
,
00000000
01000000
00000000
00100000
,
00000000
01001000
00000000
10100000
,
00000000
00000000
00100000
01000000
00100000
00000000
00010000
00100000
,
00010000
00000000
00010000
10000000
01000000
00000000
00001000
01000000
,
00001000
00000000
00010000
00000100
00000001
00000000
00000100
00010000
,
00001000
00000010
00001000
00000010
,
00010000
00000000
00001000
01000000
00001000
00000000
00001000
00010000
,
00000010
00000000
00001000
00000001
00001000
00000000
00001000
01000000
,
00100000
00000000
00010000
00100000
01000000
00000000
01000000
10000000
,
00010000
00010000
10000000
00010010
,
00011000
00000000
00001001
00000000
00001010
00000000
00000100
00001000
,
00000100
00000000
00011000
00000000
01010000
00000000
00010000
01000000
,
00001000
00000000
00110000
00000000
00011000
00000000
10000000
00010000
,
10000000
00000000
01010000
00000000
11000000
00000000
00100000
10000000
,
00100000
00000000
01100000
00000000
00001100
00000000
00010000
00000100
,
00010000
00000000
00000101
00000000
00001100
00000000
00000010
00010000
,
00001000
00000000
00010010
00000000
00000011
00000000
00000001
00001000
,
00000010
00000000
01010000
00000000
00001010
00000000
00001000
00010000
,
00000100
00000000
00000000
00000000
;

//--------------- dance-double - B. M'Rey ----------------
#NOTEDATA:;
#STEPSTYPE:dance-double;
#DESCRIPTION:B. M'Rey;
#DIFFICULTY:Hard;
#METER:10;
#RADARVALUES:0,0,0,0,0;
#CREDIT:B. M'Rey;
#NOTES:
00000000
00000000
00000000
00000000
,
00000000
00000000
00000000
00000000
,
00000000
00000000
00000000
00000000
,
00000000
00000000
00000000
00000000
,
00000000
00000000
00000010
00010000
,
00000100
00000010
00000000
00001000
,
00000000
00001000
00000100
00001000
,
00000100
00010000
00000000
00010000
,
00000000
10000000
00010000
10000000
,
01000000
00000000
00100000
00000000
00001000
00000000
01000000
00001000
,
00000100
00001000
00010000
00001000
,
00010000
00000000
00100000
00000000
00010000
00000000
00100000
00010000
,
00001000
01000000
00100000
01000000
,
00001000
00000000
00010000
00000000
00001000
00000000
00010000
00001000
,
01000000
10000000
01000000
00100000
,
00010000
10000000
01000000
00000011
,
00000000
00000000
00000100
00000010
00000001
00000100
00000010
00010000
,
00000100
00000000
00010000
00000000
00001000
00000000
00100000
00000000
00001000
00000000
00010000
00000000
00001000
00000000
00000000
00010000
,
00000000
00001000
00000000
00000010
00000000
00000000
00001000
00000000
00000100
00000000
00000010
00000000
00000001
00000000
00000010
00000000
,
00000100
00000010
00000001
00001000
00000001
00001000
00000100
00010000
,
00001000
00010000
00001000
00000000
00200000
00000000
00000000
00000000
00010000
00000000
00000000
00000000
00010000
00000000
00000000
00000000
,
00310000
00000000
01000000
00100000
02000000
00000000
00000000
00000000
00010000
00000000
00000000
00000000
00010000
00000000
00000000
00000000
,
03010000
10000000
00010000
00000000
02000000
00000000
00000000
00000000
00100000
00000000
00000000
00000000
00100000
00000000
00000000
00000000
,
03100000
00000000
01000000
00000000
00100000
00000000
00000000
00000000
00010000
00000000
10000000
00000000
00010000
10000000
00000000
01000000
,
00000000
00001000
00000000
00010000
00000010
00000000
00000100
00000000
00000001
00000000
00001000
00000000
00000100
00000000
00001000
00000000
,
00000100
00010000
00000100
00000000
00010000
00000000
00001000
00000000
,
00001000
01000000
00000000
01000000
00001000
00010000
00000010
00000000
,
00000010
00010000
00000100
00000000
00000001
00001000
00000010
00000001
,
00000010
00001000
00000001
00000000
00000001
00000100
00000001
00000000
,
00000010
00001000
00000001
00000000
00000100
00000000
00000001
00000100
,
00000010
00000000
00001000
00000000
00000001
00000000
00000100
00000000
00000000
00010000
00000000
00000000
00001000
00000000
01000000
00000000
,
00100000
00000000
00000000
00010000
00000000
00000000
10000000
00000000
00010000
00000000
00100000
00000000
01000000
00000000
00000000
00000000
,
00001000
00100000
00101000
00000000
01001000
00000000
01000000
00001000
,
00010000
00000000
01001000
00000000
10100000
00000000
01000000
00001000
,
00010000
00000000
00010100
00000000
00000011
00000000
00001000
00000001
,
00000100
00000000
00000000
00000000
00110000
00000000
00000000
00000000
00001100
00000000
00000000
00000000
00010000
00001000
00000000
00010000
,
00001000
01000000
00010010
00000000
11000000
00000000
00010000
01000000
,
00001000
00000000
10100000
00000000
11000000
00000000
00010000
00100000
,
00001000
00000000
00001010
00000000
00010010
00000000
00010000
00001000
,
01000000
00000000
00000000
00000000
10100000
00000000
00000000
00000000
01000000
00010000
00000000
01000000
00001000
00000000
00000100
00001000
,
01000000
10000000
00010000
00000000
00000000
00000000
10000000
00000000
,
00000000
01000000
00000000
10000000
,
00000000
01000000
00001000
01000000
,
00010000
00100000
00001000
00010000
,
00000100
00001000
00000000
00000010
,
00000000
00000100
00000000
00000001
,
00000000
00000100
00000000
00001000
,
00000000
00000000
00000000
00000001
00001000
00000100
00000000
00000010
00001000
00000100
00000000
00000000
,
00010000
00000000
00001000
00100000
00010000
00100000
00010000
00100000
,
00001000
00010000
00000100
00010000
00000100
00010000
00000010
00001000
,
00000010
00001000
00000100
00010000
00000010
00010000
00000010
00010000
,
00000100
00001000
00000100
00000000
00000100
00000000
00001000
00000000
,
00001000
00000000
00001000
01000000
00010000
00100000
00010000
01000000
,
00010000
01000000
00001000
01000000
00001000
00100000
00001000
00100000
,
00010000
00100000
00010000
10000000
00010000
10000000
00100000
10000000
,
00100000
01000000
00001000
00000000
00001000
00000000
01000000
00000000
,
01000000
00000000
00000000
00000000
00001100
00000000
00000000
00000000
00000110
00000000
00000000
00000000
00010000
00001000
00010000
00000000
,
00000010
00000000
00000110
00000000
00001010
00000000
00010000
00000100
,
00010000
00000000
00000000
00000000
00010100
00000000
00000000
00000000
01010000
00000000
00000000
00000000
00001000
01000000
00001000
00000000
,
00100000
00000000
00000000
00000000
00001010
00000000
00000000
00000000
00100010
00000000
00000000
00000000
00001000
00010000
00000000
00010000
,
00000010
00000000
00001000
00000000
00000100
00000000
00000000
00000000
00110000
00000000
00000000
00000000
00000100
00000010
00000100
00000000
,
00010000
00000000
00010100
00000000
00001010
00000000
00000001
00001000
,
00000001
00000000
00000000
00000000
10100000
00000000
00000000
00000000
01010000
00000000
00000000
00000000
00001000
00010000
00001000
00000000
,
01000000
00000000
00000000
00000000
00011000
00000000
00000000
00000000
11000000
00000000
00000000
00000000
00010000
10000000
00000000
10000000
,
00100000
00000000
00000000
00000000
;
