#TITLE:soldier's waltz;
#SUBTITLE:;
#ARTIST:DAJI;
#TITLETRANSLIT:;
#SUBTITLETRANSLIT:;
#ARTISTTRANSLIT:;
#GENRE:;
#CREDIT:;
#MENUCOLOR:;
#METERTYPE:DDR;
#BANNER:;
#BACKGROUND:;
#LYRICSPATH:;
#CDTITLE:CDTitle.PNG;
#MUSIC:soldier's waltz.mp3;
#OFFSET:-5.520;
#SAMPLESTART:51.930;
#SAMPLELENGTH:15.480;
#SELECTABLE:YES;
#LISTSORT:;
#BPMS:0.000=186.000,216.000=93.000,240.000=186.000;
#STOPS:;
#BGCHANGES:;
#ATTACKS:;

//---------------dance-single - ----------------
#NOTES:
     dance-single:
     :
     Hard:
     9:
     0.684,0.866,0.496,0.104,0.148:
1000
0000
0000
0001
0010
0001
0100
0000
,
0010
0000
1000
0000
0100
0000
0000
1000
,
0010
0100
0001
0000
0011
0000
1100
0000
,
1001
0000
0000
1000
0010
0100
0001
0000
,
0000
0010
0001
0100
0010
0000
0000
0100
,
0001
0011
1100
1001
,
0110
0000
0001
1000
0001
0000
0100
0000
,
0010
1000
0010
0000
0100
0001
0010
0100
,
1000
0010
0100
0000
0110
0000
0101
0000
,
1001
0000
1000
0001
1000
0001
0100
0000
,
0001
1000
0001
1000
0100
0000
1000
0010
,
0100
0001
0010
0000
0011
0000
0101
0000
,
1001
0000
1000
0010
0010
0000
1001
0000
,
0001
0100
0100
0000
1010
0000
0001
0100
,
0100
0000
0011
0000
1000
0100
0100
0000
,
1001
0000
0001
0010
0001
1000
0010
0000
,
0100
0000
0010
1000
1010
0000
0001
0100
,
0001
0010
0100
0000
1100
0000
0011
0000
,
1001
0000
0010
0001
1000
0010
0100
0000
,
0001
0010
0001
0100
0010
0000
1000
0001
,
0010
1000
0010
0001
0100
0000
0010
0000
,
0011
0000
0001
1000
0010
0100
0010
0000
,
0100
0001
0010
0001
0100
0000
0010
1000
,
0001
1000
0100
0000
1010
0000
0101
0000
,
1000
0001
0010
0001
0100
0010
1000
0100
,
0001
0100
1000
0010
0100
0001
0010
0001
,
1000
0100
0010
0001
1000
0100
1000
0010
,
0100
0001
2000
0000
0010
0000
0001
0000
,
3100
0000
0000
0000
1000
0001
1000
0000
0002
0000
0000
0000
0010
0000
0000
0000
,
0100
1000
0100
0013
,
1001
0000
0000
0000
0000
0000
0000
1000
0100
0000
1000
0000
0001
0000
0000
0000
,
0100
0010
1000
0010
0100
0000
1000
0001
,
0010
1000
0100
1000
0010
0001
0100
0010
,
1010
0000
0000
1000
0010
0100
0001
0000
,
0000
0010
0001
0100
0010
1000
0100
1000
,
0010
0001
0010
0000
2002
0000
3003
0000
,
1001
0000
0010
0001
1000
0010
0100
0000
,
0001
0000
0010
0001
0100
0000
0010
1000
,
0001
0010
0001
0000
0101
0000
1100
0000
,
1001
0000
0010
1000
0010
0100
0001
0000
,
0010
0001
1000
0000
0100
0000
1000
0010
,
0100
0001
0010
0000
0011
0000
1010
0000
,
0110
0000
0000
0100
0001
1000
0100
0000
,
1000
0010
0100
0001
0010
0000
0001
0100
,
0010
1001
0110
0011
,
1100
0000
1000
0010
0100
0010
1000
0000
,
0100
1000
0001
0000
0010
0001
0100
0000
,
0010
1010
0101
1001
,
1000
0001
1000
0010
1000
0001
1000
0001
,
0010
0100
0010
0001
0010
0001
0100
0010
,
1000
0001
0100
0010
1000
0010
0100
0001
,
0010
0000
0001
0100
0001
0100
0010
1000
,
0010
0000
1000
0000
0100
0000
1000
0000
0001
1000
0001
0000
1000
0000
0001
0000
,
0010
0001
1000
0000
1001
0000
1000
0001
,
0100
0000
0000
0000
0001
1000
0001
0100
0000
0010
1000
0001
0010
0000
0001
1000
,
0001
1000
0100
0100
0010
0000
0001
0000
1001
0000
0000
0000
1000
0001
1000
0100
,
1000
0000
0001
0100
0001
0000
1000
0001
1000
0001
0100
0010
0100
0010
1000
0100
,
2000
0000
0000
0000
0000
0000
3000
0010
1000
0001
0100
0001
0010
0100
1000
0010
,
0100
0010
1000
0001
1000
0001
0100
0010
0100
0000
0000
0001
0100
0000
1010
0000
,
0000
1000
0100
0000
1000
0000
0010
0100
0010
0000
1000
0000
2002
0000
3003
0000
,
0110
0000
0001
0010
0001
1000
0010
0100
,
0001
0000
1001
0000
0010
1000
0100
1000
,
0001
0010
0001
0100
0010
1000
0100
1000
,
1002
0000
0010
0010
,
0100
0000
0103
0000
0001
1000
0010
0100
,
0001
1000
0100
1000
0001
0100
0001
1000
,
0001
0000
0000
0001
1000
0000
0000
1000
0100
0000
1000
0000
0001
0000
0000
1000
,
0100
0000
0000
1000
0001
0000
0100
0000
0001
0000
0010
0000
0100
0000
1000
0000
,
0010
0100
0220
0000
0000
0000
0330
0000
,
2002
3003
1001
1100
,
0011
0000
0110
0000
1001
0000
0001
0100
,
0010
1000
0100
0000
1000
0000
0010
0000
,
0100
0000
0001
1000
0001
1000
0001
0000
,
0100
0000
0010
0000
1100
0000
0001
0010
,
0001
1000
0100
0000
1000
0000
0010
0000
,
0100
0000
0001
1000
0010
0100
0010
0000
,
1000
0001
1001
0000
;

//---------------dance-single - ----------------
#NOTES:
     dance-single:
     :
     Medium:
     6:
     0.482,0.499,0.357,0.078,0.000:
1000
0000
0000
0000
0001
0100
0001
0000
,
0000
0000
1000
0100
1000
0000
0000
0000
,
0100
0001
0011
0001
,
1001
0000
0000
0000
0010
0100
0001
0000
,
0000
0000
1000
0100
1000
0000
0000
0000
,
0001
0010
0001
0000
1000
0000
1100
0000
,
1001
0000
0000
0010
1000
0000
0001
0000
,
0000
0001
0100
0000
0010
0000
0000
1000
,
0010
0001
0100
0101
,
1001
0000
0000
0000
0010
1000
0010
0000
,
0000
0000
0001
0100
0001
0000
1000
0000
,
0001
0010
1000
1100
,
1001
0000
0010
0000
0001
0100
0001
0000
,
1000
0000
0100
1000
0100
0000
0010
0000
,
0001
0100
0010
0000
0110
0000
0100
0000
,
0101
0000
0001
0000
1000
0100
1000
0000
,
0001
0010
0101
0001
,
1000
0000
0010
1000
0010
0000
0101
0000
,
1001
0000
0001
0000
0010
0001
0010
0000
,
0001
0100
0010
1000
,
0100
1000
0100
0000
1010
0000
1000
0000
,
1001
0000
0001
0000
0100
0010
0100
0000
,
0001
0001
0010
0001
,
0100
0010
0100
0000
0010
0000
1000
0000
,
1001
0001
0010
0001
,
1000
0010
0001
0010
,
1000
0100
0001
0010
,
0001
0100
1000
0010
,
0100
0001
0010
0001
,
1000
0100
1000
0001
,
1001
0001
0100
0010
,
1000
0100
1000
0000
1100
0000
1000
0000
,
0001
0000
0010
0000
0001
0100
0001
0100
,
0001
1000
0010
0100
,
0001
1000
0010
0000
1010
0000
0001
0000
,
0100
0001
0100
0000
0202
0000
0303
0000
,
1001
0000
0000
0000
0010
0100
0010
0000
,
1000
0000
0100
1000
0100
0000
0000
0000
,
0010
0001
0100
0000
0010
0000
1000
0000
,
1001
0000
0000
0000
0001
0010
0001
0000
,
0100
0000
0010
1000
0010
0000
0000
0000
,
0100
0010
0100
0000
0001
0000
0010
0000
,
0011
0000
0000
0000
0001
0100
0010
0000
,
0000
0000
1000
0010
0100
0000
0000
0000
,
0001
1000
0100
0000
1000
0000
0000
0000
,
1001
0000
0000
0001
0010
0001
0010
0000
,
0000
0100
1000
0100
1000
0000
0000
1000
,
0010
0100
0001
0000
1000
0000
0000
0000
,
1001
0001
0200
0000
,
0301
1000
1010
0010
,
0100
0001
0010
0001
,
1001
1000
0010
0100
,
0001
0100
0110
0010
,
1000
1100
1001
0000
,
1000
0000
0001
0100
0000
0100
0001
1000
,
0001
0100
0000
0010
1000
0000
0010
0100
,
0000
0100
0001
0010
0001
1000
0000
0100
,
2000
0000
0000
3010
0100
0001
0010
0000
,
0001
1000
0000
1000
0001
0000
0100
0010
,
1000
0001
0100
0000
0100
0001
0101
0000
,
1001
0000
0000
1000
0100
0000
0010
0001
,
0010
0001
0100
0000
0010
0000
1000
0000
,
0100
0010
0001
0100
,
0101
0000
0001
1001
,
0000
1100
1002
0010
,
0100
0010
0010
1003
,
1001
0000
0001
0010
0001
0100
0010
0000
,
1000
0100
1000
0000
0001
0000
0010
0001
,
0010
0001
0010
0100
,
2200
3300
0010
0202
,
0303
0001
1001
0001
,
1000
0000
0100
0000
0000
0010
0001
0010
,
0001
0100
0010
1000
,
0001
0100
0001
0100
0001
0000
1000
0000
,
0100
0000
0010
0000
0000
0001
0100
0010
,
1000
0100
1000
0001
,
1000
0001
1000
0000
1001
0000
0000
0000
;

//---------------dance-single - ----------------
#NOTES:
     dance-single:
     :
     Easy:
     4:
     0.352,0.366,0.078,0.122,0.000: // measure 1
1001
0000
1000
0100
,  // measure 2
0010
0001
0100
0000
,  // measure 3
0010
1000
0001
0100
,  // measure 4
0101
0000
0001
1000
,  // measure 5
0100
0010
0100
0000
,  // measure 6
0010
0001
0100
0010
,  // measure 7
0110
0000
0100
0001
,  // measure 8
1000
0100
1000
0000
,  // measure 9
0001
0010
0001
1000
,  // measure 10
1100
0000
0100
0010
,  // measure 11
0100
0010
0001
0000
,  // measure 12
0100
0001
0100
0000
,  // measure 13
0101
0000
0001
1000
,  // measure 14
0100
0010
0100
0000
,  // measure 15
0010
0001
0100
0001
,  // measure 16
0100
0000
0001
1000
,  // measure 17
0010
1000
0100
0000
,  // measure 18
1000
0100
0010
0001
,  // measure 19
0100
0000
0010
0100
,  // measure 20
0001
0010
0001
0000
,  // measure 21
1000
0100
1000
0010
,  // measure 22
0100
0000
0100
0001
,  // measure 23
0010
0001
1000
0000
,  // measure 24
0001
0100
0001
0000
,  // measure 25
1001
0001
0100
0010
,  // measure 26
1000
0100
1000
0100
,  // measure 27
0010
0100
1000
0010
,  // measure 28
0100
0001
0020
0001
,  // measure 29
0001
0031
0002
1000
,  // measure 30
1000
1000
1000
1003
,  // measure 31
0010
1000
0100
0010
,  // measure 32
0000
0010
0001
0100
,  // measure 33
0010
1000
0000
1000
,  // measure 34
0001
0100
0001
1000
,  // measure 35
0100
1000
0010
0000
,  // measure 36
0100
0010
0110
0000
,  // measure 37
1010
0000
1000
0100
,  // measure 38
0010
0001
0100
0000
,  // measure 39
0001
0100
0001
0000
,  // measure 40
1000
0000
0001
0010
,  // measure 41
0001
0100
0010
0000
,  // measure 42
0100
0010
0100
0000
,  // measure 43
0001
1000
0100
1000
,  // measure 44
0001
0010
0001
0000
,  // measure 45
0010
0001
0100
0000
,  // measure 46
0010
1000
0001
0010
,  // measure 47
0001
0100
0010
0000
,  // measure 48
0100
0010
1000
0000
,  // measure 49
0001
0010
0001
0000
,  // measure 50
1000
0010
0000
1000
,  // measure 51
0001
0010
0001
0100
,  // measure 52
0010
0100
0001
0010
,  // measure 53
0100
1000
0010
1000
,  // measure 54
0001
0100
0010
0100
,  // measure 55
0002
0000
0003
2000
0000
3000
0200
0000
,  // measure 56
0300
0010
0100
0000
0020
0000
0030
0002
,  // measure 57
0000
0003
2000
0000
3000
0001
0100
0000
,  // measure 58
0002
0000
0003
2000
0000
3000
0020
0000
,  // measure 59
0030
0100
0010
0000
0200
0000
0300
0002
,  // measure 60
0000
0003
2000
0000
3000
0100
0010
0000
,  // measure 61
0010
0001
1000
0010
,  // measure 62
0100
0001
0010
0000
,  // measure 63
0001
0100
0001
1000
,  // measure 64
0100
0000
0010
0001
,  // measure 65
0000
1000
0010
0010
,  // measure 66
0100
0100
0001
1000
,  // measure 67
0001
0010
0001
0100
,  // measure 68
0010
1000
0100
1000
,  // measure 69
0001
0010
0000
0010
,  // measure 70
0001
0000
0001
0100
,  // measure 71
0010
1000
0001
0000
,  // measure 72
1000
0100
0010
0100
,  // measure 73
1000
0000
0001
0100
,  // measure 74
0010
0100
0001
0000
,  // measure 75
1000
0001
1000
0010
,  // measure 76
0100
0000
0001
0010
,  // measure 77
0100
0010
0110
0000
;

//---------------dance-single - ----------------
#NOTES:
     dance-single:
     :
     Beginner:
     2:
     0.154,0.266,0.174,0.000,0.000: // measure 1
1001
0000
0000
1000
,  // measure 2
0000
0000
0100
0000
,  // measure 3
0000
0010
0000
0000
,  // measure 4
0110
0000
0000
0010
,  // measure 5
0000
0000
0001
0000
,  // measure 6
0000
0100
0000
0000
,  // measure 7
0110
0000
0000
0010
,  // measure 8
0000
0000
1000
0000
,  // measure 9
0000
0001
0000
0000
,  // measure 10
1001
0000
0000
1000
,  // measure 11
0000
0000
0100
0000
,  // measure 12
0000
0010
0000
0000
,  // measure 13
0001
0000
0000
0001
,  // measure 14
0000
0000
1000
0000
,  // measure 15
0000
0010
0000
0000
,  // measure 16
0100
0000
0000
0100
,  // measure 17
0000
0000
0001
0000
,  // measure 18
0000
1000
0000
0000
,  // measure 19
1001
0000
0000
0000
,  // measure 20
0000
0000
1000
0000
,  // measure 21
0000
0100
0000
0000
,  // measure 22
1000
0000
0000
0000
,  // measure 23
0000
0000
0001
0000
,  // measure 24
0000
0100
0000
0000
,  // measure 25
0001
0000
0000
1000
,  // measure 26
0000
0000
0001
0000
,  // measure 27
0000
0100
0000
0000
,  // measure 28
0010
0000
0000
0100
,  // measure 29
0000
0000
0001
0000
,  // measure 30
0000
1000
0000
0000
,  // measure 31
1001
0000
0000
0000
,  // measure 32
0000
0000
0001
0000
,  // measure 33
0000
0100
0000
0000
,  // measure 34
0010
0000
0000
0000
,  // measure 35
0000
0000
0100
0000
,  // measure 36
0000
0001
0000
0000
,  // measure 37
1001
0000
0000
0000
,  // measure 38
0000
0000
1000
0000
,  // measure 39
0000
0100
0000
0000
,  // measure 40
0010
0000
0000
0000
,  // measure 41
0000
0000
0010
0000
,  // measure 42
0000
0001
0000
0000
,  // measure 43
0100
0000
0000
0001
,  // measure 44
0000
0000
1000
0000
,  // measure 45
0000
0100
0000
0000
,  // measure 46
0010
0000
0000
0100
,  // measure 47
0000
0000
1000
0000
,  // measure 48
0000
0001
0000
0000
,  // measure 49
1001
0000
1000
0000
,  // measure 50
1000
0000
0001
0000
,  // measure 51
0001
0000
0001
0000
,  // measure 52
0100
0000
0010
0000
,  // measure 53
0100
0000
0001
0000
,  // measure 54
1000
0000
1001
0000
,  // measure 55
0110
0000
0000
0001
,  // measure 56
0000
1000
0000
0000
0001
0000
0000
0000
,  // measure 57
0000
0000
0100
0000
0000
0010
0000
0000
,  // measure 58
0100
0000
0000
0001
,  // measure 59
0000
1000
0000
0000
0100
0000
0000
0100
,  // measure 60
0000
0000
0010
0000
0000
0110
0000
0000
,  // measure 61
1001
0000
0000
1000
,  // measure 62
0000
0000
0100
0000
,  // measure 63
0000
1000
0000
0000
,  // measure 64
1001
0000
0000
1001
,  // measure 65
0000
0000
1001
0000
,  // measure 66
0000
1001
0000
0000
,  // measure 67
0110
0000
0000
0100
,  // measure 68
0000
0000
0001
0000
,  // measure 69
0000
0010
0000
0000
,  // measure 70
0110
0000
0000
1000
,  // measure 71
0000
0000
1001
0000
,  // measure 72
0000
0000
0000
0000
,  // measure 73
0001
0000
0000
0100
,  // measure 74
0000
0000
0010
0000
,  // measure 75
0000
0000
0000
0000
,  // measure 76
1000
0000
0000
0001
,  // measure 77
0000
0000
1001
0000
;
