#TITLE:hora de verdad;
#SUBTITLE:;
#ARTIST:VandalusiaKAI;
#TITLETRANSLIT:;
#SUBTITLETRANSLIT:;
#ARTISTTRANSLIT:;
#CREDIT:;
#BANNER:hora de verdad.png;
#BACKGROUND:hora de verdad-bg.png;
#LYRICSPATH:;
#CDTITLE:;
#MUSIC:hora de verdad.mp3;
#OFFSET:-6.900;
#SAMPLESTART:45.200;
#SAMPLELENGTH:11.570;
#SELECTABLE:YES;
#DISPLAYBPM:140.000:280.000;
#BPMS:0.000=140.000,16.000=280.000,217.000=140.000,236.000=280.000;
#STOPS:;
#BGCHANGES:;

//---------------dance-single - ----------------
#NOTES:
     dance-single:
     :
     Hard:
     10:
     0.781,0.819,0.392,0.374,0.032:
1000
0100
1000
0200
0000
0000
0300
0000
0000
0010
0001
0010
,
0001
0000
0000
0000
1000
0100
1000
0001
,
0100
0000
0000
0010
0000
0000
1000
0000
0000
0200
0000
0000
0000
0000
0000
0000
0000
0000
0000
0000
0010
0300
0001
0000
,
1000
0001
0000
0000
0000
0000
0220
0000
0000
0330
0000
0000
,
2002
0000
0000
0000
,
3003
0000
1000
0001
1000
0000
0000
0000
,
0000
1000
0100
0110
,
2002
0000
0000
0000
,
3003
0000
1000
0001
0202
0000
0000
0000
,
0303
0011
0101
1010
,
1000
0100
1000
0100
1000
0000
0001
0010
,
0001
0010
0001
0000
1000
0010
0100
0001
,
0100
0000
0001
0010
0100
1000
0100
0000
,
1100
1000
1010
0110
,
0100
0101
2002
0000
,
0000
0000
0000
3003
,
1000
0000
0001
1000
0000
1000
0100
0000
,
0010
0000
0100
0010
0001
0000
1000
0000
,
0001
0202
0000
0303
,
0001
0100
0010
0100
0001
0000
1000
0000
,
0100
0000
0010
0000
0110
0000
0100
0010
,
0100
0110
0011
0101
,
2002
0000
0000
0000
3003
0000
1000
0001
,
1000
0001
0100
0000
0010
0000
0000
0100
,
0010
1000
0002
0000
0000
0000
1003
0000
,
1100
0000
0000
0000
1000
0100
0010
0001
,
0010
0001
0010
0001
1000
0001
1000
0001
,
1000
0001
0100
0010
0100
0001
0100
0001
,
1000
0000
0100
0010
0001
0000
2000
0000
,
0001
0001
0000
0010
,
3010
0000
0000
0000
1000
0001
1000
0001
,
0010
0100
0010
0002
,
0100
0100
0000
1000
,
1003
0000
0000
0000
1000
0001
1000
0001
,
0100
0000
0010
0000
0100
0000
0010
1000
,
0010
1000
0001
0000
1000
0000
0100
0000
,
0010
0000
0100
0010
0001
0010
0001
0000
,
1000
0000
0001
0000
0100
0000
0001
0100
,
0001
0100
0010
0000
0100
0010
0100
0010
,
1000
0000
0001
1000
0100
0010
0001
0100
,
0010
0100
0010
1000
0001
0000
1001
0000
,
1000
0100
0000
0100
0010
0000
0001
0000
,
1000
0001
0100
0000
0010
0000
0100
0010
,
0100
0000
0010
1000
0001
1000
0100
0000
,
0010
0000
0001
1000
0001
0000
0100
0000
,
0010
0000
1000
0010
1000
0010
0100
0010
,
0100
0001
0100
0001
0010
0001
1000
0000
,
0100
0000
0010
0100
1000
0000
0001
1000
,
0001
0100
0010
0000
0100
0000
0010
1000
,
0100
0000
0010
0000
0001
0010
0001
1000
,
0100
1000
0001
0100
0001
1000
0010
0100
,
0001
0010
0100
0000
0000
0000
0110
0000
,
0220
0330
1001
2002
,
3003
0000
0220
0000
,
0330
2002
0000
0000
,
0000
0000
0000
3000
,
0200
0000
0000
0003
,
0020
0000
0000
0330
,
2002
0000
0000
3003
,
1001
0000
1001
0000
1000
0001
1000
0001
,
0100
0000
0010
0100
0010
0000
1000
0000
,
0001
1000
0001
0000
1000
0000
0100
0010
,
0100
0000
0010
0001
0100
0001
0010
0001
,
1000
0000
0001
0100
0001
0000
1000
0000
,
0010
0100
0010
0000
1000
0100
0010
0001
,
0100
0010
1000
0001
1000
0001
0010
0000
,
0100
1000
0100
0010
0001
0010
0001
0000
,
1000
0000
0001
0000
1000
0010
1000
0001
,
0100
0001
1000
0000
0001
0000
0010
0000
,
0100
0010
0001
0010
0100
0010
0001
1000
,
0010
1000
0100
1000
0010
0100
0001
0010
,
0100
0010
0001
0000
1001
0000
0110
0000
,
1001
0000
1000
0001
0100
0000
0010
0000
,
0100
0010
1000
0000
0001
0000
1000
0100
,
0010
0001
0100
0000
0010
0100
0001
0000
,
1000
0000
0001
1000
0010
0000
0100
0000
,
0001
0010
0100
0000
0010
0001
0100
0010
,
1000
0001
0100
0000
0001
1000
0001
0000
,
1000
0100
1000
0100
1000
0001
1000
0000
,
0001
0000
0100
0000
0010
0100
0010
0100
,
0010
1000
0001
0000
1000
0000
0100
0000
,
2001
0000
0010
0010
,
0000
0000
0001
0000
3001
0000
1000
0001
,
0100
0010
0110
0101
,
1002
0000
0010
0010
,
0000
0000
1000
0000
1003
0000
0001
1000
,
0100
0000
0010
0001
0100
0001
1000
0010
,
0100
0000
0000
0000
0010
1000
0010
0000
,
1000
0001
0010
0000
,
0001
0010
0001
0000
1000
0000
0001
0000
,
0100
0000
0100
0010
,
0000
0000
0010
0000
1000
0001
1000
0001
,
1000
2002
0000
3003
,
1000
0100
1000
0100
0010
0001
0010
0000
,
0001
0100
0001
0100
0010
0000
0100
0000
,
0010
1000
0020
0000
0000
0000
0030
0000
,
0100
0010
1000
0001
1000
0100
0010
0000
,
0100
0000
0010
0000
0001
0010
0100
0010
,
0100
1000
0001
0100
0010
1000
0100
0010
,
0001
0000
1000
0000
0001
0100
0001
0000
,
1000
0100
0010
0100
1000
0000
0001
0100
,
0001
1000
0200
0000
0000
0000
0310
0001
,
1000
0001
0100
0010
0100
0001
1000
0100
,
0010
0100
1000
0001
0100
0000
0000
0000
,
0101
2002
3003
1100
,
2002
0000
3003
0110
;

//---------------dance-single - ----------------
#NOTES:
     dance-single:
     :
     Challenge:
     11:
     0.925,0.963,0.446,0.310,0.150: // measure 1
1000
0100
0010
0002
0000
0000
0003
0000
0000
0001
0100
0010
,  // measure 2
2000
0000
0000
3000
0000
0000
1000
0100
0010
0100
0010
0001
,  // measure 3
1000
0001
1000
0010
0000
0000
0000
0000
0000
0100
0001
1000
,  // measure 4
0001
1000
0000
0001
0000
0000
0220
0000
0000
0330
0000
0000
,  // measure 5
2001
0000
0000
0001
0000
0000
0010
0000
,  // measure 6
3001
0000
0010
1000
0100
0000
0000
0000
,  // measure 7
0000
0000
0010
0001
0010
0100
1000
0100
,  // measure 8
0210
0000
0010
0010
0000
0000
1000
0000
,  // measure 9
1300
0000
0100
1000
2002
0000
0000
0000
,  // measure 10
3003
0000
0101
0000
0100
0001
1001
0000
,  // measure 11
1000
0100
0001
0100
1000
0000
0001
0100
,  // measure 12
1000
0100
0001
1000
0100
0010
0001
1000
,  // measure 13
0001
1000
0010
0000
0100
0001
1000
0000
,  // measure 14
1001
0001
0011
1100
,  // measure 15
1000
1010
0202
0000
,  // measure 16
0000
0000
0000
0303
,  // measure 17
0001
1000
0100
0010
0001
1000
0001
0000
,  // measure 18
0100
0000
0010
1000
0100
0000
0010
0000
,  // measure 19
0001
0000
0010
0000
0001
0000
0010
0000
0000
0000
0000
0000
0001
0000
0000
1000
0000
0000
0001
0000
0000
1000
0000
0000
,  // measure 20
0010
0100
0001
0100
0010
1000
0100
0000
,  // measure 21
0010
0010
0001
0000
1001
0000
1100
1100
,  // measure 22
1100
0110
0011
1001
,  // measure 23
0220
0000
0000
0000
0330
0000
0001
0100
,  // measure 24
1000
0100
0001
1000
0100
0000
0010
0001
,  // measure 25
0100
0000
0000
0010
0000
0000
0100
0000
0000
0000
0000
0000
0010
0000
0000
0000
0000
0000
1000
0000
0010
0000
1000
0000
,  // measure 26
0010
0000
0100
0001
0010
1000
0010
0001
,  // measure 27
1000
0001
0100
1000
0100
0001
1000
0001
,  // measure 28
1000
0100
0010
0001
0010
0100
0010
1000
,  // measure 29
0010
0001
1000
0000
0010
0000
0110
0000
,  // measure 30
0100
0001
0100
0000
0000
0000
0010
0100
,  // measure 31
0010
0000
0000
0000
1000
0010
1000
0001
,  // measure 32
0010
0000
0100
0010
0100
0000
0010
0000
,  // measure 33
0001
0001
0010
0000
0000
0000
0100
0100
,  // measure 34
1000
0000
0000
0000
0001
1000
0001
0100
,  // measure 35
0010
0000
0100
0100
0010
0000
1000
0010
,  // measure 36
1000
0010
0100
0000
0001
0010
0001
0010
,  // measure 37
0100
0000
0010
0001
0100
1000
0100
0000
,  // measure 38
1000
0100
0001
0010
0100
0000
0010
0100
,  // measure 39
0010
0001
1000
0001
0100
1000
0100
0001
,  // measure 40
1000
0100
0010
0001
0100
0010
1000
0001
,  // measure 41
0100
0010
0100
0001
1000
0100
1100
0000
,  // measure 42
1000
0100
0010
0001
0100
0000
0010
0100
,  // measure 43
0010
0000
0000
1000
0000
0000
0001
0000
0000
0000
0000
0000
1000
0000
0000
0000
0000
0000
0001
0000
0010
0000
0001
0000
,  // measure 44
0010
0000
0001
0100
0001
1000
0010
0100
,  // measure 45
0001
0010
0100
0010
0001
0000
1000
0000
,  // measure 46
0001
0000
1000
0010
0001
1000
0100
0001
,  // measure 47
1000
0010
0001
1000
0100
0001
1000
0001
,  // measure 48
1000
0001
0010
0100
0010
0000
0001
0000
,  // measure 49
1000
0000
0000
0010
0000
0000
0100
0000
0000
0000
0000
0000
0001
0000
0000
0000
0000
0000
0010
0000
0001
0000
0010
0000
,  // measure 50
0001
0000
1000
0001
1000
0001
1000
0010
,  // measure 51
0001
0010
1000
0010
1000
0100
0001
0100
,  // measure 52
0001
0100
0110
0000
0000
0000
1010
0000
,  // measure 53
2002
3003
0011
2002
,  // measure 54
3003
0000
0220
0000
,  // measure 55
0330
2002
0000
0000
,  // measure 56
0000
0000
0000
0003
,  // measure 57
0200
0000
0000
3000
,  // measure 58
0002
0000
0000
0300
,  // measure 59
1003
0100
0000
1000
0000
0100
1000
0001
0000
1000
0000
0001
0100
0001
0000
0100
,  // measure 60
0110
0000
1001
0000
1000
0001
1000
0001
,  // measure 61
0100
0010
0100
0010
0100
0001
1000
0100
,  // measure 62
1000
0100
0010
0100
0010
0001
0100
0010
,  // measure 63
1000
0010
0100
0001
0010
0001
1000
0001
,  // measure 64
0100
0001
0100
0001
0100
0010
1000
0010
,  // measure 65
1000
0010
1000
0100
0010
0001
0100
1000
,  // measure 66
0100
0001
0010
1000
0010
0001
1000
0001
,  // measure 67
1000
0010
1000
0001
0100
0001
0010
0100
,  // measure 68
0010
0001
0010
0100
1000
0100
1000
0001
,  // measure 69
1000
0100
0010
0001
0100
0001
1000
0001
,  // measure 70
1000
0100
0001
1000
0010
0001
1000
0010
,  // measure 71
0001
1000
0100
0001
1000
0100
0001
0100
,  // measure 72
1000
0001
0011
0000
1100
0000
1001
0000
,  // measure 73
1000
0100
1000
1000
0100
0010
0001
0100
,  // measure 74
0010
0010
0100
0001
1000
0001
0010
0010
,  // measure 75
0100
0010
0001
1000
0010
0010
0100
0000
,  // measure 76
0001
1000
0100
0100
0010
0001
1000
0001
,  // measure 77
0100
0100
0010
1000
0100
0010
0001
0001
,  // measure 78
1000
0001
0100
0010
1000
1000
0001
0000
,  // measure 79
1000
0100
0010
0100
1000
0001
0100
0000
,  // measure 80
0110
0000
0101
0000
0001
0010
0100
0010
,  // measure 81
0001
1000
0001
0000
1100
0000
1001
0000
,  // measure 82
0220
0030
0010
0010
,  // measure 83
0001
0000
0001
0000
0302
0000
0100
0100
,  // measure 84
0103
0000
0001
0100
0001
1000
0100
0000
,  // measure 85
0022
0030
0010
0010
,  // measure 86
1000
0000
1000
0000
2003
0000
0100
0100
,  // measure 87
3100
0000
1000
0100
0010
0001
1000
0010
,  // measure 88
0110
0000
0000
0000
0100
0100
0100
0000
,  // measure 89
0010
0100
0001
0000
,  // measure 90
1000
1000
1000
0000
0001
0000
0010
0000
,  // measure 91
0001
0010
0001
1000
0010
1000
0010
0100
,  // measure 92
0010
0100
0001
0100
0001
1000
0100
0010
,  // measure 93
0011
2002
0000
3003
,  // measure 94
1000
0100
0001
0100
1000
0001
0100
0000
,  // measure 95
0010
0100
0010
0001
0010
0000
1000
0000
,  // measure 96
0001
0000
1000
0000
0001
0000
1000
0000
0000
0000
0000
0000
0001
0000
0000
0010
0000
0000
0001
0000
0000
0000
0000
0000
,  // measure 97
1000
0100
0001
0100
1000
0001
0100
0000
,  // measure 98
0110
0000
0101
0000
0001
0010
1000
0001
,  // measure 99
0100
1000
0001
0010
1000
0001
0100
1000
,  // measure 100
0001
0100
1000
0100
0010
1000
0001
0000
,  // measure 101
1000
0100
0010
0100
1000
0000
0001
0000
,  // measure 102
0100
0000
0001
0000
0100
0000
0001
0000
0000
0000
0000
0000
1000
0000
0000
0010
0000
0000
1000
0000
0000
0001
0000
0000
,  // measure 103
1000
0100
0010
0100
0010
0001
1000
0001
,  // measure 104
0100
1000
0100
0001
1000
0000
0000
0000
,  // measure 105
1010
0202
0303
0011
,  // measure 106
2200
0000
3300
1001
;

//---------------dance-single - ----------------
#NOTES:
     dance-single:
     :
     Medium:
     9:
     0.619,0.723,0.337,0.364,0.009:
1001
0000
0000
2002
0000
0000
3003
0000
0000
1000
0001
1000
,
0001
0000
0000
0000
0100
0010
1000
0001
,
1000
0001
0010
0200
0000
0000
0000
0300
,
2002
3003
0220
0330
,
2002
0000
0000
0000
,
3003
0001
1000
0000
,
0000
1000
0100
0010
,
0220
0000
0000
0000
,
0330
1000
1001
0000
,
0000
0001
1000
0100
,
0010
0010
0010
0001
,
0100
0010
1000
1000
,
1000
0010
0100
0001
,
2002
3003
0110
0220
,
0330
1001
2002
0000
,
0000
0000
0000
3003
,
1001
0000
1000
0001
0000
0001
1000
0000
,
0001
0100
0010
0000
,
0100
0010
1000
0001
,
1000
0100
0010
0100
,
0010
0000
0001
0000
1000
0000
0001
1000
,
0001
1000
0010
0100
,
0220
0000
0330
1001
,
0001
1000
0000
1000
0100
0000
0010
0000
,
0001
0000
1000
0000
0000
0000
0001
0100
,
0001
1000
0100
0010
,
0100
0010
0100
0000
0010
0000
0001
0010
,
0001
0000
1000
0000
0001
1000
0001
0000
,
1001
1000
0001
1000
,
0000
0001
0100
0000
,
0100
0001
1000
0100
,
0010
0100
1000
0100
,
0000
0010
0001
0000
,
0001
1000
0010
0100
,
0001
1000
0100
1100
,
0000
1000
0001
0000
0100
0000
0001
0000
,
1000
0000
0100
0000
0000
0100
0010
0000
,
0001
1000
0001
1000
,
0010
1000
0010
0000
0100
0000
0001
0100
,
0001
0000
1000
0000
0001
1000
0001
0000
,
1000
0001
1000
0001
1000
0000
1001
0000
,
0001
1000
0000
1000
0100
0000
0010
0000
,
0001
0000
1000
0000
0000
0000
0001
0100
,
0001
0000
1000
0100
,
0010
0100
1000
0001
,
1000
0000
0001
0000
0001
0100
0000
0100
,
0010
0000
0010
1000
0000
1000
0001
0000
,
1000
0100
0000
0010
0001
0000
1000
0000
,
0001
0100
0001
0000
0000
0000
1000
0100
,
1000
0000
0001
0000
1000
0001
0010
0000
,
0001
0010
0100
0010
,
0001
1000
0000
1010
,
2020
3030
0101
0202
,
0303
0000
2002
0000
,
3003
0120
0000
0000
,
0230
0000
0000
0000
,
0302
0000
0000
0000
,
2003
0000
0000
0000
,
3002
0000
0000
0000
,
1000
2000
0000
3003
,
1001
0000
1000
0100
0000
1000
0100
0000
,
0010
0000
0001
0000
1000
0000
0001
1000
,
0000
1000
0001
0000
0100
0001
0100
0000
,
0010
0000
0100
0010
0000
0010
1000
0000
,
0001
0000
1000
0000
0001
0000
0010
0001
,
0100
0000
0010
0000
1000
0010
0100
0000
,
0001
1000
0100
0010
,
0100
1000
0001
0010
,
0100
0010
0001
1000
,
0010
1000
0010
1000
0010
0000
0100
0001
,
0100
0001
0100
0000
0001
1000
0001
1000
,
0001
1000
0100
0010
,
0110
0000
0000
0010
0001
0000
1000
0000
,
0000
1000
0001
0000
0100
0000
0000
0100
,
0010
0000
1000
0000
0010
1000
0001
0000
,
1000
0000
0000
0001
0010
0000
0100
0000
,
0000
1000
0100
0000
0010
0000
0000
0001
,
1000
0000
0001
0100
0001
0100
0010
0000
,
1001
0000
1000
0100
1000
0000
0001
0000
,
0010
0000
0100
0000
0010
0000
0001
1000
,
0001
1000
0010
0100
,
1002
0000
0010
0010
,
0000
0100
0100
0000
,
1000
1003
0001
0100
,
0210
0000
0010
0010
,
0000
0001
0001
0000
,
0010
0000
0310
0000
0100
0010
1000
0000
,
2001
0000
0001
3001
,
0000
0000
0012
0000
,
0010
0013
0000
0000
,
1100
0000
1000
1001
,
0000
0001
0101
0100
,
0010
2002
0000
3003
,
1000
0000
0001
0010
0000
0010
0001
0000
,
1000
0000
0001
0100
0001
0000
1000
0000
,
0010
0100
0010
0000
0000
0000
0000
0000
,
1000
0000
0001
1000
0000
1000
0100
0000
,
0010
0000
0001
0000
1000
0010
1000
0010
,
1000
0000
0001
0100
0001
0100
0001
0000
,
1000
0000
0001
1000
0000
1000
0100
0000
,
0010
0000
0001
1000
0001
0000
1000
0000
,
0001
0100
0001
0000
0000
0000
1000
0010
,
0100
0001
0010
0100
,
0010
0001
2001
0000
,
0010
3020
0000
0100
,
0200
0000
0330
1001
;

//---------------dance-single - ----------------
#NOTES:
     dance-single:
     :
     Easy:
     7:
     0.439,0.530,0.246,0.173,0.000:
1000
2000
0000
0001
,
3001
0000
0000
1000
,
0001
0002
0000
1000
,
1003
0000
0220
0330
,
2002
0000
0000
0000
,
0000
0000
0000
0000
,
3003
0000
0000
1000
,
2002
0000
0000
0000
,
3003
0001
0100
0000
,
0000
0110
0000
0000
,
1000
0100
1000
0000
,
0001
0010
0001
0100
,
0001
0000
1000
0001
,
0100
0000
0100
0101
,
0000
0001
2002
0000
,
0000
0000
0000
3003
,
1001
1000
0100
0010
,
0000
0100
0010
0000
,
0010
0100
0000
0000
,
0010
0001
1000
0001
,
0100
1000
0100
0001
,
0001
1000
0100
0010
,
0220
0000
0330
0010
,
0001
1000
0001
0000
,
1000
0001
0000
0001
,
1000
0000
0001
0100
,
0010
1000
0010
0100
,
0001
1000
0001
1000
,
1001
0000
0000
0100
,
0000
0000
0010
0000
,
0000
1000
0000
0000
,
0001
1000
0100
0010
,
0000
0000
0100
0000
,
0000
0010
0000
0000
,
0001
1000
0001
1000
,
1000
1000
0001
0100
,
0010
0100
0100
0100
,
0010
0100
0001
1001
,
0000
1000
0100
0000
,
0010
0001
1000
0001
,
0100
0000
0010
0100
,
0010
0100
0001
0000
,
0001
1000
0000
1000
,
0100
0000
0000
0010
,
0001
1000
0001
0100
,
0010
0000
1000
0000
0000
1000
0000
0000
,
0001
0000
0000
0001
0000
0000
1000
0000
,
0001
0010
0100
0000
,
0010
0001
0000
0001
,
1000
0000
0001
0100
,
0001
1000
0100
0010
,
0100
1000
0000
1001
,
1001
0000
0110
0110
,
0000
0000
2002
0000
,
3003
0110
0000
0000
,
0100
0000
0000
0000
,
0010
0000
0000
0000
,
1000
0000
0000
0000
,
0001
0000
0000
0000
,
1000
1000
0000
0000
,
1001
0000
0000
1000
0000
0000
0100
0000
,
0000
0010
0000
0000
0001
0000
0000
1000
,
0000
0001
0100
0001
,
1000
0000
0000
0001
0000
0000
1000
0000
,
0000
0001
0000
0000
0010
0000
0000
0100
,
0000
0010
0100
0010
,
0001
0000
0001
1000
,
0001
0100
0010
0000
,
0010
0100
0001
1000
,
1100
0000
0000
0011
,
0000
0000
1001
0000
,
0000
1000
0010
0100
,
0110
0000
0000
0010
0000
0000
1000
0000
,
0000
1000
0000
0000
0001
0000
0000
0001
,
0000
1000
0100
0010
,
0001
0000
0000
1000
0000
0000
0010
0000
,
0000
1000
0000
0000
0100
0000
0000
1000
,
0000
0100
0010
0001
,
1000
0001
0100
0010
,
1000
0100
0010
0001
,
0100
0001
1000
0010
,
0110
0000
0100
0100
,
0000
0001
0001
0000
,
1000
1000
0100
0010
,
1001
0000
0001
0001
,
0000
0100
0100
0000
,
0010
0010
1000
0100
,
0110
0000
0010
0001
,
0000
0001
1000
0001
,
1000
0001
0000
0100
,
0010
1000
0100
0010
,
0100
0010
0001
1000
,
0001
2002
0000
3003
,
1000
0100
0010
0001
,
0000
0010
0001
0000
,
0001
1000
0000
0001
,
0100
0010
1000
0100
,
0010
0000
0100
0000
0000
0010
0000
0000
,
0100
0000
0000
0010
0000
0000
0100
0000
,
1000
0001
0100
0000
,
0010
0100
0000
0100
,
0001
0000
1000
0100
,
0010
0001
0100
0010
,
1000
0001
1002
0000
,
1000
2003
0000
0001
,
0002
0000
3003
1001
;

//---------------dance-single - ----------------
#NOTES:
     dance-single:
     :
     Beginner:
     3:
     0.181,0.289,0.237,0.000,0.000:
0001
0000
0000
1000
,
1000
0000
0000
0000
,
0100
0000
0000
0010
,
0010
0000
0001
0000
,
1001
0000
0000
0000
,
0000
0000
0000
0000
,
0000
0000
0000
0000
,
1001
0000
0000
0000
,
0000
0000
1000
0000
,
0000
0010
0000
0000
,
0110
0000
0000
0000
,
0000
0000
0100
0000
,
0000
0000
0000
0000
,
1001
0000
0000
1001
,
0000
0000
1001
0000
,
0000
0000
0000
0000
,
0001
0000
0000
1000
,
0000
0000
0001
0000
,
0000
0001
0000
0000
,
1000
0000
0000
0100
,
0000
0000
0110
0000
,
0000
1001
0000
0000
,
0110
0000
0000
0010
,
0000
0000
0100
0000
,
0000
0010
0000
0000
,
1000
0000
0000
0001
,
0000
0000
0001
0000
,
0000
1000
0000
0000
,
1001
0000
0000
1000
,
0000
0000
0000
0000
,
0000
0001
0000
0000
,
0000
0000
0000
1000
,
0000
0000
0000
0000
,
0000
0001
0000
0000
,
0000
0000
0000
0100
,
0000
0000
0100
0000
,
0000
0010
0000
0000
,
0010
0000
0000
1000
,
0000
0000
1000
0000
,
0000
0001
0000
0000
,
1001
0000
0000
1001
,
0000
0000
0000
0000
,
0000
1000
0000
0000
,
0000
0000
0000
0001
,
0000
0000
0010
0000
,
0000
0001
0000
0000
,
0000
0000
0000
1001
,
0000
0000
0000
0000
,
0000
1000
0000
0000
,
0010
0000
0000
0100
,
0000
0000
0001
0000
,
0000
1000
0000
0000
,
1000
0000
0000
1000
,
0000
0000
1001
0000
,
0000
0110
0000
0000
,
0000
0000
0000
0000
,
0100
0000
0000
0000
,
0010
0000
0000
0000
,
0100
0000
0000
0000
,
0000
0000
0000
0000
,
1001
0000
0000
0000
,
0000
0000
1000
0000
,
0000
0000
0000
0000
,
0001
0000
0000
0000
,
0000
0000
0010
0000
,
0000
0000
0000
0000
,
0100
0000
0000
0010
,
0000
0000
0001
0000
,
0000
1000
0000
0000
,
0001
0000
0000
0001
,
0000
0000
1000
0000
,
0000
1001
0000
0000
,
1001
0000
0000
0000
,
0000
0000
1000
0000
,
0000
0001
0000
0000
,
0100
0000
0000
0000
,
0000
0000
0010
0000
,
0000
0100
0000
0000
,
0001
0000
0000
1000
,
0000
0000
0100
0000
,
0000
0010
0000
0000
,
0110
0000
0000
0000
,
0000
0000
0100
0000
,
0000
0010
0000
0000
,
1001
0000
0000
0000
,
0000
0000
1000
0000
,
0000
0001
0000
0000
,
1001
0000
0000
0000
,
0000
0000
1000
0000
,
0000
0000
0000
0000
,
0010
0000
0000
0100
,
0000
0000
0010
0000
,
0000
0100
0000
0000
,
1001
0000
0000
0000
,
0000
0000
1000
0000
,
0000
0100
0000
0000
,
1000
0000
0000
0001
,
0000
0000
0010
0000
,
0000
0100
0000
0000
,
0110
0000
0000
0000
,
0000
0000
0010
0000
,
0000
0001
0000
0000
,
1000
0000
0000
0001
,
0000
0000
1000
0000
,
0000
1001
0000
0000
,
1001
0000
0000
0110
;
